   0
SECTION
   2
HEADER
   9
$ACADVER
   1
AC1015
   9
$LIMMIN
  10
0.0
  20
0.0
   9
$LIMMAX
  10
 420.00000000000
  20
 297.00000000000
   9
$EXTMIN
  10
0.0
  20
0.0
  30
0.0
   9
$EXTMAX
  10
 420.00000000000
  20
 297.00000000000
  30
0.0
   9
$LTSCALE
  40
 8.4000000000000
   9
$HANDSEED
   5
67E
   0
ENDSEC
   0
SECTION
   2
TABLES
  0
TABLE
  2
VPORT
  5
8
100
AcDbSymbolTable
 70
     1
  0
VPORT
  5
67D
100
AcDbSymbolTableRecord
100
AcDbViewportTableRecord
  2
*ACTIVE
 70
     0
 10
0.0
 20
0.0
 11
1.0
 21
1.0
  12
 210.00000000000
  22
 148.50000000000
 13
0.0
 23
0.0
 14
1.0
 24
1.0
 15
0.0
 25
0.0
 16
0.0
 26
0.0
 36
1.0
 17
0.0
 27
0.0
 37
0.0
  40
 420.00000000000
  41
 1.4787878787879
 42
50.0
 43
0.0
 44
0.0
 50
0.0
 51
0.0
 71
     0
 72
   100
 73
     1
 74
     1
 75
     0
 76
     0
 77
     0
 78
     0
  0
ENDTAB
  0
TABLE
  2
LTYPE
  5
5
100
AcDbSymbolTable
 70
    25
  0
LTYPE
  5
12
100
AcDbSymbolTableRecord
100
AcDbLinetypeTableRecord
  2
BYBLOCK
 70
     0
  3

 72
    65
 73
     0
 40
0.0
  0
LTYPE
  5
13
100
AcDbSymbolTableRecord
100
AcDbLinetypeTableRecord
  2
BYLAYER
 70
     0
  3

 72
    65
 73
     0
 40
0.0
  0
LTYPE
  5
14
100
AcDbSymbolTableRecord
100
AcDbLinetypeTableRecord
  2
CONTINUOUS
 70
     0
  3
Solid line
 72
    65
 73
     0
 40
0.0
  0
LTYPE
  5
20
100
AcDbSymbolTableRecord
100
AcDbLinetypeTableRecord
  2
BORDER
 70
     0
  3
__ __ . __ __ . __ __ . __ __ . __ __ . __ __ .
 72
    65
 73
     6
 40
1.75
 49
0.5
 74
     0
 49
-0.25
 74
     0
 49
0.5
 74
     0
 49
-0.25
 74
     0
 49
0.0
 74
     0
 49
-0.25
 74
     0
  0
LTYPE
  5
21
100
AcDbSymbolTableRecord
100
AcDbLinetypeTableRecord
  2
BORDER2
 70
     0
  3
__.__.__.__.__.__.__.__.__.__.__.__.__.__.__.__
 72
    65
 73
     6
 40
0.875
 49
0.25
 74
     0
 49
-0.125
 74
     0
 49
0.25
 74
     0
 49
-0.125
 74
     0
 49
0.0
 74
     0
 49
-0.125
 74
     0
  0
LTYPE
  5
22
100
AcDbSymbolTableRecord
100
AcDbLinetypeTableRecord
  2
BORDERX2
 70
     0
  3
____  ____  .  ____  ____  .  ____  ____  .  __
 72
    65
 73
     6
 40
3.5
 49
1.0
 74
     0
 49
-0.5
 74
     0
 49
1.0
 74
     0
 49
-0.5
 74
     0
 49
0.0
 74
     0
 49
-0.5
 74
     0
  0
LTYPE
  5
23
100
AcDbSymbolTableRecord
100
AcDbLinetypeTableRecord
  2
CENTER
 70
     0
  3
____ _ ____ _ ____ _ ____ _ ____ _ ____ _ ____ 
 72
    65
 73
     4
 40
2.0
 49
1.25
 74
     0
 49
-0.25
 74
     0
 49
0.25
 74
     0
 49
-0.25
 74
     0
  0
LTYPE
  5
24
100
AcDbSymbolTableRecord
100
AcDbLinetypeTableRecord
  2
CENTER2
 70
     0
  3
___ _ ___ _ ___ _ ___ _ ___ _ ___ _ ___ _ ___ _
 72
    65
 73
     4
 40
1.125
 49
0.75
 74
     0
 49
-0.125
 74
     0
 49
0.125
 74
     0
 49
-0.125
 74
     0
  0
LTYPE
  5
25
100
AcDbSymbolTableRecord
100
AcDbLinetypeTableRecord
  2
CENTERX2
 70
     0
  3
________  __  ________  __  ________  __  _____
 72
    65
 73
     4
 40
4.0
 49
2.5
 74
     0
 49
-0.5
 74
     0
 49
0.5
 74
     0
 49
-0.5
 74
     0
  0
LTYPE
  5
26
100
AcDbSymbolTableRecord
100
AcDbLinetypeTableRecord
  2
DASHDOT
 70
     0
  3
__ . __ . __ . __ . __ . __ . __ . __ . __ . __
 72
    65
 73
     4
 40
1.0
 49
0.5
 74
     0
 49
-0.25
 74
     0
 49
0.0
 74
     0
 49
-0.25
 74
     0
  0
LTYPE
  5
27
100
AcDbSymbolTableRecord
100
AcDbLinetypeTableRecord
  2
DASHDOT2
 70
     0
  3
_._._._._._._._._._._._._._._._._._._._._._._._
 72
    65
 73
     4
 40
0.5
 49
0.25
 74
     0
 49
-0.125
 74
     0
 49
0.0
 74
     0
 49
-0.125
 74
     0
  0
LTYPE
  5
28
100
AcDbSymbolTableRecord
100
AcDbLinetypeTableRecord
  2
DASHDOTX2
 70
     0
  3
____  .  ____  .  ____  .  ____  .  ____  .  __
 72
    65
 73
     4
 40
2.0
 49
1.0
 74
     0
 49
-0.5
 74
     0
 49
0.0
 74
     0
 49
-0.5
 74
     0
  0
LTYPE
  5
29
100
AcDbSymbolTableRecord
100
AcDbLinetypeTableRecord
  2
DASHED
 70
     0
  3
__ __ __ __ __ __ __ __ __ __ __ __ __ __ __ __
 72
    65
 73
     2
 40
0.75
 49
0.5
 74
     0
 49
-0.25
 74
     0
  0
LTYPE
  5
2A
100
AcDbSymbolTableRecord
100
AcDbLinetypeTableRecord
  2
DASHED2
 70
     0
  3
_ _ _ _ _ _ _ _ _ _ _ _ _ _ _ _ _ _ _ _ _ _ _ _
 72
    65
 73
     2
 40
0.375
 49
0.25
 74
     0
 49
-0.125
 74
     0
  0
LTYPE
  5
2B
100
AcDbSymbolTableRecord
100
AcDbLinetypeTableRecord
  2
DASHEDX2
 70
     0
  3
____  ____  ____  ____  ____  ____  ____  ____ 
 72
    65
 73
     2
 40
1.5
 49
1.0
 74
     0
 49
-0.5
 74
     0
  0
LTYPE
  5
2C
100
AcDbSymbolTableRecord
100
AcDbLinetypeTableRecord
  2
DIVIDE
 70
     0
  3
____ . . ____ . . ____ . . ____ . . ____ . . __
 72
    65
 73
     6
 40
1.25
 49
0.5
 74
     0
 49
-0.25
 74
     0
 49
0.0
 74
     0
 49
-0.25
 74
     0
 49
0.0
 74
     0
 49
-0.25
 74
     0
  0
LTYPE
  5
2D
100
AcDbSymbolTableRecord
100
AcDbLinetypeTableRecord
  2
DIVIDE2
 70
     0
  3
__..__..__..__..__..__..__..__..__..__..__..__.
 72
    65
 73
     6
 40
0.625
 49
0.25
 74
     0
 49
-0.125
 74
     0
 49
0.0
 74
     0
 49
-0.125
 74
     0
 49
0.0
 74
     0
 49
-0.125
 74
     0
  0
LTYPE
  5
2E
100
AcDbSymbolTableRecord
100
AcDbLinetypeTableRecord
  2
DIVIDEX2
 70
     0
  3
________  .  .  ________  .  .  ________  .  . 
 72
    65
 73
     6
 40
2.5
 49
1.0
 74
     0
 49
-0.5
 74
     0
 49
0.0
 74
     0
 49
-0.5
 74
     0
 49
0.0
 74
     0
 49
-0.5
 74
     0
  0
LTYPE
  5
2F
100
AcDbSymbolTableRecord
100
AcDbLinetypeTableRecord
  2
DOT
 70
     0
  3
. . . . . . . . . . . . . . . . . . . . . . . .
 72
    65
 73
     2
 40
0.25
 49
0.0
 74
     0
 49
-0.25
 74
     0
  0
LTYPE
  5
30
100
AcDbSymbolTableRecord
100
AcDbLinetypeTableRecord
  2
DOT2
 70
     0
  3
...............................................
 72
    65
 73
     2
 40
0.125
 49
0.0
 74
     0
 49
-0.125
 74
     0
  0
LTYPE
  5
31
100
AcDbSymbolTableRecord
100
AcDbLinetypeTableRecord
  2
DOTX2
 70
     0
  3
.  .  .  .  .  .  .  .  .  .  .  .  .  .  .  . 
 72
    65
 73
     2
 40
0.5
 49
0.0
 74
     0
 49
-0.5
 74
     0
  0
LTYPE
  5
32
100
AcDbSymbolTableRecord
100
AcDbLinetypeTableRecord
  2
HIDDEN
 70
     0
  3
__ __ __ __ __ __ __ __ __ __ __ __ __ __ __ __
 72
    65
 73
     2
 40
0.375
 49
0.25
 74
     0
 49
-0.125
 74
     0
  0
LTYPE
  5
33
100
AcDbSymbolTableRecord
100
AcDbLinetypeTableRecord
  2
HIDDEN2
 70
     0
  3
_ _ _ _ _ _ _ _ _ _ _ _ _ _ _ _ _ _ _ _ _ _ _ _
 72
    65
 73
     2
 40
0.1875
 49
0.125
 74
     0
 49
-0.0625
 74
     0
  0
LTYPE
  5
34
100
AcDbSymbolTableRecord
100
AcDbLinetypeTableRecord
  2
HIDDENX2
 70
     0
  3
____ ____ ____ ____ ____ ____ ____ ____ ____ __
 72
    65
 73
     2
 40
0.75
 49
0.5
 74
     0
 49
-0.25
 74
     0
  0
LTYPE
  5
35
100
AcDbSymbolTableRecord
100
AcDbLinetypeTableRecord
  2
PHANTOM
 70
     0
  3
______  __  __  ______  __  __  ______  __  __ 
 72
    65
 73
     6
 40
2.5
 49
1.25
 74
     0
 49
-0.25
 74
     0
 49
0.25
 74
     0
 49
-0.25
 74
     0
 49
0.25
 74
     0
 49
-0.25
 74
     0
  0
LTYPE
  5
36
100
AcDbSymbolTableRecord
100
AcDbLinetypeTableRecord
  2
PHANTOM2
 70
     0
  3
___ _ _ ___ _ _ ___ _ _ ___ _ _ ___ _ _ ___ _ _
 72
    65
 73
     6
 40
1.25
 49
0.625
 74
     0
 49
-0.125
 74
     0
 49
0.125
 74
     0
 49
-0.125
 74
     0
 49
0.125
 74
     0
 49
-0.125
 74
     0
  0
LTYPE
  5
37
100
AcDbSymbolTableRecord
100
AcDbLinetypeTableRecord
  2
PHANTOMX2
 70
     0
  3
____________    ____    ____    ____________   
 72
    65
 73
     6
 40
5.0
 49
2.5
 74
     0
 49
-0.5
 74
     0
 49
0.5
 74
     0
 49
-0.5
 74
     0
 49
0.5
 74
     0
 49
-0.5
 74
     0
  0
ENDTAB
   0
TABLE
   2
LAYER
   5
2
 100
AcDbSymbolTable
  70
3
   0
LAYER
   5
E
 100
AcDbSymbolTableRecord
 100
AcDbLayerTableRecord
   2
0
  70
0
  62
7
   6
CONTINUOUS
 390
30
   0
LAYER
   5
39
 100
AcDbSymbolTableRecord
 100
AcDbLayerTableRecord
   2
LEVEL001
  70
0
  62
7
   6
CONTINUOUS
 390
30
   0
LAYER
   5
3A
 100
AcDbSymbolTableRecord
 100
AcDbLayerTableRecord
   2
LEVEL002
  70
0
  62
7
   6
CONTINUOUS
 390
30
   0
ENDTAB
  0
TABLE
  2
STYLE
  5
3
100
AcDbSymbolTable
  70
3
  0
STYLE
  5
F
100
AcDbSymbolTableRecord
100
AcDbTextStyleTableRecord
  2
STANDARD
 70
     0
 40
0.0
 41
1.0
 50
0.0
 71
     0
 42
0.2
  3
TXT
  4
BIGFONT
  0
STYLE
  5
38
100
AcDbSymbolTableRecord
100
AcDbTextStyleTableRecord
  2
STANDARD1
 70
     4
 40
0.0
 41
1.0
 50
0.0
 71
     0
 42
0.2
  3
TXT
  4
BIGFONT
   0
STYLE
   5
3B
 100
AcDbSymbolTableRecord
 100
AcDbTextStyleTableRecord
   2
GMM001
  70
0
  40
0.0
  41
 0.84210526315789
  50
0.0
  71
     0
  42
1.0
   3
txt.shx
   4
bigfont.shx
   0
ENDTAB
  0
TABLE
  2
VIEW
  5
6
100
AcDbSymbolTable
 70
     0
  0
ENDTAB
  0
TABLE
  2
UCS
  5
7
100
AcDbSymbolTable
 70
     0
  0
ENDTAB
  0
TABLE
  2
APPID
  5
9
100
AcDbSymbolTable
 70
     1
  0
APPID
  5
10
100
AcDbSymbolTableRecord
100
AcDbRegAppTableRecord
  2
ACAD
 70
     0
  0
ENDTAB
   0
TABLE
   2
DIMSTYLE
   5
A
 100
AcDbSymbolTable
  70
7
 100
AcDbDimStyleTable
  0
DIMSTYLE
105
1D
100
AcDbSymbolTableRecord
100
AcDbDimStyleTableRecord
  2
STANDARD
 70
     0
  3

  4

  5

  6

  7

 40
1.0
 41
0.18
 42
0.0625
 43
0.38
 44
0.18
 45
0.0
 46
0.0
 47
0.0
 48
0.0
140
0.18
141
0.09
142
0.0
143
25.4
144
1.0
145
0.0
146
1.0
147
0.09
 71
     0
 72
     0
 73
     1
 74
     1
 75
     0
 76
     0
 77
     0
 78
     0
170
     0
171
     2
172
     0
173
     0
174
     0
175
     0
176
     0
177
     0
178
     0
270
     2
271
     4
272
     4
273
     2
274
     2
340
F
275
     0
280
     0
281
     0
282
     0
283
     1
284
     0
285
     0
286
     0
287
     3
288
     0
   0
DIMSTYLE
 105
3C
 100
AcDbSymbolTableRecord
 100
AcDbDimStyleTableRecord
   2
GMM001
  70
0
   3

   4

   5

   6
_OPEN30
   7
_OPEN30
  40
 1.0000000000000
  41
 2.0000000000000
  42
 1.0000000000000
  43
 8.0000000000000
  44
 2.0000000000000
  45
0.0
  46
0.0
  47
0.0
  48
0.0
 140
 3.8000000000000
 141
 1.0000000000000
 142
0.0
 143
 0.39400000000000E-1
 144
 1.0000000000000
 145
0.0
 146
 0.65789473684211
 147
 1.6285714285714
  71
0
  72
0
  73
0
  74
0
  75
0
  76
0
  77
3
  78
8
 170
0
 171
2
 172
1
 173
1
 174
0
 175
0
 176
2
 177
2
 178
2
 270
2
 271
6
 272
0
 273
2
 274
2
 340
3B
 275
0
 280
0
 281
0
 282
0
 283
1
 284
0
 285
0
 286
0
 287
3
 288
0
   0
DIMSTYLE
 105
3D
 100
AcDbSymbolTableRecord
 100
AcDbDimStyleTableRecord
   2
GMM002
  70
0
   3
%%c<>
   4

   5

   6
_OPEN30
   7
_OPEN30
  40
 1.0000000000000
  41
 2.0000000000000
  42
 1.0000000000000
  43
 8.0000000000000
  44
 2.0000000000000
  45
0.0
  46
0.0
  47
0.0
  48
0.0
 140
 3.8000000000000
 141
 1.0000000000000
 142
0.0
 143
 0.39400000000000E-1
 144
 1.0000000000000
 145
0.0
 146
 0.65789473684211
 147
 1.6285714285714
  71
0
  72
0
  73
0
  74
0
  75
0
  76
0
  77
3
  78
8
 170
0
 171
2
 172
1
 173
1
 174
0
 175
0
 176
2
 177
2
 178
2
 270
2
 271
6
 272
0
 273
2
 274
2
 340
3B
 275
0
 280
0
 281
0
 282
0
 283
1
 284
0
 285
0
 286
0
 287
3
 288
0
   0
DIMSTYLE
 105
3E
 100
AcDbSymbolTableRecord
 100
AcDbDimStyleTableRecord
   2
GMM003
  70
0
   3
W-16=L(パイプ<>
   4

   5

   6
_OPEN30
   7
_OPEN30
  40
 1.0000000000000
  41
 2.0000000000000
  42
 1.0000000000000
  43
 8.0000000000000
  44
 2.0000000000000
  45
0.0
  46
0.0
  47
0.0
  48
0.0
 140
 3.8000000000000
 141
 1.0000000000000
 142
0.0
 143
 0.39400000000000E-1
 144
 1.0000000000000
 145
0.0
 146
 0.65789473684211
 147
 1.6285714285714
  71
0
  72
0
  73
0
  74
0
  75
0
  76
0
  77
3
  78
8
 170
0
 171
2
 172
1
 173
1
 174
0
 175
0
 176
2
 177
2
 178
2
 270
2
 271
6
 272
0
 273
2
 274
2
 340
3B
 275
0
 280
0
 281
0
 282
0
 283
1
 284
0
 285
0
 286
0
 287
3
 288
0
   0
DIMSTYLE
 105
3F
 100
AcDbSymbolTableRecord
 100
AcDbDimStyleTableRecord
   2
GMM004
  70
0
   3
W(浴室壁内寸<>
   4

   5

   6
_OPEN30
   7
_OPEN30
  40
 1.0000000000000
  41
 2.0000000000000
  42
 1.0000000000000
  43
 8.0000000000000
  44
 2.0000000000000
  45
0.0
  46
0.0
  47
0.0
  48
0.0
 140
 3.8000000000000
 141
 1.0000000000000
 142
0.0
 143
 0.39400000000000E-1
 144
 1.0000000000000
 145
0.0
 146
 0.65789473684211
 147
 1.6285714285714
  71
0
  72
0
  73
0
  74
0
  75
0
  76
0
  77
3
  78
8
 170
0
 171
2
 172
1
 173
1
 174
0
 175
0
 176
2
 177
2
 178
2
 270
2
 271
6
 272
0
 273
2
 274
2
 340
3B
 275
0
 280
0
 281
0
 282
0
 283
1
 284
0
 285
0
 286
0
 287
3
 288
0
   0
DIMSTYLE
 105
40
 100
AcDbSymbolTableRecord
 100
AcDbDimStyleTableRecord
   2
GMM005
  70
0
   3

   4

   5

   6
_OPEN30
   7
_OPEN30
  40
 1.0000000000000
  41
 2.0000000000000
  42
 1.0000000000000
  43
 8.0000000000000
  44
 2.0000000000000
  45
0.0
  46
0.0
  47
0.0
  48
0.0
 140
 3.8000000000000
 141
 1.0000000000000
 142
0.0
 143
 0.39400000000000E-1
 144
 1.0000000000000
 145
0.0
 146
 0.65789473684211
 147
 1.6285714285714
  71
0
  72
0
  73
0
  74
0
  75
0
  76
0
  77
3
  78
8
 170
0
 171
2
 172
1
 173
1
 174
0
 175
0
 176
2
 177
2
 178
2
 270
2
 271
6
 272
0
 273
2
 274
2
 340
3B
 275
0
 280
0
 281
0
 282
0
 283
1
 284
0
 285
0
 286
0
 287
3
 288
1
   0
ENDTAB
  0
TABLE
  2
BLOCK_RECORD
  5
1
100
AcDbSymbolTable
 70
     0
  0
BLOCK_RECORD
  5
18
100
AcDbSymbolTableRecord
100
AcDbBlockTableRecord
  2
*MODEL_SPACE
  0
BLOCK_RECORD
  5
15
100
AcDbSymbolTableRecord
100
AcDbBlockTableRecord
  2
*PAPER_SPACE
   0
BLOCK_RECORD
   5
41
 100
AcDbSymbolTableRecord
 100
AcDbBlockTableRecord
   2
BLOCK001
   0
BLOCK_RECORD
   5
42
 100
AcDbSymbolTableRecord
 100
AcDbBlockTableRecord
   2
BLOCK002
   0
BLOCK_RECORD
   5
43
 100
AcDbSymbolTableRecord
 100
AcDbBlockTableRecord
   2
*D1
   0
BLOCK_RECORD
   5
44
 100
AcDbSymbolTableRecord
 100
AcDbBlockTableRecord
   2
*D2
   0
BLOCK_RECORD
   5
45
 100
AcDbSymbolTableRecord
 100
AcDbBlockTableRecord
   2
*D3
   0
BLOCK_RECORD
   5
46
 100
AcDbSymbolTableRecord
 100
AcDbBlockTableRecord
   2
*D4
   0
BLOCK_RECORD
   5
47
 100
AcDbSymbolTableRecord
 100
AcDbBlockTableRecord
   2
*D5
   0
BLOCK_RECORD
   5
48
 100
AcDbSymbolTableRecord
 100
AcDbBlockTableRecord
   2
*D6
   0
BLOCK_RECORD
   5
49
 100
AcDbSymbolTableRecord
 100
AcDbBlockTableRecord
   2
HATCH001
   0
BLOCK_RECORD
   5
4A
 100
AcDbSymbolTableRecord
 100
AcDbBlockTableRecord
   2
HATCH002
   0
BLOCK_RECORD
   5
4B
 100
AcDbSymbolTableRecord
 100
AcDbBlockTableRecord
   2
HATCH003
   0
BLOCK_RECORD
   5
4C
 100
AcDbSymbolTableRecord
 100
AcDbBlockTableRecord
   2
HATCH004
   0
BLOCK_RECORD
   5
4D
 100
AcDbSymbolTableRecord
 100
AcDbBlockTableRecord
   2
HATCH005
   0
BLOCK_RECORD
   5
4E
 100
AcDbSymbolTableRecord
 100
AcDbBlockTableRecord
   2
HATCH006
   0
BLOCK_RECORD
   5
4F
 100
AcDbSymbolTableRecord
 100
AcDbBlockTableRecord
   2
HATCH007
   0
BLOCK_RECORD
   5
50
 100
AcDbSymbolTableRecord
 100
AcDbBlockTableRecord
   2
*D7
   0
BLOCK_RECORD
   5
51
 100
AcDbSymbolTableRecord
 100
AcDbBlockTableRecord
   2
*D8
   0
BLOCK_RECORD
   5
52
 100
AcDbSymbolTableRecord
 100
AcDbBlockTableRecord
   2
*D9
   0
BLOCK_RECORD
   5
53
 100
AcDbSymbolTableRecord
 100
AcDbBlockTableRecord
   2
*D10
   0
BLOCK_RECORD
   5
54
 100
AcDbSymbolTableRecord
 100
AcDbBlockTableRecord
   2
*D11
   0
BLOCK_RECORD
   5
55
 100
AcDbSymbolTableRecord
 100
AcDbBlockTableRecord
   2
*D12
   0
BLOCK_RECORD
   5
56
 100
AcDbSymbolTableRecord
 100
AcDbBlockTableRecord
   2
*D13
   0
BLOCK_RECORD
   5
57
 100
AcDbSymbolTableRecord
 100
AcDbBlockTableRecord
   2
*D14
   0
BLOCK_RECORD
   5
58
 100
AcDbSymbolTableRecord
 100
AcDbBlockTableRecord
   2
*D15
   0
BLOCK_RECORD
   5
59
 100
AcDbSymbolTableRecord
 100
AcDbBlockTableRecord
   2
HATCH008
   0
BLOCK_RECORD
   5
5A
 100
AcDbSymbolTableRecord
 100
AcDbBlockTableRecord
   2
*D16
   0
BLOCK_RECORD
   5
5B
 100
AcDbSymbolTableRecord
 100
AcDbBlockTableRecord
   2
*D17
   0
BLOCK_RECORD
   5
5C
 100
AcDbSymbolTableRecord
 100
AcDbBlockTableRecord
   2
*D18
   0
BLOCK_RECORD
   5
5D
 100
AcDbSymbolTableRecord
 100
AcDbBlockTableRecord
   2
*D19
   0
BLOCK_RECORD
   5
5E
 100
AcDbSymbolTableRecord
 100
AcDbBlockTableRecord
   2
*D20
   0
BLOCK_RECORD
   5
5F
 100
AcDbSymbolTableRecord
 100
AcDbBlockTableRecord
   2
_ARCHTICK
   0
BLOCK_RECORD
   5
60
 100
AcDbSymbolTableRecord
 100
AcDbBlockTableRecord
   2
_BOXBLANK
   0
BLOCK_RECORD
   5
61
 100
AcDbSymbolTableRecord
 100
AcDbBlockTableRecord
   2
_BOXFILLED
   0
BLOCK_RECORD
   5
62
 100
AcDbSymbolTableRecord
 100
AcDbBlockTableRecord
   2
_CLOSED
   0
BLOCK_RECORD
   5
63
 100
AcDbSymbolTableRecord
 100
AcDbBlockTableRecord
   2
_CLOSEDBLANK
   0
BLOCK_RECORD
   5
64
 100
AcDbSymbolTableRecord
 100
AcDbBlockTableRecord
   2
_DATUMBLANK
   0
BLOCK_RECORD
   5
65
 100
AcDbSymbolTableRecord
 100
AcDbBlockTableRecord
   2
_DATUMFILLED
   0
BLOCK_RECORD
   5
66
 100
AcDbSymbolTableRecord
 100
AcDbBlockTableRecord
   2
_DOT
   0
BLOCK_RECORD
   5
67
 100
AcDbSymbolTableRecord
 100
AcDbBlockTableRecord
   2
_DOTBLANK
   0
BLOCK_RECORD
   5
68
 100
AcDbSymbolTableRecord
 100
AcDbBlockTableRecord
   2
_DOTSMALL
   0
BLOCK_RECORD
   5
69
 100
AcDbSymbolTableRecord
 100
AcDbBlockTableRecord
   2
_INTEGRAL
   0
BLOCK_RECORD
   5
6A
 100
AcDbSymbolTableRecord
 100
AcDbBlockTableRecord
   2
_NONE
   0
BLOCK_RECORD
   5
6B
 100
AcDbSymbolTableRecord
 100
AcDbBlockTableRecord
   2
_OBLIQUE
   0
BLOCK_RECORD
   5
6C
 100
AcDbSymbolTableRecord
 100
AcDbBlockTableRecord
   2
_OPEN
   0
BLOCK_RECORD
   5
6D
 100
AcDbSymbolTableRecord
 100
AcDbBlockTableRecord
   2
_OPEN30
   0
BLOCK_RECORD
   5
6E
 100
AcDbSymbolTableRecord
 100
AcDbBlockTableRecord
   2
_OPEN90
   0
BLOCK_RECORD
   5
6F
 100
AcDbSymbolTableRecord
 100
AcDbBlockTableRecord
   2
_ORIGIN
   0
ENDTAB
   0
ENDSEC
  0
SECTION
  2
BLOCKS
  0
BLOCK
  5
19
100
AcDbEntity
  8
0
100
AcDbBlockBegin
  2
*MODEL_SPACE
 70
     0
 10
0.0
 20
0.0
 30
0.0
  3
*MODEL_SPACE
  1

  0
ENDBLK
  5
1A
100
AcDbEntity
  8
0
100
AcDbBlockEnd
  0
BLOCK
  5
16
100
AcDbEntity
 67
     1
  8
0
100
AcDbBlockBegin
  2
*PAPER_SPACE
 70
     0
 10
0.0
 20
0.0
 30
0.0
  3
*PAPER_SPACE
  1

  0
ENDBLK
  5
17
100
AcDbEntity
 67
     1
  8
0
100
AcDbBlockEnd
   0
BLOCK
   5
70
 100
AcDbEntity
   8
0
 100
AcDbBlockBegin
   2
_ARCHTICK
  70
0
  10
0.0
  20
0.0
  30
0.0
   3
_ARCHTICK
   0
POLYLINE
   5
71
 100
AcDbEntity
   8
0
   6
BYBLOCK
  62
0
 100
AcDb2dPolyline
  66
1
  10
0.0
  20
0.0
  30
0.0
  70
1
  40
 0.15000000000000
  41
 0.15000000000000
   0
VERTEX
   5
72
 100
AcDbEntity
   8
0
   6
BYBLOCK
  62
0
 100
AcDbVertex
 100
AcDb2dVertex
  10
-0.50000000000000
  20
-0.50000000000000
  30
0.0
  40
 0.15000000000000
  41
 0.15000000000000
   0
VERTEX
   5
73
 100
AcDbEntity
   8
0
   6
BYBLOCK
  62
0
 100
AcDbVertex
 100
AcDb2dVertex
  10
 0.50000000000000
  20
 0.50000000000000
  30
0.0
  40
 0.15000000000000
  41
 0.15000000000000
   0
SEQEND
   5
74
 100
AcDbEntity
   8
0
   6
BYBLOCK
  62
0
   0
ENDBLK
   5
75
 100
AcDbEntity
   8
0
 100
AcDbBlockEnd
   0
BLOCK
   5
76
 100
AcDbEntity
   8
0
 100
AcDbBlockBegin
   2
_OBLIQUE
  70
0
  10
0.0
  20
0.0
  30
0.0
   3
_OBLIQUE
   0
LINE
   5
77
 100
AcDbEntity
   8
0
 100
AcDbLine
   6
BYBLOCK
  62
0
  10
-0.50000000000000
  20
-0.50000000000000
  30
0.0
  11
 0.50000000000000
  21
 0.50000000000000
  31
0.0
   0
ENDBLK
   5
78
 100
AcDbEntity
   8
0
 100
AcDbBlockEnd
   0
BLOCK
   5
79
 100
AcDbEntity
   8
0
 100
AcDbBlockBegin
   2
_BOXBLANK
  70
0
  10
0.0
  20
0.0
  30
0.0
   3
_BOXBLANK
   0
LINE
   5
7A
 100
AcDbEntity
   8
0
 100
AcDbLine
   6
BYBLOCK
  62
0
  10
-0.50000000000000
  20
-0.50000000000000
  30
0.0
  11
 0.50000000000000
  21
-0.50000000000000
  31
0.0
   0
LINE
   5
7B
 100
AcDbEntity
   8
0
 100
AcDbLine
   6
BYBLOCK
  62
0
  10
 0.50000000000000
  20
-0.50000000000000
  30
0.0
  11
 0.50000000000000
  21
 0.50000000000000
  31
0.0
   0
LINE
   5
7C
 100
AcDbEntity
   8
0
 100
AcDbLine
   6
BYBLOCK
  62
0
  10
 0.50000000000000
  20
 0.50000000000000
  30
0.0
  11
-0.50000000000000
  21
 0.50000000000000
  31
0.0
   0
LINE
   5
7D
 100
AcDbEntity
   8
0
 100
AcDbLine
   6
BYBLOCK
  62
0
  10
-0.50000000000000
  20
 0.50000000000000
  30
0.0
  11
-0.50000000000000
  21
-0.50000000000000
  31
0.0
   0
LINE
   5
7E
 100
AcDbEntity
   8
0
 100
AcDbLine
   6
BYBLOCK
  62
0
  10
-0.50000000000000
  20
0.0
  30
0.0
  11
-1.0000000000000
  21
0.0
  31
0.0
   0
ENDBLK
   5
7F
 100
AcDbEntity
   8
0
 100
AcDbBlockEnd
   0
BLOCK
   5
80
 100
AcDbEntity
   8
0
 100
AcDbBlockBegin
   2
_BOXFILLED
  70
0
  10
0.0
  20
0.0
  30
0.0
   3
_BOXFILLED
   0
SOLID
   5
81
 100
AcDbEntity
   8
0
 100
AcDbTrace
   6
BYBLOCK
  62
0
  10
-0.50000000000000
  20
 0.50000000000000
  30
0.0
  11
 0.50000000000000
  21
 0.50000000000000
  31
0.0
  12
-0.50000000000000
  22
-0.50000000000000
  32
0.0
  13
 0.50000000000000
  23
-0.50000000000000
  33
0.0
   0
LINE
   5
82
 100
AcDbEntity
   8
0
 100
AcDbLine
   6
BYBLOCK
  62
0
  10
-0.50000000000000
  20
0.0
  30
0.0
  11
-1.0000000000000
  21
0.0
  31
0.0
   0
ENDBLK
   5
83
 100
AcDbEntity
   8
0
 100
AcDbBlockEnd
   0
BLOCK
   5
84
 100
AcDbEntity
   8
0
 100
AcDbBlockBegin
   2
_CLOSED
  70
0
  10
0.0
  20
0.0
  30
0.0
   3
_CLOSED
   0
LINE
   5
85
 100
AcDbEntity
   8
0
 100
AcDbLine
   6
BYBLOCK
  62
0
  10
-1.0000000000000
  20
 0.16666666666667
  30
0.0
  11
0.0
  21
0.0
  31
0.0
   0
LINE
   5
86
 100
AcDbEntity
   8
0
 100
AcDbLine
   6
BYBLOCK
  62
0
  10
0.0
  20
0.0
  30
0.0
  11
-1.0000000000000
  21
-0.16666666666667
  31
0.0
   0
LINE
   5
87
 100
AcDbEntity
   8
0
 100
AcDbLine
   6
BYBLOCK
  62
0
  10
-1.0000000000000
  20
 0.16666666666667
  30
0.0
  11
-1.0000000000000
  21
-0.16666666666667
  31
0.0
   0
LINE
   5
88
 100
AcDbEntity
   8
0
 100
AcDbLine
   6
BYBLOCK
  62
0
  10
0.0
  20
0.0
  30
0.0
  11
-1.0000000000000
  21
0.0
  31
0.0
   0
ENDBLK
   5
89
 100
AcDbEntity
   8
0
 100
AcDbBlockEnd
   0
BLOCK
   5
8A
 100
AcDbEntity
   8
0
 100
AcDbBlockBegin
   2
_OPEN
  70
0
  10
0.0
  20
0.0
  30
0.0
   3
_OPEN
   0
LINE
   5
8B
 100
AcDbEntity
   8
0
 100
AcDbLine
   6
BYBLOCK
  62
0
  10
-1.0000000000000
  20
 0.16666666666667
  30
0.0
  11
0.0
  21
0.0
  31
0.0
   0
LINE
   5
8C
 100
AcDbEntity
   8
0
 100
AcDbLine
   6
BYBLOCK
  62
0
  10
0.0
  20
0.0
  30
0.0
  11
-1.0000000000000
  21
-0.16666666666667
  31
0.0
   0
LINE
   5
8D
 100
AcDbEntity
   8
0
 100
AcDbLine
   6
BYBLOCK
  62
0
  10
0.0
  20
0.0
  30
0.0
  11
-1.0000000000000
  21
0.0
  31
0.0
   0
ENDBLK
   5
8E
 100
AcDbEntity
   8
0
 100
AcDbBlockEnd
   0
BLOCK
   5
8F
 100
AcDbEntity
   8
0
 100
AcDbBlockBegin
   2
_OPEN30
  70
0
  10
0.0
  20
0.0
  30
0.0
   3
_OPEN30
   0
LINE
   5
90
 100
AcDbEntity
   8
0
 100
AcDbLine
   6
BYBLOCK
  62
0
  10
-1.0000000000000
  20
 0.26794919243110
  30
0.0
  11
0.0
  21
0.0
  31
0.0
   0
LINE
   5
91
 100
AcDbEntity
   8
0
 100
AcDbLine
   6
BYBLOCK
  62
0
  10
0.0
  20
0.0
  30
0.0
  11
-1.0000000000000
  21
-0.26794919243110
  31
0.0
   0
LINE
   5
92
 100
AcDbEntity
   8
0
 100
AcDbLine
   6
BYBLOCK
  62
0
  10
0.0
  20
0.0
  30
0.0
  11
-1.0000000000000
  21
0.0
  31
0.0
   0
ENDBLK
   5
93
 100
AcDbEntity
   8
0
 100
AcDbBlockEnd
   0
BLOCK
   5
94
 100
AcDbEntity
   8
0
 100
AcDbBlockBegin
   2
_OPEN90
  70
0
  10
0.0
  20
0.0
  30
0.0
   3
_OPEN90
   0
LINE
   5
95
 100
AcDbEntity
   8
0
 100
AcDbLine
   6
BYBLOCK
  62
0
  10
-0.50000000000000
  20
 0.50000000000000
  30
0.0
  11
0.0
  21
0.0
  31
0.0
   0
LINE
   5
96
 100
AcDbEntity
   8
0
 100
AcDbLine
   6
BYBLOCK
  62
0
  10
0.0
  20
0.0
  30
0.0
  11
-0.50000000000000
  21
-0.50000000000000
  31
0.0
   0
LINE
   5
97
 100
AcDbEntity
   8
0
 100
AcDbLine
   6
BYBLOCK
  62
0
  10
0.0
  20
0.0
  30
0.0
  11
-1.0000000000000
  21
0.0
  31
0.0
   0
ENDBLK
   5
98
 100
AcDbEntity
   8
0
 100
AcDbBlockEnd
   0
BLOCK
   5
99
 100
AcDbEntity
   8
0
 100
AcDbBlockBegin
   2
_CLOSEDBLANK
  70
0
  10
0.0
  20
0.0
  30
0.0
   3
_CLOSEDBLANK
   0
LINE
   5
9A
 100
AcDbEntity
   8
0
 100
AcDbLine
   6
BYBLOCK
  62
0
  10
-1.0000000000000
  20
 0.16666666666667
  30
0.0
  11
0.0
  21
0.0
  31
0.0
   0
LINE
   5
9B
 100
AcDbEntity
   8
0
 100
AcDbLine
   6
BYBLOCK
  62
0
  10
0.0
  20
0.0
  30
0.0
  11
-1.0000000000000
  21
-0.16666666666667
  31
0.0
   0
LINE
   5
9C
 100
AcDbEntity
   8
0
 100
AcDbLine
   6
BYBLOCK
  62
0
  10
-1.0000000000000
  20
 0.16666666666667
  30
0.0
  11
-1.0000000000000
  21
-0.16666666666667
  31
0.0
   0
ENDBLK
   5
9D
 100
AcDbEntity
   8
0
 100
AcDbBlockEnd
   0
BLOCK
   5
9E
 100
AcDbEntity
   8
0
 100
AcDbBlockBegin
   2
_DOT
  70
0
  10
0.0
  20
0.0
  30
0.0
   3
_DOT
   0
POLYLINE
   5
9F
 100
AcDbEntity
   8
0
   6
BYBLOCK
  62
0
 100
AcDb2dPolyline
  66
1
  10
0.0
  20
0.0
  30
0.0
  70
1
  40
 0.50000000000000
  41
 0.50000000000000
   0
VERTEX
   5
A0
 100
AcDbEntity
   8
0
   6
BYBLOCK
  62
0
 100
AcDbVertex
 100
AcDb2dVertex
  10
-0.25000000000000
  20
0.0
  30
0.0
  42
 1.0000000000000
  40
 0.50000000000000
  41
 0.50000000000000
   0
VERTEX
   5
A1
 100
AcDbEntity
   8
0
   6
BYBLOCK
  62
0
 100
AcDbVertex
 100
AcDb2dVertex
  10
 0.25000000000000
  20
0.0
  30
0.0
  42
 1.0000000000000
  40
 0.50000000000000
  41
 0.50000000000000
   0
SEQEND
   5
A2
 100
AcDbEntity
   8
0
   6
BYBLOCK
  62
0
   0
LINE
   5
A3
 100
AcDbEntity
   8
0
 100
AcDbLine
   6
BYBLOCK
  62
0
  10
-0.50000000000000
  20
0.0
  30
0.0
  11
-1.0000000000000
  21
0.0
  31
0.0
   0
ENDBLK
   5
A4
 100
AcDbEntity
   8
0
 100
AcDbBlockEnd
   0
BLOCK
   5
A5
 100
AcDbEntity
   8
0
 100
AcDbBlockBegin
   2
_DOTSMALL
  70
0
  10
0.0
  20
0.0
  30
0.0
   3
_DOTSMALL
   0
POLYLINE
   5
A6
 100
AcDbEntity
   8
0
   6
BYBLOCK
  62
0
 100
AcDb2dPolyline
  66
1
  10
0.0
  20
0.0
  30
0.0
  70
1
  40
 0.50000000000000
  41
 0.50000000000000
   0
VERTEX
   5
A7
 100
AcDbEntity
   8
0
   6
BYBLOCK
  62
0
 100
AcDbVertex
 100
AcDb2dVertex
  10
-0.62500000000000E-1
  20
0.0
  30
0.0
  42
 1.0000000000000
  40
 0.50000000000000
  41
 0.50000000000000
   0
VERTEX
   5
A8
 100
AcDbEntity
   8
0
   6
BYBLOCK
  62
0
 100
AcDbVertex
 100
AcDb2dVertex
  10
 0.62500000000000E-1
  20
0.0
  30
0.0
  42
 1.0000000000000
  40
 0.50000000000000
  41
 0.50000000000000
   0
SEQEND
   5
A9
 100
AcDbEntity
   8
0
   6
BYBLOCK
  62
0
   0
ENDBLK
   5
AA
 100
AcDbEntity
   8
0
 100
AcDbBlockEnd
   0
BLOCK
   5
AB
 100
AcDbEntity
   8
0
 100
AcDbBlockBegin
   2
_DATUMBLANK
  70
0
  10
0.0
  20
0.0
  30
0.0
   3
_DATUMBLANK
   0
LINE
   5
AC
 100
AcDbEntity
   8
0
 100
AcDbLine
   6
BYBLOCK
  62
0
  10
0.0
  20
 0.57735027000000
  30
0.0
  11
-1.0000000000000
  21
0.0
  31
0.0
   0
LINE
   5
AD
 100
AcDbEntity
   8
0
 100
AcDbLine
   6
BYBLOCK
  62
0
  10
-1.0000000000000
  20
0.0
  30
0.0
  11
0.0
  21
-0.57735027000000
  31
0.0
   0
LINE
   5
AE
 100
AcDbEntity
   8
0
 100
AcDbLine
   6
BYBLOCK
  62
0
  10
0.0
  20
-0.57735027000000
  30
0.0
  11
0.0
  21
 0.57735027000000
  31
0.0
   0
ENDBLK
   5
AF
 100
AcDbEntity
   8
0
 100
AcDbBlockEnd
   0
BLOCK
   5
B0
 100
AcDbEntity
   8
0
 100
AcDbBlockBegin
   2
_DATUMFILLED
  70
0
  10
0.0
  20
0.0
  30
0.0
   3
_DATUMFILLED
   0
SOLID
   5
B1
 100
AcDbEntity
   8
0
 100
AcDbTrace
   6
BYBLOCK
  62
0
  10
0.0
  20
 0.57735027000000
  30
0.0
  11
-1.0000000000000
  21
0.0
  31
0.0
  12
0.0
  22
-0.57735027000000
  32
0.0
  13
0.0
  23
-0.57735027000000
  33
0.0
   0
ENDBLK
   5
B2
 100
AcDbEntity
   8
0
 100
AcDbBlockEnd
   0
BLOCK
   5
B3
 100
AcDbEntity
   8
0
 100
AcDbBlockBegin
   2
_ORIGIN
  70
0
  10
0.0
  20
0.0
  30
0.0
   3
_ORIGIN
   0
CIRCLE
   5
B4
 100
AcDbEntity
   8
0
 100
AcDbCircle
   6
BYBLOCK
  62
0
  10
0.0
  20
0.0
  30
0.0
  40
 0.50000000000000
   0
LINE
   5
B5
 100
AcDbEntity
   8
0
 100
AcDbLine
   6
BYBLOCK
  62
0
  10
0.0
  20
0.0
  30
0.0
  11
-1.0000000000000
  21
0.0
  31
0.0
   0
ENDBLK
   5
B6
 100
AcDbEntity
   8
0
 100
AcDbBlockEnd
   0
BLOCK
   5
B7
 100
AcDbEntity
   8
0
 100
AcDbBlockBegin
   2
_NONE
  70
0
  10
0.0
  20
0.0
  30
0.0
   3
_NONE
   0
CIRCLE
   5
B8
 100
AcDbEntity
   8
0
 100
AcDbCircle
   6
BYBLOCK
  62
0
  10
0.0
  20
0.0
  30
0.0
  40
 0.25000000000000
   0
ENDBLK
   5
B9
 100
AcDbEntity
   8
0
 100
AcDbBlockEnd
   0
BLOCK
   5
BA
 100
AcDbEntity
   8
0
 100
AcDbBlockBegin
   2
_DOTBLANK
  70
0
  10
0.0
  20
0.0
  30
0.0
   3
_DOTBLANK
   0
CIRCLE
   5
BB
 100
AcDbEntity
   8
0
 100
AcDbCircle
   6
BYBLOCK
  62
0
  10
0.0
  20
0.0
  30
0.0
  40
 0.50000000000000
   0
LINE
   5
BC
 100
AcDbEntity
   8
0
 100
AcDbLine
   6
BYBLOCK
  62
0
  10
-0.50000000000000
  20
0.0
  30
0.0
  11
-1.0000000000000
  21
0.0
  31
0.0
   0
ENDBLK
   5
BD
 100
AcDbEntity
   8
0
 100
AcDbBlockEnd
   0
BLOCK
   5
BE
 100
AcDbEntity
   8
0
 100
AcDbBlockBegin
   2
_INTEGRAL
  70
0
  10
0.0
  20
0.0
  30
0.0
   3
_INTEGRAL
   0
ARC
   5
BF
 100
AcDbEntity
   8
0
   6
BYBLOCK
  62
0
 100
AcDbCircle
  10
 0.44488800000000
  20
-0.91335000000000E-1
  30
0.0
  40
 0.45416700000000
 100
AcDbArc
  50
 102.00000000000
  51
 168.00000000000
   0
ARC
   5
C0
 100
AcDbEntity
   8
0
   6
BYBLOCK
  62
0
 100
AcDbCircle
  10
-0.44488800000000
  20
 0.91335000000000E-1
  30
0.0
  40
 0.45416700000000
 100
AcDbArc
  50
 282.00000000000
  51
 348.00000000000
   0
ENDBLK
   5
C1
 100
AcDbEntity
   8
0
 100
AcDbBlockEnd
   0
BLOCK
   5
C2
 100
AcDbEntity
   8
0
 100
AcDbBlockBegin
   2
BLOCK001
  70
64
  10
0.0
  20
0.0
  30
0.0
   3
BLOCK001
   0
POLYLINE
   5
C3
 100
AcDbEntity
   8
LEVEL001
   6
CONTINUOUS
  62
8
 100
AcDb2dPolyline
  66
1
  10
0.0
  20
0.0
  30
0.0
  70
0
   0
VERTEX
   5
C4
 100
AcDbEntity
   8
LEVEL001
   6
CONTINUOUS
  62
8
 100
AcDbVertex
 100
AcDb2dVertex
  10
 307.10155371992
  20
 10.707349188313
  30
0.0
   0
VERTEX
   5
C5
 100
AcDbEntity
   8
LEVEL001
   6
CONTINUOUS
  62
8
 100
AcDbVertex
 100
AcDb2dVertex
  10
 308.58925452741
  20
 16.259524188312
  30
0.0
   0
VERTEX
   5
C6
 100
AcDbEntity
   8
LEVEL001
   6
CONTINUOUS
  62
8
 100
AcDbVertex
 100
AcDb2dVertex
  10
 310.92377952741
  20
 16.259524188312
  30
0.0
   0
VERTEX
   5
C7
 100
AcDbEntity
   8
LEVEL001
   6
CONTINUOUS
  62
8
 100
AcDbVertex
 100
AcDb2dVertex
  10
 309.43607871992
  20
 10.707349188313
  30
0.0
   0
VERTEX
   5
C8
 100
AcDbEntity
   8
LEVEL001
   6
CONTINUOUS
  62
8
 100
AcDbVertex
 100
AcDb2dVertex
  10
 310.26353669538
  20
 10.707349188313
  30
0.0
   0
VERTEX
   5
C9
 100
AcDbEntity
   8
LEVEL001
   6
CONTINUOUS
  62
8
 100
AcDbVertex
 100
AcDb2dVertex
  10
 309.95236188415
  20
 12.634144188312
  30
0.0
   0
VERTEX
   5
CA
 100
AcDbEntity
   8
LEVEL001
   6
CONTINUOUS
  62
8
 100
AcDbVertex
 100
AcDb2dVertex
  10
 312.98365452741
  20
 16.259524188312
  30
0.0
   0
VERTEX
   5
CB
 100
AcDbEntity
   8
LEVEL001
   6
CONTINUOUS
  62
8
 100
AcDbVertex
 100
AcDb2dVertex
  10
 315.45550452741
  20
 16.259524188312
  30
0.0
   0
VERTEX
   5
CC
 100
AcDbEntity
   8
LEVEL001
   6
CONTINUOUS
  62
8
 100
AcDbVertex
 100
AcDb2dVertex
  10
 312.42421188415
  20
 12.634144188312
  30
0.0
   0
VERTEX
   5
CD
 100
AcDbEntity
   8
LEVEL001
   6
CONTINUOUS
  62
8
 100
AcDbVertex
 100
AcDb2dVertex
  10
 312.79449083648
  20
 10.707349188313
  30
0.0
   0
VERTEX
   5
CE
 100
AcDbEntity
   8
LEVEL001
   6
CONTINUOUS
  62
8
 100
AcDbVertex
 100
AcDb2dVertex
  10
 315.56285434997
  20
 10.707349188313
  30
0.0
   0
SEQEND
   5
CF
 100
AcDbEntity
   8
LEVEL001
   6
CONTINUOUS
  62
8
   0
ARC
   5
D0
 100
AcDbEntity
   8
LEVEL001
   6
CONTINUOUS
  62
8
 100
AcDbCircle
  10
 315.60251464633
  20
 12.555654920341
  30
0.0
  40
 1.8487311914286
 100
AcDbArc
  50
 268.77075588920
  51
 271.22924411287
   0
POLYLINE
   5
D1
 100
AcDbEntity
   8
LEVEL001
   6
CONTINUOUS
  62
8
 100
AcDb2dPolyline
  66
1
  10
0.0
  20
0.0
  30
0.0
  70
0
   0
VERTEX
   5
D2
 100
AcDbEntity
   8
LEVEL001
   6
CONTINUOUS
  62
8
 100
AcDbVertex
 100
AcDb2dVertex
  10
 315.64217494275
  20
 10.707349188313
  30
0.0
   0
VERTEX
   5
D3
 100
AcDbEntity
   8
LEVEL001
   6
CONTINUOUS
  62
8
 100
AcDbVertex
 100
AcDb2dVertex
  10
 330.11828327922
  20
 10.707349188313
  30
0.0
   0
VERTEX
   5
D4
 100
AcDbEntity
   8
LEVEL001
   6
CONTINUOUS
  62
8
 100
AcDbVertex
 100
AcDb2dVertex
  10
 330.11828327922
  20
 10.482349188313
  30
0.0
   0
VERTEX
   5
D5
 100
AcDbEntity
   8
LEVEL001
   6
CONTINUOUS
  62
8
 100
AcDbVertex
 100
AcDb2dVertex
  10
 312.83772987555
  20
 10.482349188313
  30
0.0
   0
VERTEX
   5
D6
 100
AcDbEntity
   8
LEVEL001
   6
CONTINUOUS
  62
8
 100
AcDbVertex
 100
AcDb2dVertex
  10
 313.28453327922
  20
 8.1573491883116
  30
0.0
   0
VERTEX
   5
D7
 100
AcDbEntity
   8
LEVEL001
   6
CONTINUOUS
  62
8
 100
AcDbVertex
 100
AcDb2dVertex
  10
 310.67535827922
  20
 8.1573491883116
  30
0.0
   0
VERTEX
   5
D8
 100
AcDbEntity
   8
LEVEL001
   6
CONTINUOUS
  62
8
 100
AcDbVertex
 100
AcDb2dVertex
  10
 310.29987389395
  20
 10.482349188313
  30
0.0
   0
VERTEX
   5
D9
 100
AcDbEntity
   8
LEVEL001
   6
CONTINUOUS
  62
8
 100
AcDbVertex
 100
AcDb2dVertex
  10
 309.37579015162
  20
 10.482349188313
  30
0.0
   0
VERTEX
   5
DA
 100
AcDbEntity
   8
LEVEL001
   6
CONTINUOUS
  62
8
 100
AcDbVertex
 100
AcDb2dVertex
  10
 308.75280827922
  20
 8.1573491883130
  30
0.0
   0
VERTEX
   5
DB
 100
AcDbEntity
   8
LEVEL001
   6
CONTINUOUS
  62
8
 100
AcDbVertex
 100
AcDb2dVertex
  10
 306.41828327922
  20
 8.1573491883130
  30
0.0
   0
VERTEX
   5
DC
 100
AcDbEntity
   8
LEVEL001
   6
CONTINUOUS
  62
8
 100
AcDbVertex
 100
AcDb2dVertex
  10
 307.04126515162
  20
 10.482349188313
  30
0.0
   0
VERTEX
   5
DD
 100
AcDbEntity
   8
LEVEL001
   6
CONTINUOUS
  62
8
 100
AcDbVertex
 100
AcDb2dVertex
  10
 305.89328327922
  20
 10.482349188313
  30
0.0
   0
VERTEX
   5
DE
 100
AcDbEntity
   8
LEVEL001
   6
CONTINUOUS
  62
8
 100
AcDbVertex
 100
AcDb2dVertex
  10
 305.89328327922
  20
 10.707349188313
  30
0.0
   0
VERTEX
   5
DF
 100
AcDbEntity
   8
LEVEL001
   6
CONTINUOUS
  62
8
 100
AcDbVertex
 100
AcDb2dVertex
  10
 307.10155371992
  20
 10.707349188313
  30
0.0
   0
SEQEND
   5
E0
 100
AcDbEntity
   8
LEVEL001
   6
CONTINUOUS
  62
8
   0
ENDBLK
   5
E1
 100
AcDbEntity
   8
0
 100
AcDbBlockEnd
   0
BLOCK
   5
E2
 100
AcDbEntity
   8
0
 100
AcDbBlockBegin
   2
BLOCK002
  70
64
  10
0.0
  20
0.0
  30
0.0
   3
BLOCK002
   0
POLYLINE
   5
E3
 100
AcDbEntity
   8
LEVEL001
   6
CONTINUOUS
  62
8
 100
AcDb2dPolyline
  66
1
  10
0.0
  20
0.0
  30
0.0
  70
0
   0
VERTEX
   5
E4
 100
AcDbEntity
   8
LEVEL001
   6
CONTINUOUS
  62
8
 100
AcDbVertex
 100
AcDb2dVertex
  10
 309.95236188415
  20
 12.634144188312
  30
0.0
   0
VERTEX
   5
E5
 100
AcDbEntity
   8
LEVEL001
   6
CONTINUOUS
  62
8
 100
AcDbVertex
 100
AcDb2dVertex
  10
 312.98365452741
  20
 16.259524188312
  30
0.0
   0
VERTEX
   5
E6
 100
AcDbEntity
   8
LEVEL001
   6
CONTINUOUS
  62
8
 100
AcDbVertex
 100
AcDb2dVertex
  10
 315.45550452741
  20
 16.259524188312
  30
0.0
   0
VERTEX
   5
E7
 100
AcDbEntity
   8
LEVEL001
   6
CONTINUOUS
  62
8
 100
AcDbVertex
 100
AcDb2dVertex
  10
 312.42421188415
  20
 12.634144188312
  30
0.0
   0
VERTEX
   5
E8
 100
AcDbEntity
   8
LEVEL001
   6
CONTINUOUS
  62
8
 100
AcDbVertex
 100
AcDb2dVertex
  10
 312.79449083648
  20
 10.707349188313
  30
0.0
   0
VERTEX
   5
E9
 100
AcDbEntity
   8
LEVEL001
   6
CONTINUOUS
  62
8
 100
AcDbVertex
 100
AcDb2dVertex
  10
 315.56285434997
  20
 10.707349188313
  30
0.0
   0
SEQEND
   5
EA
 100
AcDbEntity
   8
LEVEL001
   6
CONTINUOUS
  62
8
   0
ARC
   5
EB
 100
AcDbEntity
   8
LEVEL001
   6
CONTINUOUS
  62
8
 100
AcDbCircle
  10
 315.60251464633
  20
 12.555654920341
  30
0.0
  40
 1.8487311914286
 100
AcDbArc
  50
 268.77075588920
  51
 271.22924411287
   0
POLYLINE
   5
EC
 100
AcDbEntity
   8
LEVEL001
   6
CONTINUOUS
  62
8
 100
AcDb2dPolyline
  66
1
  10
0.0
  20
0.0
  30
0.0
  70
0
   0
VERTEX
   5
ED
 100
AcDbEntity
   8
LEVEL001
   6
CONTINUOUS
  62
8
 100
AcDbVertex
 100
AcDb2dVertex
  10
 315.64217494275
  20
 10.707349188313
  30
0.0
   0
VERTEX
   5
EE
 100
AcDbEntity
   8
LEVEL001
   6
CONTINUOUS
  62
8
 100
AcDbVertex
 100
AcDb2dVertex
  10
 330.11828327922
  20
 10.707349188313
  30
0.0
   0
VERTEX
   5
EF
 100
AcDbEntity
   8
LEVEL001
   6
CONTINUOUS
  62
8
 100
AcDbVertex
 100
AcDb2dVertex
  10
 330.11828327922
  20
 10.482349188313
  30
0.0
   0
VERTEX
   5
F0
 100
AcDbEntity
   8
LEVEL001
   6
CONTINUOUS
  62
8
 100
AcDbVertex
 100
AcDb2dVertex
  10
 312.83772987555
  20
 10.482349188313
  30
0.0
   0
VERTEX
   5
F1
 100
AcDbEntity
   8
LEVEL001
   6
CONTINUOUS
  62
8
 100
AcDbVertex
 100
AcDb2dVertex
  10
 313.28453327922
  20
 8.1573491883116
  30
0.0
   0
VERTEX
   5
F2
 100
AcDbEntity
   8
LEVEL001
   6
CONTINUOUS
  62
8
 100
AcDbVertex
 100
AcDb2dVertex
  10
 310.67535827922
  20
 8.1573491883116
  30
0.0
   0
VERTEX
   5
F3
 100
AcDbEntity
   8
LEVEL001
   6
CONTINUOUS
  62
8
 100
AcDbVertex
 100
AcDb2dVertex
  10
 310.29987389395
  20
 10.482349188313
  30
0.0
   0
VERTEX
   5
F4
 100
AcDbEntity
   8
LEVEL001
   6
CONTINUOUS
  62
8
 100
AcDbVertex
 100
AcDb2dVertex
  10
 309.37579015162
  20
 10.482349188313
  30
0.0
   0
VERTEX
   5
F5
 100
AcDbEntity
   8
LEVEL001
   6
CONTINUOUS
  62
8
 100
AcDbVertex
 100
AcDb2dVertex
  10
 308.75280827922
  20
 8.1573491883130
  30
0.0
   0
VERTEX
   5
F6
 100
AcDbEntity
   8
LEVEL001
   6
CONTINUOUS
  62
8
 100
AcDbVertex
 100
AcDb2dVertex
  10
 306.41828327922
  20
 8.1573491883130
  30
0.0
   0
VERTEX
   5
F7
 100
AcDbEntity
   8
LEVEL001
   6
CONTINUOUS
  62
8
 100
AcDbVertex
 100
AcDb2dVertex
  10
 307.04126515162
  20
 10.482349188313
  30
0.0
   0
VERTEX
   5
F8
 100
AcDbEntity
   8
LEVEL001
   6
CONTINUOUS
  62
8
 100
AcDbVertex
 100
AcDb2dVertex
  10
 305.89328327922
  20
 10.482349188313
  30
0.0
   0
VERTEX
   5
F9
 100
AcDbEntity
   8
LEVEL001
   6
CONTINUOUS
  62
8
 100
AcDbVertex
 100
AcDb2dVertex
  10
 305.89328327922
  20
 10.707349188313
  30
0.0
   0
VERTEX
   5
FA
 100
AcDbEntity
   8
LEVEL001
   6
CONTINUOUS
  62
8
 100
AcDbVertex
 100
AcDb2dVertex
  10
 307.10155371992
  20
 10.707349188313
  30
0.0
   0
VERTEX
   5
FB
 100
AcDbEntity
   8
LEVEL001
   6
CONTINUOUS
  62
8
 100
AcDbVertex
 100
AcDb2dVertex
  10
 308.58925452741
  20
 16.259524188312
  30
0.0
   0
VERTEX
   5
FC
 100
AcDbEntity
   8
LEVEL001
   6
CONTINUOUS
  62
8
 100
AcDbVertex
 100
AcDb2dVertex
  10
 310.92377952741
  20
 16.259524188312
  30
0.0
   0
VERTEX
   5
FD
 100
AcDbEntity
   8
LEVEL001
   6
CONTINUOUS
  62
8
 100
AcDbVertex
 100
AcDb2dVertex
  10
 309.43607871992
  20
 10.707349188313
  30
0.0
   0
VERTEX
   5
FE
 100
AcDbEntity
   8
LEVEL001
   6
CONTINUOUS
  62
8
 100
AcDbVertex
 100
AcDb2dVertex
  10
 310.26353669538
  20
 10.707349188313
  30
0.0
   0
VERTEX
   5
FF
 100
AcDbEntity
   8
LEVEL001
   6
CONTINUOUS
  62
8
 100
AcDbVertex
 100
AcDb2dVertex
  10
 309.95236188415
  20
 12.634144188312
  30
0.0
   0
SEQEND
   5
100
 100
AcDbEntity
   8
LEVEL001
   6
CONTINUOUS
  62
8
   0
ENDBLK
   5
101
 100
AcDbEntity
   8
0
 100
AcDbBlockEnd
   0
BLOCK
   5
102
 100
AcDbEntity
   8
0
 100
AcDbBlockBegin
   2
*D1
  70
65
  10
0.0
  20
0.0
  30
0.0
   3
*D1
   0
LINE
   5
103
 100
AcDbEntity
   8
LEVEL001
 100
AcDbLine
   6
CONTINUOUS
  62
2
  10
 54.962725337016
  20
 142.49561891059
  30
0.0
  11
 54.962725337016
  21
 151.68291029984
  31
0.0
   0
LINE
   5
104
 100
AcDbEntity
   8
LEVEL001
 100
AcDbLine
   6
CONTINUOUS
  62
2
  10
 95.962725337016
  20
 142.49561891059
  30
0.0
  11
 95.962725337016
  21
 151.68291029984
  31
0.0
   0
LINE
   5
105
 100
AcDbEntity
   8
LEVEL001
 100
AcDbLine
   6
CONTINUOUS
  62
2
  10
 54.962725337016
  20
 149.68291029984
  30
0.0
  11
 75.462725337016
  21
 149.68291029984
  31
0.0
   0
LINE
   5
106
 100
AcDbEntity
   8
LEVEL001
 100
AcDbLine
   6
CONTINUOUS
  62
2
  10
 95.962725337016
  20
 149.68291029984
  30
0.0
  11
 75.462725337016
  21
 149.68291029984
  31
0.0
   0
INSERT
   5
107
 100
AcDbEntity
   8
LEVEL001
   6
CONTINUOUS
  62
2
 100
AcDbBlockReference
   2
_OPEN30
  10
 54.962725337016
  20
 149.68291029984
  30
0.0
  41
 2.0000000000000
  42
 2.0000000000000
  43
 2.0000000000000
  50
 180.00000000000
   0
INSERT
   5
108
 100
AcDbEntity
   8
LEVEL001
   6
CONTINUOUS
  62
2
 100
AcDbBlockReference
   2
_OPEN30
  10
 95.962725337016
  20
 149.68291029984
  30
0.0
  41
 2.0000000000000
  42
 2.0000000000000
  43
 2.0000000000000
  50
0.0
   0
MTEXT
   5
109
 100
AcDbEntity
   8
LEVEL001
  62
2
 100
AcDbMText
  10
 75.462725337016
  20
 151.31148172841
  30
0.0
  40
 3.8000000000000
  41
0.0
  71
8
  72
1
   1
\A1;41
   7
GMM001
   0
ENDBLK
   5
10A
 100
AcDbEntity
   8
0
 100
AcDbBlockEnd
   0
BLOCK
   5
10B
 100
AcDbEntity
   8
0
 100
AcDbBlockBegin
   2
*D2
  70
65
  10
0.0
  20
0.0
  30
0.0
   3
*D2
   0
LINE
   5
10C
 100
AcDbEntity
   8
LEVEL001
 100
AcDbLine
   6
CONTINUOUS
  62
2
  10
 96.962725337016
  20
 141.49561891059
  30
0.0
  11
 111.63908020217
  21
 141.49561891059
  31
0.0
   0
LINE
   5
10D
 100
AcDbEntity
   8
LEVEL001
 100
AcDbLine
   6
CONTINUOUS
  62
2
  10
 94.227172245116
  20
 114.49561891059
  30
0.0
  11
 111.63908020217
  21
 114.49561891059
  31
0.0
   0
LINE
   5
10E
 100
AcDbEntity
   8
LEVEL001
 100
AcDbLine
   6
CONTINUOUS
  62
2
  10
 109.63908020217
  20
 141.49561891059
  30
0.0
  11
 109.63908020217
  21
 127.99561891059
  31
0.0
   0
LINE
   5
10F
 100
AcDbEntity
   8
LEVEL001
 100
AcDbLine
   6
CONTINUOUS
  62
2
  10
 109.63908020217
  20
 114.49561891059
  30
0.0
  11
 109.63908020217
  21
 127.99561891059
  31
0.0
   0
INSERT
   5
110
 100
AcDbEntity
   8
LEVEL001
   6
CONTINUOUS
  62
2
 100
AcDbBlockReference
   2
_OPEN30
  10
 109.63908020217
  20
 141.49561891059
  30
0.0
  41
 2.0000000000000
  42
 2.0000000000000
  43
 2.0000000000000
  50
 90.000000000000
   0
INSERT
   5
111
 100
AcDbEntity
   8
LEVEL001
   6
CONTINUOUS
  62
2
 100
AcDbBlockReference
   2
_OPEN30
  10
 109.63908020217
  20
 114.49561891059
  30
0.0
  41
 2.0000000000000
  42
 2.0000000000000
  43
 2.0000000000000
  50
 270.00000000000
   0
MTEXT
   5
112
 100
AcDbEntity
   8
LEVEL001
  62
2
 100
AcDbMText
  10
 108.01050877359
  20
 127.99561891059
  30
0.0
  40
 3.8000000000000
  41
0.0
  71
8
  72
1
   1
\A1;27
   7
GMM001
  11
0.0
  21
 1.0000000000000
  31
0.0
   0
ENDBLK
   5
113
 100
AcDbEntity
   8
0
 100
AcDbBlockEnd
   0
BLOCK
   5
114
 100
AcDbEntity
   8
0
 100
AcDbBlockBegin
   2
*D3
  70
65
  10
0.0
  20
0.0
  30
0.0
   3
*D3
   0
LINE
   5
115
 100
AcDbEntity
   8
LEVEL001
 100
AcDbLine
   6
CONTINUOUS
  62
2
  10
 95.962725337016
  20
 91.497827563884
  30
0.0
  11
 111.63908020217
  21
 91.497827563884
  31
0.0
   0
LINE
   5
116
 100
AcDbEntity
   8
LEVEL001
 100
AcDbLine
   6
CONTINUOUS
  62
2
  10
 83.641116479206
  20
 82.497827563884
  30
0.0
  11
 111.63908020217
  21
 82.497827563884
  31
0.0
   0
LINE
   5
117
 100
AcDbEntity
   8
LEVEL001
 100
AcDbLine
   6
CONTINUOUS
  62
2
  10
 109.63908020217
  20
 91.497827563884
  30
0.0
  11
 109.63908020217
  21
 86.997827563884
  31
0.0
   0
LINE
   5
118
 100
AcDbEntity
   8
LEVEL001
 100
AcDbLine
   6
CONTINUOUS
  62
2
  10
 109.63908020217
  20
 82.497827563884
  30
0.0
  11
 109.63908020217
  21
 86.997827563884
  31
0.0
   0
INSERT
   5
119
 100
AcDbEntity
   8
LEVEL001
   6
CONTINUOUS
  62
2
 100
AcDbBlockReference
   2
_OPEN30
  10
 109.63908020217
  20
 91.497827563884
  30
0.0
  41
 2.0000000000000
  42
 2.0000000000000
  43
 2.0000000000000
  50
 90.000000000000
   0
INSERT
   5
11A
 100
AcDbEntity
   8
LEVEL001
   6
CONTINUOUS
  62
2
 100
AcDbBlockReference
   2
_OPEN30
  10
 109.63908020217
  20
 82.497827563884
  30
0.0
  41
 2.0000000000000
  42
 2.0000000000000
  43
 2.0000000000000
  50
 270.00000000000
   0
MTEXT
   5
11B
 100
AcDbEntity
   8
LEVEL001
  62
2
 100
AcDbMText
  10
 108.01050877359
  20
 86.997827563884
  30
0.0
  40
 3.8000000000000
  41
0.0
  71
8
  72
1
   1
\A1;9
   7
GMM001
  11
0.0
  21
 1.0000000000000
  31
0.0
   0
ENDBLK
   5
11C
 100
AcDbEntity
   8
0
 100
AcDbBlockEnd
   0
BLOCK
   5
11D
 100
AcDbEntity
   8
0
 100
AcDbBlockBegin
   2
*D4
  70
65
  10
0.0
  20
0.0
  30
0.0
   3
*D4
   0
LINE
   5
11E
 100
AcDbEntity
   8
LEVEL001
 100
AcDbLine
   6
CONTINUOUS
  62
2
  10
 83.641116479206
  20
 82.497827563884
  30
0.0
  11
 111.63908020217
  21
 82.497827563884
  31
0.0
   0
LINE
   5
11F
 100
AcDbEntity
   8
LEVEL001
 100
AcDbLine
   6
CONTINUOUS
  62
2
  10
 83.641116479206
  20
 62.497827563883
  30
0.0
  11
 111.63908020217
  21
 62.497827563883
  31
0.0
   0
LINE
   5
120
 100
AcDbEntity
   8
LEVEL001
 100
AcDbLine
   6
CONTINUOUS
  62
2
  10
 109.63908020217
  20
 82.497827563884
  30
0.0
  11
 109.63908020217
  21
 72.497827563883
  31
0.0
   0
LINE
   5
121
 100
AcDbEntity
   8
LEVEL001
 100
AcDbLine
   6
CONTINUOUS
  62
2
  10
 109.63908020217
  20
 62.497827563883
  30
0.0
  11
 109.63908020217
  21
 72.497827563883
  31
0.0
   0
INSERT
   5
122
 100
AcDbEntity
   8
LEVEL001
   6
CONTINUOUS
  62
2
 100
AcDbBlockReference
   2
_OPEN30
  10
 109.63908020217
  20
 82.497827563884
  30
0.0
  41
 2.0000000000000
  42
 2.0000000000000
  43
 2.0000000000000
  50
 90.000000000000
   0
INSERT
   5
123
 100
AcDbEntity
   8
LEVEL001
   6
CONTINUOUS
  62
2
 100
AcDbBlockReference
   2
_OPEN30
  10
 109.63908020217
  20
 62.497827563883
  30
0.0
  41
 2.0000000000000
  42
 2.0000000000000
  43
 2.0000000000000
  50
 270.00000000000
   0
MTEXT
   5
124
 100
AcDbEntity
   8
LEVEL001
  62
2
 100
AcDbMText
  10
 108.01050877359
  20
 72.497827563883
  30
0.0
  40
 3.8000000000000
  41
0.0
  71
8
  72
1
   1
\A1;20
   7
GMM001
  11
0.0
  21
 1.0000000000000
  31
0.0
   0
ENDBLK
   5
125
 100
AcDbEntity
   8
0
 100
AcDbBlockEnd
   0
BLOCK
   5
126
 100
AcDbEntity
   8
0
 100
AcDbBlockBegin
   2
*D5
  70
65
  10
0.0
  20
0.0
  30
0.0
   3
*D5
   0
LINE
   5
127
 100
AcDbEntity
   8
LEVEL001
 100
AcDbLine
   6
CONTINUOUS
  62
2
  10
 76.462725337016
  20
 48.997827563884
  30
0.0
  11
 111.63908020217
  21
 48.997827563884
  31
0.0
   0
LINE
   5
128
 100
AcDbEntity
   8
LEVEL001
 100
AcDbLine
   6
CONTINUOUS
  62
2
  10
 109.63908020217
  20
 48.997827563884
  30
0.0
  11
 109.63908020217
  21
 55.747827563883
  31
0.0
   0
LINE
   5
129
 100
AcDbEntity
   8
LEVEL001
 100
AcDbLine
   6
CONTINUOUS
  62
2
  10
 109.63908020217
  20
 62.497827563883
  30
0.0
  11
 109.63908020217
  21
 55.747827563883
  31
0.0
   0
INSERT
   5
12A
 100
AcDbEntity
   8
LEVEL001
   6
CONTINUOUS
  62
2
 100
AcDbBlockReference
   2
_OPEN30
  10
 109.63908020217
  20
 48.997827563884
  30
0.0
  41
 2.0000000000000
  42
 2.0000000000000
  43
 2.0000000000000
  50
 270.00000000000
   0
INSERT
   5
12B
 100
AcDbEntity
   8
LEVEL001
   6
CONTINUOUS
  62
2
 100
AcDbBlockReference
   2
_OPEN30
  10
 109.63908020217
  20
 62.497827563883
  30
0.0
  41
 2.0000000000000
  42
 2.0000000000000
  43
 2.0000000000000
  50
 90.000000000000
   0
MTEXT
   5
12C
 100
AcDbEntity
   8
LEVEL001
  62
2
 100
AcDbMText
  10
 108.01050877359
  20
 55.747827563883
  30
0.0
  40
 3.8000000000000
  41
0.0
  71
8
  72
1
   1
\A1;13.5
   7
GMM001
  11
0.0
  21
 1.0000000000000
  31
0.0
   0
ENDBLK
   5
12D
 100
AcDbEntity
   8
0
 100
AcDbBlockEnd
   0
BLOCK
   5
12E
 100
AcDbEntity
   8
0
 100
AcDbBlockBegin
   2
*D6
  70
65
  10
0.0
  20
0.0
  30
0.0
   3
*D6
   0
LINE
   5
12F
 100
AcDbEntity
   8
LEVEL001
 100
AcDbLine
   6
CONTINUOUS
  62
2
  10
 112.63908020217
  20
 48.997827563884
  30
0.0
  11
 121.87141168309
  21
 48.997827563884
  31
0.0
   0
LINE
   5
130
 100
AcDbEntity
   8
LEVEL001
 100
AcDbLine
   6
CONTINUOUS
  62
2
  10
 112.63908020217
  20
 91.497827563884
  30
0.0
  11
 121.87141168309
  21
 91.497827563884
  31
0.0
   0
LINE
   5
131
 100
AcDbEntity
   8
LEVEL001
 100
AcDbLine
   6
CONTINUOUS
  62
2
  10
 119.87141168309
  20
 48.997827563884
  30
0.0
  11
 119.87141168309
  21
 70.247827563884
  31
0.0
   0
LINE
   5
132
 100
AcDbEntity
   8
LEVEL001
 100
AcDbLine
   6
CONTINUOUS
  62
2
  10
 119.87141168309
  20
 91.497827563884
  30
0.0
  11
 119.87141168309
  21
 70.247827563884
  31
0.0
   0
INSERT
   5
133
 100
AcDbEntity
   8
LEVEL001
   6
CONTINUOUS
  62
2
 100
AcDbBlockReference
   2
_OPEN30
  10
 119.87141168309
  20
 48.997827563884
  30
0.0
  41
 2.0000000000000
  42
 2.0000000000000
  43
 2.0000000000000
  50
 270.00000000000
   0
INSERT
   5
134
 100
AcDbEntity
   8
LEVEL001
   6
CONTINUOUS
  62
2
 100
AcDbBlockReference
   2
_OPEN30
  10
 119.87141168309
  20
 91.497827563884
  30
0.0
  41
 2.0000000000000
  42
 2.0000000000000
  43
 2.0000000000000
  50
 90.000000000000
   0
MTEXT
   5
135
 100
AcDbEntity
   8
LEVEL001
  62
2
 100
AcDbMText
  10
 118.24284025452
  20
 70.247827563884
  30
0.0
  40
 3.8000000000000
  41
0.0
  71
8
  72
1
   1
\A1;42.5
   7
GMM001
  11
0.0
  21
 1.0000000000000
  31
0.0
   0
ENDBLK
   5
136
 100
AcDbEntity
   8
0
 100
AcDbBlockEnd
   0
BLOCK
   5
137
 100
AcDbEntity
   8
0
 100
AcDbBlockBegin
   2
HATCH001
  70
64
  10
0.0
  20
0.0
  30
0.0
   3
HATCH001
   0
LINE
   5
138
 100
AcDbEntity
   8
LEVEL001
 100
AcDbLine
   6
CONTINUOUS
  62
2
  10
 325.45167366760
  20
 194.87285159780
  30
0.0
  11
 326.95633655749
  21
 193.36818870791
  31
0.0
   0
LINE
   5
139
 100
AcDbEntity
   8
LEVEL001
 100
AcDbLine
   6
CONTINUOUS
  62
2
  10
 328.28010078760
  20
 194.87285159780
  30
0.0
  11
 330.51228221742
  21
 192.64067016798
  31
0.0
   0
LINE
   5
13A
 100
AcDbEntity
   8
LEVEL001
 100
AcDbLine
   6
CONTINUOUS
  62
2
  10
 331.10852790760
  20
 194.87285159780
  30
0.0
  11
 333.41869984318
  21
 192.56267966222
  31
0.0
   0
LINE
   5
13B
 100
AcDbEntity
   8
LEVEL001
 100
AcDbLine
   6
CONTINUOUS
  62
2
  10
 333.93695502760
  20
 194.87285159780
  30
0.0
  11
 336.30782282413
  21
 192.50198380128
  31
0.0
   0
LINE
   5
13C
 100
AcDbEntity
   8
LEVEL001
 100
AcDbLine
   6
CONTINUOUS
  62
2
  10
 336.76538214760
  20
 194.87285159780
  30
0.0
  11
 339.19694580507
  21
 192.44128794033
  31
0.0
   0
LINE
   5
13D
 100
AcDbEntity
   8
LEVEL001
 100
AcDbLine
   6
CONTINUOUS
  62
2
  10
 339.59380926760
  20
 194.87285159780
  30
0.0
  11
 342.08606878601
  21
 192.38059207939
  31
0.0
   0
LINE
   5
13E
 100
AcDbEntity
   8
LEVEL001
 100
AcDbLine
   6
CONTINUOUS
  62
2
  10
 342.42223638760
  20
 194.87285159780
  30
0.0
  11
 344.92223638760
  21
 192.37285159780
  31
0.0
   0
LINE
   5
13F
 100
AcDbEntity
   8
LEVEL001
 100
AcDbLine
   6
CONTINUOUS
  62
2
  10
 325.12528903342
  20
 214.99822607199
  30
0.0
  11
 326.25066350760
  21
 213.87285159780
  31
0.0
   0
LINE
   5
140
 100
AcDbEntity
   8
LEVEL001
 100
AcDbLine
   6
CONTINUOUS
  62
2
  10
 345.25066350760
  20
 194.87285159780
  30
0.0
  11
 347.26312534723
  21
 192.86038975817
  31
0.0
   0
LINE
   5
141
 100
AcDbEntity
   8
LEVEL001
 100
AcDbLine
   6
CONTINUOUS
  62
2
  10
 327.46836475413
  20
 215.48357747128
  30
0.0
  11
 329.07909062760
  21
 213.87285159780
  31
0.0
   0
LINE
   5
142
 100
AcDbEntity
   8
LEVEL001
 100
AcDbLine
   6
CONTINUOUS
  62
2
  10
 345.55451570976
  20
 197.39742651565
  30
0.0
  11
 347.95451570962
  21
 194.99742651579
  31
0.0
   0
LINE
   5
143
 100
AcDbEntity
   8
LEVEL001
 100
AcDbLine
   6
CONTINUOUS
  62
2
  10
 329.81144047483
  20
 215.96892887057
  30
0.0
  11
 331.90751774760
  21
 213.87285159780
  31
0.0
   0
LINE
   5
144
 100
AcDbEntity
   8
LEVEL001
 100
AcDbLine
   6
CONTINUOUS
  62
2
  10
 345.55451570976
  20
 200.22585363565
  30
0.0
  11
 347.95451570962
  21
 197.82585363579
  31
0.0
   0
LINE
   5
145
 100
AcDbEntity
   8
LEVEL001
 100
AcDbLine
   6
CONTINUOUS
  62
2
  10
 332.44620352691
  20
 216.16259293850
  30
0.0
  11
 334.73594486760
  21
 213.87285159780
  31
0.0
   0
LINE
   5
146
 100
AcDbEntity
   8
LEVEL001
 100
AcDbLine
   6
CONTINUOUS
  62
2
  10
 345.55451570976
  20
 203.05428075565
  30
0.0
  11
 347.95451570962
  21
 200.65428075579
  31
0.0
   0
LINE
   5
147
 100
AcDbEntity
   8
LEVEL001
 100
AcDbLine
   6
CONTINUOUS
  62
2
  10
 335.21643255802
  20
 216.22079102738
  30
0.0
  11
 337.56437198760
  21
 213.87285159780
  31
0.0
   0
LINE
   5
148
 100
AcDbEntity
   8
LEVEL001
 100
AcDbLine
   6
CONTINUOUS
  62
2
  10
 345.55451570976
  20
 205.88270787565
  30
0.0
  11
 347.95451570962
  21
 203.48270787579
  31
0.0
   0
LINE
   5
149
 100
AcDbEntity
   8
LEVEL001
 100
AcDbLine
   6
CONTINUOUS
  62
2
  10
 337.98666158913
  20
 216.27898911627
  30
0.0
  11
 340.39279910760
  21
 213.87285159780
  31
0.0
   0
LINE
   5
14A
 100
AcDbEntity
   8
LEVEL001
 100
AcDbLine
   6
CONTINUOUS
  62
2
  10
 345.55451570976
  20
 208.71113499565
  30
0.0
  11
 347.95451570962
  21
 206.31113499579
  31
0.0
   0
LINE
   5
14B
 100
AcDbEntity
   8
LEVEL001
 100
AcDbLine
   6
CONTINUOUS
  62
2
  10
 340.75689062024
  20
 216.33718720516
  30
0.0
  11
 343.22122622760
  21
 213.87285159780
  31
0.0
   0
LINE
   5
14C
 100
AcDbEntity
   8
LEVEL001
 100
AcDbLine
   6
CONTINUOUS
  62
2
  10
 345.55451570976
  20
 211.53956211565
  30
0.0
  11
 347.95451570962
  21
 209.13956211579
  31
0.0
   0
LINE
   5
14D
 100
AcDbEntity
   8
LEVEL001
 100
AcDbLine
   6
CONTINUOUS
  62
2
  10
 343.54965334760
  20
 216.37285159780
  30
0.0
  11
 347.95451570962
  21
 211.96798923579
  31
0.0
   0
LINE
   5
14E
 100
AcDbEntity
   8
LEVEL001
 100
AcDbLine
   6
CONTINUOUS
  62
2
  10
 346.43720038188
  20
 216.31373168353
  30
0.0
  11
 347.89539579534
  21
 214.85553627006
  31
0.0
   0
ENDBLK
   5
14F
 100
AcDbEntity
   8
0
 100
AcDbBlockEnd
   0
BLOCK
   5
150
 100
AcDbEntity
   8
0
 100
AcDbBlockBegin
   2
HATCH002
  70
64
  10
0.0
  20
0.0
  30
0.0
   3
HATCH002
   0
LINE
   5
151
 100
AcDbEntity
   8
LEVEL001
 100
AcDbLine
   6
CONTINUOUS
  62
2
  10
 347.95451570962
  20
 225.88881642676
  30
0.0
  11
 349.18055520463
  21
 227.11485592178
  31
0.0
   0
LINE
   5
152
 100
AcDbEntity
   8
LEVEL001
 100
AcDbLine
   6
CONTINUOUS
  62
2
  10
 349.03792248334
  20
 224.14379608049
  30
0.0
  11
 352.55451570962
  21
 227.66038930676
  31
0.0
   0
LINE
   5
153
 100
AcDbEntity
   8
LEVEL001
 100
AcDbLine
   6
CONTINUOUS
  62
2
  10
 350.75451570968
  20
 223.03196218683
  30
0.0
  11
 352.55451570962
  21
 224.83196218676
  31
0.0
   0
LINE
   5
154
 100
AcDbEntity
   8
LEVEL001
 100
AcDbLine
   6
CONTINUOUS
  62
2
  10
 351.54477672334
  20
 220.99379608049
  30
0.0
  11
 352.55451570962
  21
 222.00353506676
  31
0.0
   0
ENDBLK
   5
155
 100
AcDbEntity
   8
0
 100
AcDbBlockEnd
   0
BLOCK
   5
156
 100
AcDbEntity
   8
0
 100
AcDbBlockBegin
   2
HATCH003
  70
64
  10
0.0
  20
0.0
  30
0.0
   3
HATCH003
   0
LINE
   5
157
 100
AcDbEntity
   8
LEVEL001
 100
AcDbLine
   6
CONTINUOUS
  62
2
  10
 347.95451570962
  20
 211.74668082676
  30
0.0
  11
 349.85163096334
  21
 213.64379608049
  31
0.0
   0
LINE
   5
158
 100
AcDbEntity
   8
LEVEL001
 100
AcDbLine
   6
CONTINUOUS
  62
2
  10
 350.75451570968
  20
 214.54668082683
  30
0.0
  11
 352.55451570962
  21
 216.34668082676
  31
0.0
   0
LINE
   5
159
 100
AcDbEntity
   8
LEVEL001
 100
AcDbLine
   6
CONTINUOUS
  62
2
  10
 347.95451570962
  20
 208.91825370676
  30
0.0
  11
 352.55451570962
  21
 213.51825370676
  31
0.0
   0
LINE
   5
15A
 100
AcDbEntity
   8
LEVEL001
 100
AcDbLine
   6
CONTINUOUS
  62
2
  10
 347.95451570962
  20
 206.08982658676
  30
0.0
  11
 351.55451570962
  21
 209.68982658676
  31
0.0
   0
LINE
   5
15B
 100
AcDbEntity
   8
LEVEL001
 100
AcDbLine
   6
CONTINUOUS
  62
2
  10
 348.83691232334
  20
 204.14379608049
  30
0.0
  11
 351.55451570962
  21
 206.86139946676
  31
0.0
   0
LINE
   5
15C
 100
AcDbEntity
   8
LEVEL001
 100
AcDbLine
   6
CONTINUOUS
  62
2
  10
 350.75451570968
  20
 203.23297234683
  30
0.0
  11
 352.55451570962
  21
 205.03297234676
  31
0.0
   0
LINE
   5
15D
 100
AcDbEntity
   8
LEVEL001
 100
AcDbLine
   6
CONTINUOUS
  62
2
  10
 351.34376656334
  20
 200.99379608049
  30
0.0
  11
 352.55451570962
  21
 202.20454522676
  31
0.0
   0
ENDBLK
   5
15E
 100
AcDbEntity
   8
0
 100
AcDbBlockEnd
   0
BLOCK
   5
15F
 100
AcDbEntity
   8
0
 100
AcDbBlockBegin
   2
HATCH004
  70
64
  10
0.0
  20
0.0
  30
0.0
   3
HATCH004
   0
LINE
   5
160
 100
AcDbEntity
   8
LEVEL001
 100
AcDbLine
   6
CONTINUOUS
  62
2
  10
 325.55451570982
  20
 189.34668082696
  30
0.0
  11
 328.43125403992
  21
 192.22341915706
  31
0.0
   0
LINE
   5
161
 100
AcDbEntity
   8
LEVEL001
 100
AcDbLine
   6
CONTINUOUS
  62
2
  10
 326.22561027920
  20
 187.18934827635
  30
0.0
  11
 331.28458177381
  21
 192.24831977096
  31
0.0
   0
LINE
   5
162
 100
AcDbEntity
   8
LEVEL001
 100
AcDbLine
   6
CONTINUOUS
  62
2
  10
 328.84320695452
  20
 186.97851783167
  30
0.0
  11
 334.13790950771
  21
 192.27322038486
  31
0.0
   0
LINE
   5
163
 100
AcDbEntity
   8
LEVEL001
 100
AcDbLine
   6
CONTINUOUS
  62
2
  10
 331.49444145224
  20
 186.80132520939
  30
0.0
  11
 336.99123724161
  21
 192.29812099876
  31
0.0
   0
LINE
   5
164
 100
AcDbEntity
   8
LEVEL001
 100
AcDbLine
   6
CONTINUOUS
  62
2
  10
 334.14567594996
  20
 186.62413258711
  30
0.0
  11
 339.84456497551
  21
 192.32302161265
  31
0.0
   0
LINE
   5
165
 100
AcDbEntity
   8
LEVEL001
 100
AcDbLine
   6
CONTINUOUS
  62
2
  10
 336.79691044768
  20
 186.44693996483
  30
0.0
  11
 342.69789270940
  21
 192.34792222655
  31
0.0
   0
LINE
   5
166
 100
AcDbEntity
   8
LEVEL001
 100
AcDbLine
   6
CONTINUOUS
  62
2
  10
 339.44814494540
  20
 186.26974734255
  30
0.0
  11
 345.55122044330
  21
 192.37282284045
  31
0.0
   0
LINE
   5
167
 100
AcDbEntity
   8
LEVEL001
 100
AcDbLine
   6
CONTINUOUS
  62
2
  10
 342.09937944312
  20
 186.09255472027
  30
0.0
  11
 349.65062080334
  21
 193.64379608049
  31
0.0
   0
LINE
   5
168
 100
AcDbEntity
   8
LEVEL001
 100
AcDbLine
   6
CONTINUOUS
  62
2
  10
 350.75451570968
  20
 194.74769098683
  30
0.0
  11
 352.55451570962
  21
 196.54769098676
  31
0.0
   0
LINE
   5
169
 100
AcDbEntity
   8
LEVEL001
 100
AcDbLine
   6
CONTINUOUS
  62
2
  10
 344.75061394084
  20
 185.91536209799
  30
0.0
  11
 352.55451570962
  21
 193.71926386676
  31
0.0
   0
LINE
   5
16A
 100
AcDbEntity
   8
LEVEL001
 100
AcDbLine
   6
CONTINUOUS
  62
2
  10
 347.40184843856
  20
 185.73816947571
  30
0.0
  11
 351.55451570962
  21
 189.89083674676
  31
0.0
   0
LINE
   5
16B
 100
AcDbEntity
   8
LEVEL001
 100
AcDbLine
   6
CONTINUOUS
  62
2
  10
 350.05308293628
  20
 185.56097685343
  30
0.0
  11
 351.88590216334
  21
 187.39379608049
  31
0.0
   0
ENDBLK
   5
16C
 100
AcDbEntity
   8
0
 100
AcDbBlockEnd
   0
BLOCK
   5
16D
 100
AcDbEntity
   8
0
 100
AcDbBlockBegin
   2
HATCH005
  70
64
  10
0.0
  20
0.0
  30
0.0
   3
HATCH005
   0
LINE
   5
16E
 100
AcDbEntity
   8
LEVEL001
 100
AcDbLine
   6
CONTINUOUS
  62
2
  10
 352.55451570962
  20
 221.51012483579
  30
0.0
  11
 353.19178894760
  21
 220.87285159780
  31
0.0
   0
LINE
   5
16F
 100
AcDbEntity
   8
LEVEL001
 100
AcDbLine
   6
CONTINUOUS
  62
2
  10
 352.55451570962
  20
 224.33855195579
  30
0.0
  11
 353.55451570962
  21
 223.33855195579
  31
0.0
   0
LINE
   5
170
 100
AcDbEntity
   8
LEVEL001
 100
AcDbLine
   6
CONTINUOUS
  62
2
  10
 352.55451570962
  20
 227.16697907579
  30
0.0
  11
 353.55451570962
  21
 226.16697907579
  31
0.0
   0
ENDBLK
   5
171
 100
AcDbEntity
   8
0
 100
AcDbBlockEnd
   0
BLOCK
   5
172
 100
AcDbEntity
   8
0
 100
AcDbBlockBegin
   2
HATCH006
  70
64
  10
0.0
  20
0.0
  30
0.0
   3
HATCH006
   0
LINE
   5
173
 100
AcDbEntity
   8
LEVEL001
 100
AcDbLine
   6
CONTINUOUS
  62
2
  10
 352.55451570962
  20
 201.71113499579
  30
0.0
  11
 353.39279910760
  21
 200.87285159780
  31
0.0
   0
LINE
   5
174
 100
AcDbEntity
   8
LEVEL001
 100
AcDbLine
   6
CONTINUOUS
  62
2
  10
 352.55451570962
  20
 204.53956211579
  30
0.0
  11
 353.55451570962
  21
 203.53956211579
  31
0.0
   0
LINE
   5
175
 100
AcDbEntity
   8
LEVEL001
 100
AcDbLine
   6
CONTINUOUS
  62
2
  10
 352.55451570962
  20
 207.36798923579
  30
0.0
  11
 353.55451570962
  21
 206.36798923579
  31
0.0
   0
LINE
   5
176
 100
AcDbEntity
   8
LEVEL001
 100
AcDbLine
   6
CONTINUOUS
  62
2
  10
 352.55451570962
  20
 210.19641635579
  30
0.0
  11
 353.55451570962
  21
 209.19641635579
  31
0.0
   0
LINE
   5
177
 100
AcDbEntity
   8
LEVEL001
 100
AcDbLine
   6
CONTINUOUS
  62
2
  10
 352.55451570962
  20
 213.02484347579
  30
0.0
  11
 353.55451570962
  21
 212.02484347579
  31
0.0
   0
LINE
   5
178
 100
AcDbEntity
   8
LEVEL001
 100
AcDbLine
   6
CONTINUOUS
  62
2
  10
 352.55451570962
  20
 215.85327059579
  30
0.0
  11
 353.55451570962
  21
 214.85327059579
  31
0.0
   0
ENDBLK
   5
179
 100
AcDbEntity
   8
0
 100
AcDbBlockEnd
   0
BLOCK
   5
17A
 100
AcDbEntity
   8
0
 100
AcDbBlockBegin
   2
HATCH007
  70
64
  10
0.0
  20
0.0
  30
0.0
   3
HATCH007
   0
LINE
   5
17B
 100
AcDbEntity
   8
LEVEL001
 100
AcDbLine
   6
CONTINUOUS
  62
2
  10
 352.55451570962
  20
 187.56899939579
  30
0.0
  11
 353.55451570962
  21
 186.56899939579
  31
0.0
   0
LINE
   5
17C
 100
AcDbEntity
   8
LEVEL001
 100
AcDbLine
   6
CONTINUOUS
  62
2
  10
 352.55451570962
  20
 190.39742651579
  30
0.0
  11
 353.55451570962
  21
 189.39742651579
  31
0.0
   0
LINE
   5
17D
 100
AcDbEntity
   8
LEVEL001
 100
AcDbLine
   6
CONTINUOUS
  62
2
  10
 352.55451570962
  20
 193.22585363579
  30
0.0
  11
 353.55451570962
  21
 192.22585363579
  31
0.0
   0
LINE
   5
17E
 100
AcDbEntity
   8
LEVEL001
 100
AcDbLine
   6
CONTINUOUS
  62
2
  10
 352.55451570962
  20
 196.05428075579
  30
0.0
  11
 353.55451570962
  21
 195.05428075579
  31
0.0
   0
ENDBLK
   5
17F
 100
AcDbEntity
   8
0
 100
AcDbBlockEnd
   0
BLOCK
   5
180
 100
AcDbEntity
   8
0
 100
AcDbBlockBegin
   2
*D7
  70
65
  10
0.0
  20
0.0
  30
0.0
   3
*D7
   0
LINE
   5
181
 100
AcDbEntity
   8
LEVEL001
 100
AcDbLine
   6
CONTINUOUS
  62
2
  10
 257.13209296016
  20
 213.87285159780
  30
0.0
  11
 259.13209296016
  21
 213.87285159780
  31
0.0
   0
LINE
   5
182
 100
AcDbEntity
   8
LEVEL001
 100
AcDbLine
   6
CONTINUOUS
  62
2
  10
 257.13209296016
  20
 194.87285159780
  30
0.0
  11
 255.13209296016
  21
 194.87285159780
  31
0.0
   0
LINE
   5
183
 100
AcDbEntity
   8
LEVEL001
 100
AcDbLine
   6
CONTINUOUS
  62
2
  10
 257.13209296016
  20
 213.87285159780
  30
0.0
  11
 257.13209296016
  21
 204.37285159780
  31
0.0
   0
LINE
   5
184
 100
AcDbEntity
   8
LEVEL001
 100
AcDbLine
   6
CONTINUOUS
  62
2
  10
 257.13209296016
  20
 194.87285159780
  30
0.0
  11
 257.13209296016
  21
 204.37285159780
  31
0.0
   0
INSERT
   5
185
 100
AcDbEntity
   8
LEVEL001
   6
CONTINUOUS
  62
2
 100
AcDbBlockReference
   2
_OPEN30
  10
 257.13209296016
  20
 213.87285159780
  30
0.0
  41
 2.0000000000000
  42
 2.0000000000000
  43
 2.0000000000000
  50
 90.000000000000
   0
INSERT
   5
186
 100
AcDbEntity
   8
LEVEL001
   6
CONTINUOUS
  62
2
 100
AcDbBlockReference
   2
_OPEN30
  10
 257.13209296016
  20
 194.87285159780
  30
0.0
  41
 2.0000000000000
  42
 2.0000000000000
  43
 2.0000000000000
  50
 270.00000000000
   0
MTEXT
   5
187
 100
AcDbEntity
   8
LEVEL001
  62
2
 100
AcDbMText
  10
 255.50352153159
  20
 204.37285159780
  30
0.0
  40
 3.8000000000000
  41
0.0
  71
8
  72
1
   1
\A1;%%c19
   7
GMM001
  11
0.0
  21
 1.0000000000000
  31
0.0
   0
ENDBLK
   5
188
 100
AcDbEntity
   8
0
 100
AcDbBlockEnd
   0
BLOCK
   5
189
 100
AcDbEntity
   8
0
 100
AcDbBlockBegin
   2
*D8
  70
65
  10
0.0
  20
0.0
  30
0.0
   3
*D8
   0
LINE
   5
18A
 100
AcDbEntity
   8
LEVEL001
 100
AcDbLine
   6
CONTINUOUS
  62
2
  10
 78.399565924824
  20
 214.87285159780
  30
0.0
  11
 78.399565924824
  21
 244.32728553194
  31
0.0
   0
LINE
   5
18B
 100
AcDbEntity
   8
LEVEL001
 100
AcDbLine
   6
CONTINUOUS
  62
2
  10
 345.55451570976
  20
 214.87285159780
  30
0.0
  11
 345.55451570976
  21
 244.32728553194
  31
0.0
   0
LINE
   5
18C
 100
AcDbEntity
   8
LEVEL001
 100
AcDbLine
   6
CONTINUOUS
  62
2
  10
 78.399565924824
  20
 242.32728553194
  30
0.0
  11
 211.97704081729
  21
 242.32728553194
  31
0.0
   0
LINE
   5
18D
 100
AcDbEntity
   8
LEVEL001
 100
AcDbLine
   6
CONTINUOUS
  62
2
  10
 345.55451570976
  20
 242.32728553194
  30
0.0
  11
 211.97704081729
  21
 242.32728553194
  31
0.0
   0
INSERT
   5
18E
 100
AcDbEntity
   8
LEVEL001
   6
CONTINUOUS
  62
2
 100
AcDbBlockReference
   2
_OPEN30
  10
 78.399565924824
  20
 242.32728553194
  30
0.0
  41
 2.0000000000000
  42
 2.0000000000000
  43
 2.0000000000000
  50
 180.00000000000
   0
INSERT
   5
18F
 100
AcDbEntity
   8
LEVEL001
   6
CONTINUOUS
  62
2
 100
AcDbBlockReference
   2
_OPEN30
  10
 345.55451570976
  20
 242.32728553194
  30
0.0
  41
 2.0000000000000
  42
 2.0000000000000
  43
 2.0000000000000
  50
0.0
   0
MTEXT
   5
190
 100
AcDbEntity
   8
LEVEL001
  62
2
 100
AcDbMText
  10
 211.97704081729
  20
 243.95585696051
  30
0.0
  40
 3.8000000000000
  41
0.0
  71
8
  72
1
   1
\A1;W-16=L(パイプ長さ)
   7
GMM001
   0
ENDBLK
   5
191
 100
AcDbEntity
   8
0
 100
AcDbBlockEnd
   0
BLOCK
   5
192
 100
AcDbEntity
   8
0
 100
AcDbBlockBegin
   2
*D9
  70
65
  10
0.0
  20
0.0
  30
0.0
   3
*D9
   0
LINE
   5
193
 100
AcDbEntity
   8
LEVEL001
 100
AcDbLine
   6
CONTINUOUS
  62
2
  10
 70.399565924824
  20
 228.87285159780
  30
0.0
  11
 70.399565924824
  21
 254.59643329168
  31
0.0
   0
LINE
   5
194
 100
AcDbEntity
   8
LEVEL001
 100
AcDbLine
   6
CONTINUOUS
  62
2
  10
 353.55451570962
  20
 228.89379608049
  30
0.0
  11
 353.55451570962
  21
 254.59643329168
  31
0.0
   0
LINE
   5
195
 100
AcDbEntity
   8
LEVEL001
 100
AcDbLine
   6
CONTINUOUS
  62
2
  10
 70.399565924824
  20
 252.59643329168
  30
0.0
  11
 211.97704081722
  21
 252.59643329168
  31
0.0
   0
LINE
   5
196
 100
AcDbEntity
   8
LEVEL001
 100
AcDbLine
   6
CONTINUOUS
  62
2
  10
 353.55451570962
  20
 252.59643329168
  30
0.0
  11
 211.97704081722
  21
 252.59643329168
  31
0.0
   0
INSERT
   5
197
 100
AcDbEntity
   8
LEVEL001
   6
CONTINUOUS
  62
2
 100
AcDbBlockReference
   2
_OPEN30
  10
 70.399565924824
  20
 252.59643329168
  30
0.0
  41
 2.0000000000000
  42
 2.0000000000000
  43
 2.0000000000000
  50
 180.00000000000
   0
INSERT
   5
198
 100
AcDbEntity
   8
LEVEL001
   6
CONTINUOUS
  62
2
 100
AcDbBlockReference
   2
_OPEN30
  10
 353.55451570962
  20
 252.59643329168
  30
0.0
  41
 2.0000000000000
  42
 2.0000000000000
  43
 2.0000000000000
  50
0.0
   0
MTEXT
   5
199
 100
AcDbEntity
   8
LEVEL001
  62
2
 100
AcDbMText
  10
 211.97704081722
  20
 254.22500472025
  30
0.0
  40
 3.8000000000000
  41
0.0
  71
8
  72
1
   1
\A1;W(浴室壁内寸法)
   7
GMM001
   0
ENDBLK
   5
19A
 100
AcDbEntity
   8
0
 100
AcDbBlockEnd
   0
BLOCK
   5
19B
 100
AcDbEntity
   8
0
 100
AcDbBlockBegin
   2
*D10
  70
65
  10
0.0
  20
0.0
  30
0.0
   3
*D10
   0
LINE
   5
19C
 100
AcDbEntity
   8
LEVEL001
 100
AcDbLine
   6
CONTINUOUS
  62
2
  10
 134.87566581228
  20
 116.37077068757
  30
0.0
  11
 134.87566581228
  21
 128.22486867240
  31
0.0
   0
LINE
   5
19D
 100
AcDbEntity
   8
LEVEL001
 100
AcDbLine
   6
CONTINUOUS
  62
2
  10
 175.87566581229
  20
 116.37077068757
  30
0.0
  11
 175.87566581229
  21
 128.22486867240
  31
0.0
   0
LINE
   5
19E
 100
AcDbEntity
   8
LEVEL001
 100
AcDbLine
   6
CONTINUOUS
  62
2
  10
 134.87566581228
  20
 126.22486867240
  30
0.0
  11
 155.37566581228
  21
 126.22486867240
  31
0.0
   0
LINE
   5
19F
 100
AcDbEntity
   8
LEVEL001
 100
AcDbLine
   6
CONTINUOUS
  62
2
  10
 175.87566581229
  20
 126.22486867240
  30
0.0
  11
 155.37566581228
  21
 126.22486867240
  31
0.0
   0
INSERT
   5
1A0
 100
AcDbEntity
   8
LEVEL001
   6
CONTINUOUS
  62
2
 100
AcDbBlockReference
   2
_OPEN30
  10
 134.87566581228
  20
 126.22486867240
  30
0.0
  41
 2.0000000000000
  42
 2.0000000000000
  43
 2.0000000000000
  50
 180.00000000000
   0
INSERT
   5
1A1
 100
AcDbEntity
   8
LEVEL001
   6
CONTINUOUS
  62
2
 100
AcDbBlockReference
   2
_OPEN30
  10
 175.87566581229
  20
 126.22486867240
  30
0.0
  41
 2.0000000000000
  42
 2.0000000000000
  43
 2.0000000000000
  50
0.0
   0
MTEXT
   5
1A2
 100
AcDbEntity
   8
LEVEL001
  62
2
 100
AcDbMText
  10
 155.37566581228
  20
 127.85344010097
  30
0.0
  40
 3.8000000000000
  41
0.0
  71
8
  72
1
   1
\A1;41
   7
GMM001
   0
ENDBLK
   5
1A3
 100
AcDbEntity
   8
0
 100
AcDbBlockEnd
   0
BLOCK
   5
1A4
 100
AcDbEntity
   8
0
 100
AcDbBlockBegin
   2
*D11
  70
65
  10
0.0
  20
0.0
  30
0.0
   3
*D11
   0
LINE
   5
1A5
 100
AcDbEntity
   8
LEVEL001
 100
AcDbLine
   6
CONTINUOUS
  62
2
  10
 176.87566581229
  20
 115.37077068757
  30
0.0
  11
 189.28101803253
  21
 115.37077068757
  31
0.0
   0
LINE
   5
1A6
 100
AcDbEntity
   8
LEVEL001
 100
AcDbLine
   6
CONTINUOUS
  62
2
  10
 176.87566581229
  20
 114.37077068757
  30
0.0
  11
 189.28101803253
  21
 114.37077068757
  31
0.0
   0
LINE
   5
1A7
 100
AcDbEntity
   8
LEVEL001
 100
AcDbLine
   6
CONTINUOUS
  62
2
  10
 187.28101803253
  20
 121.77349665601
  30
0.0
  11
 187.28101803253
  21
 114.87077068757
  31
0.0
   0
LINE
   5
1A8
 100
AcDbEntity
   8
LEVEL001
 100
AcDbLine
   6
CONTINUOUS
  62
2
  10
 187.28101803253
  20
 111.87077068757
  30
0.0
  11
 187.28101803253
  21
 114.87077068757
  31
0.0
   0
INSERT
   5
1A9
 100
AcDbEntity
   8
LEVEL001
   6
CONTINUOUS
  62
2
 100
AcDbBlockReference
   2
_OPEN30
  10
 187.28101803253
  20
 115.37077068757
  30
0.0
  41
 2.0000000000000
  42
 2.0000000000000
  43
 2.0000000000000
  50
 270.00000000000
   0
INSERT
   5
1AA
 100
AcDbEntity
   8
LEVEL001
   6
CONTINUOUS
  62
2
 100
AcDbBlockReference
   2
_OPEN30
  10
 187.28101803253
  20
 114.37077068757
  30
0.0
  41
 2.0000000000000
  42
 2.0000000000000
  43
 2.0000000000000
  50
 90.000000000000
   0
MTEXT
   5
1AB
 100
AcDbEntity
   8
LEVEL001
  62
2
 100
AcDbMText
  10
 185.65244660396
  20
 120.17349665601
  30
0.0
  40
 3.8000000000000
  41
0.0
  71
8
  72
1
   1
\A1;1
   7
GMM001
  11
0.0
  21
 1.0000000000000
  31
0.0
   0
ENDBLK
   5
1AC
 100
AcDbEntity
   8
0
 100
AcDbBlockEnd
   0
BLOCK
   5
1AD
 100
AcDbEntity
   8
0
 100
AcDbBlockBegin
   2
*D12
  70
65
  10
0.0
  20
0.0
  30
0.0
   3
*D12
   0
LINE
   5
1AE
 100
AcDbEntity
   8
LEVEL001
 100
AcDbLine
   6
CONTINUOUS
  62
2
  10
 162.81906348262
  20
 81.858659701617
  30
0.0
  11
 189.28101803253
  21
 81.858659701617
  31
0.0
   0
LINE
   5
1AF
 100
AcDbEntity
   8
LEVEL001
 100
AcDbLine
   6
CONTINUOUS
  62
2
  10
 175.23649795002
  20
 90.858659701617
  30
0.0
  11
 189.28101803253
  21
 90.858659701617
  31
0.0
   0
LINE
   5
1B0
 100
AcDbEntity
   8
LEVEL001
 100
AcDbLine
   6
CONTINUOUS
  62
2
  10
 187.28101803253
  20
 81.858659701617
  30
0.0
  11
 187.28101803253
  21
 86.358659701617
  31
0.0
   0
LINE
   5
1B1
 100
AcDbEntity
   8
LEVEL001
 100
AcDbLine
   6
CONTINUOUS
  62
2
  10
 187.28101803253
  20
 90.858659701617
  30
0.0
  11
 187.28101803253
  21
 86.358659701617
  31
0.0
   0
INSERT
   5
1B2
 100
AcDbEntity
   8
LEVEL001
   6
CONTINUOUS
  62
2
 100
AcDbBlockReference
   2
_OPEN30
  10
 187.28101803253
  20
 81.858659701617
  30
0.0
  41
 2.0000000000000
  42
 2.0000000000000
  43
 2.0000000000000
  50
 270.00000000000
   0
INSERT
   5
1B3
 100
AcDbEntity
   8
LEVEL001
   6
CONTINUOUS
  62
2
 100
AcDbBlockReference
   2
_OPEN30
  10
 187.28101803253
  20
 90.858659701617
  30
0.0
  41
 2.0000000000000
  42
 2.0000000000000
  43
 2.0000000000000
  50
 90.000000000000
   0
MTEXT
   5
1B4
 100
AcDbEntity
   8
LEVEL001
  62
2
 100
AcDbMText
  10
 185.65244660396
  20
 86.358659701617
  30
0.0
  40
 3.8000000000000
  41
0.0
  71
8
  72
1
   1
\A1;9
   7
GMM001
  11
0.0
  21
 1.0000000000000
  31
0.0
   0
ENDBLK
   5
1B5
 100
AcDbEntity
   8
0
 100
AcDbBlockEnd
   0
BLOCK
   5
1B6
 100
AcDbEntity
   8
0
 100
AcDbBlockBegin
   2
*D13
  70
65
  10
0.0
  20
0.0
  30
0.0
   3
*D13
   0
LINE
   5
1B7
 100
AcDbEntity
   8
LEVEL001
 100
AcDbLine
   6
CONTINUOUS
  62
2
  10
 163.00844655292
  20
 61.858659701617
  30
0.0
  11
 189.28101803253
  21
 61.858659701617
  31
0.0
   0
LINE
   5
1B8
 100
AcDbEntity
   8
LEVEL001
 100
AcDbLine
   6
CONTINUOUS
  62
2
  10
 162.81906348262
  20
 81.858659701617
  30
0.0
  11
 189.28101803253
  21
 81.858659701617
  31
0.0
   0
LINE
   5
1B9
 100
AcDbEntity
   8
LEVEL001
 100
AcDbLine
   6
CONTINUOUS
  62
2
  10
 187.28101803253
  20
 61.858659701617
  30
0.0
  11
 187.28101803253
  21
 71.858659701617
  31
0.0
   0
LINE
   5
1BA
 100
AcDbEntity
   8
LEVEL001
 100
AcDbLine
   6
CONTINUOUS
  62
2
  10
 187.28101803253
  20
 81.858659701617
  30
0.0
  11
 187.28101803253
  21
 71.858659701617
  31
0.0
   0
INSERT
   5
1BB
 100
AcDbEntity
   8
LEVEL001
   6
CONTINUOUS
  62
2
 100
AcDbBlockReference
   2
_OPEN30
  10
 187.28101803253
  20
 61.858659701617
  30
0.0
  41
 2.0000000000000
  42
 2.0000000000000
  43
 2.0000000000000
  50
 270.00000000000
   0
INSERT
   5
1BC
 100
AcDbEntity
   8
LEVEL001
   6
CONTINUOUS
  62
2
 100
AcDbBlockReference
   2
_OPEN30
  10
 187.28101803253
  20
 81.858659701617
  30
0.0
  41
 2.0000000000000
  42
 2.0000000000000
  43
 2.0000000000000
  50
 90.000000000000
   0
MTEXT
   5
1BD
 100
AcDbEntity
   8
LEVEL001
  62
2
 100
AcDbMText
  10
 185.65244660396
  20
 71.858659701617
  30
0.0
  40
 3.8000000000000
  41
0.0
  71
8
  72
1
   1
\A1;20
   7
GMM001
  11
0.0
  21
 1.0000000000000
  31
0.0
   0
ENDBLK
   5
1BE
 100
AcDbEntity
   8
0
 100
AcDbBlockEnd
   0
BLOCK
   5
1BF
 100
AcDbEntity
   8
0
 100
AcDbBlockBegin
   2
*D14
  70
65
  10
0.0
  20
0.0
  30
0.0
   3
*D14
   0
LINE
   5
1C0
 100
AcDbEntity
   8
LEVEL001
 100
AcDbLine
   6
CONTINUOUS
  62
2
  10
 155.73649795002
  20
 48.358659701617
  30
0.0
  11
 189.28101803253
  21
 48.358659701617
  31
0.0
   0
LINE
   5
1C1
 100
AcDbEntity
   8
LEVEL001
 100
AcDbLine
   6
CONTINUOUS
  62
2
  10
 163.00844655292
  20
 61.858659701617
  30
0.0
  11
 189.28101803253
  21
 61.858659701617
  31
0.0
   0
LINE
   5
1C2
 100
AcDbEntity
   8
LEVEL001
 100
AcDbLine
   6
CONTINUOUS
  62
2
  10
 187.28101803253
  20
 48.358659701617
  30
0.0
  11
 187.28101803253
  21
 55.108659701617
  31
0.0
   0
LINE
   5
1C3
 100
AcDbEntity
   8
LEVEL001
 100
AcDbLine
   6
CONTINUOUS
  62
2
  10
 187.28101803253
  20
 61.858659701617
  30
0.0
  11
 187.28101803253
  21
 55.108659701617
  31
0.0
   0
INSERT
   5
1C4
 100
AcDbEntity
   8
LEVEL001
   6
CONTINUOUS
  62
2
 100
AcDbBlockReference
   2
_OPEN30
  10
 187.28101803253
  20
 48.358659701617
  30
0.0
  41
 2.0000000000000
  42
 2.0000000000000
  43
 2.0000000000000
  50
 270.00000000000
   0
INSERT
   5
1C5
 100
AcDbEntity
   8
LEVEL001
   6
CONTINUOUS
  62
2
 100
AcDbBlockReference
   2
_OPEN30
  10
 187.28101803253
  20
 61.858659701617
  30
0.0
  41
 2.0000000000000
  42
 2.0000000000000
  43
 2.0000000000000
  50
 90.000000000000
   0
MTEXT
   5
1C6
 100
AcDbEntity
   8
LEVEL001
  62
2
 100
AcDbMText
  10
 185.65244660396
  20
 55.108659701617
  30
0.0
  40
 3.8000000000000
  41
0.0
  71
8
  72
1
   1
\A1;13.5
   7
GMM001
  11
0.0
  21
 1.0000000000000
  31
0.0
   0
ENDBLK
   5
1C7
 100
AcDbEntity
   8
0
 100
AcDbBlockEnd
   0
BLOCK
   5
1C8
 100
AcDbEntity
   8
0
 100
AcDbBlockBegin
   2
*D15
  70
65
  10
0.0
  20
0.0
  30
0.0
   3
*D15
   0
LINE
   5
1C9
 100
AcDbEntity
   8
LEVEL001
 100
AcDbLine
   6
CONTINUOUS
  62
2
  10
 190.28101803253
  20
 90.858659701617
  30
0.0
  11
 198.88632550488
  21
 90.858659701617
  31
0.0
   0
LINE
   5
1CA
 100
AcDbEntity
   8
LEVEL001
 100
AcDbLine
   6
CONTINUOUS
  62
2
  10
 190.28101803253
  20
 48.358659701617
  30
0.0
  11
 198.88632550488
  21
 48.358659701617
  31
0.0
   0
LINE
   5
1CB
 100
AcDbEntity
   8
LEVEL001
 100
AcDbLine
   6
CONTINUOUS
  62
2
  10
 196.88632550488
  20
 90.858659701617
  30
0.0
  11
 196.88632550488
  21
 69.608659701617
  31
0.0
   0
LINE
   5
1CC
 100
AcDbEntity
   8
LEVEL001
 100
AcDbLine
   6
CONTINUOUS
  62
2
  10
 196.88632550488
  20
 48.358659701617
  30
0.0
  11
 196.88632550488
  21
 69.608659701617
  31
0.0
   0
INSERT
   5
1CD
 100
AcDbEntity
   8
LEVEL001
   6
CONTINUOUS
  62
2
 100
AcDbBlockReference
   2
_OPEN30
  10
 196.88632550488
  20
 90.858659701617
  30
0.0
  41
 2.0000000000000
  42
 2.0000000000000
  43
 2.0000000000000
  50
 90.000000000000
   0
INSERT
   5
1CE
 100
AcDbEntity
   8
LEVEL001
   6
CONTINUOUS
  62
2
 100
AcDbBlockReference
   2
_OPEN30
  10
 196.88632550488
  20
 48.358659701617
  30
0.0
  41
 2.0000000000000
  42
 2.0000000000000
  43
 2.0000000000000
  50
 270.00000000000
   0
MTEXT
   5
1CF
 100
AcDbEntity
   8
LEVEL001
  62
2
 100
AcDbMText
  10
 195.25775407631
  20
 69.608659701617
  30
0.0
  40
 3.8000000000000
  41
0.0
  71
8
  72
1
   1
\A1;42.5
   7
GMM001
  11
0.0
  21
 1.0000000000000
  31
0.0
   0
ENDBLK
   5
1D0
 100
AcDbEntity
   8
0
 100
AcDbBlockEnd
   0
BLOCK
   5
1D1
 100
AcDbEntity
   8
0
 100
AcDbBlockBegin
   2
HATCH008
  70
64
  10
0.0
  20
0.0
  30
0.0
   3
HATCH008
   0
LINE
   5
1D2
 100
AcDbEntity
   8
LEVEL001
 100
AcDbLine
   6
DASHDOT
  62
2
  10
 228.93204278577
  20
 96.506682141543
  30
0.0
  11
 229.63362560382
  21
 97.208264959594
  31
0.0
   0
LINE
   5
1D3
 100
AcDbEntity
   8
LEVEL001
 100
AcDbLine
   6
DASHDOT
  62
2
  10
 230.00375638440
  20
 96.164182180173
  30
0.0
  11
 231.04783916382
  21
 97.208264959594
  31
0.0
   0
LINE
   5
1D4
 100
AcDbEntity
   8
LEVEL001
 100
AcDbLine
   6
DASHDOT
  62
2
  10
 231.17529424475
  20
 95.921506480527
  30
0.0
  11
 232.46205272382
  21
 97.208264959594
  31
0.0
   0
LINE
   5
1D5
 100
AcDbEntity
   8
LEVEL001
 100
AcDbLine
   6
DASHDOT
  62
2
  10
 232.34683210511
  20
 95.678830780882
  30
0.0
  11
 233.87626628382
  21
 97.208264959594
  31
0.0
   0
LINE
   5
1D6
 100
AcDbEntity
   8
LEVEL001
 100
AcDbLine
   6
DASHDOT
  62
2
  10
 233.51836996546
  20
 95.436155081236
  30
0.0
  11
 235.29047984382
  21
 97.208264959594
  31
0.0
   0
LINE
   5
1D7
 100
AcDbEntity
   8
LEVEL001
 100
AcDbLine
   6
DASHDOT
  62
2
  10
 234.68990782582
  20
 95.193479381591
  30
0.0
  11
 236.70469340382
  21
 97.208264959594
  31
0.0
   0
LINE
   5
1D8
 100
AcDbEntity
   8
LEVEL001
 100
AcDbLine
   6
DASHDOT
  62
2
  10
 235.87628604304
  20
 94.965644038817
  30
0.0
  11
 238.11890696382
  21
 97.208264959594
  31
0.0
   0
LINE
   5
1D9
 100
AcDbEntity
   8
LEVEL001
 100
AcDbLine
   6
DASHDOT
  62
2
  10
 237.25312680368
  20
 94.928271239456
  30
0.0
  11
 239.53312052382
  21
 97.208264959594
  31
0.0
   0
LINE
   5
1DA
 100
AcDbEntity
   8
LEVEL001
 100
AcDbLine
   6
DASHDOT
  62
2
  10
 238.63824131924
  20
 94.899172195012
  30
0.0
  11
 240.94733408382
  21
 97.208264959594
  31
0.0
   0
LINE
   5
1DB
 100
AcDbEntity
   8
LEVEL001
 100
AcDbLine
   6
DASHDOT
  62
2
  10
 240.02335583479
  20
 94.870073150567
  30
0.0
  11
 242.36154764382
  21
 97.208264959594
  31
0.0
   0
LINE
   5
1DC
 100
AcDbEntity
   8
LEVEL001
 100
AcDbLine
   6
DASHDOT
  62
2
  10
 250.82542572513
  20
 105.67214304090
  30
0.0
  11
 251.86154764382
  21
 106.70826495959
  31
0.0
   0
LINE
   5
1DD
 100
AcDbEntity
   8
LEVEL001
 100
AcDbLine
   6
DASHDOT
  62
2
  10
 241.40847035035
  20
 94.840974106123
  30
0.0
  11
 243.77576120382
  21
 97.208264959594
  31
0.0
   0
LINE
   5
1DE
 100
AcDbEntity
   8
LEVEL001
 100
AcDbLine
   6
DASHDOT
  62
2
  10
 250.82542572513
  20
 104.25792948090
  30
0.0
  11
 253.22542572499
  21
 106.65792948076
  31
0.0
   0
LINE
   5
1DF
 100
AcDbEntity
   8
LEVEL001
 100
AcDbLine
   6
DASHDOT
  62
2
  10
 242.79358486591
  20
 94.811875061679
  30
0.0
  11
 245.18997476382
  21
 97.208264959594
  31
0.0
   0
LINE
   5
1E0
 100
AcDbEntity
   8
LEVEL001
 100
AcDbLine
   6
DASHDOT
  62
2
  10
 250.82542572513
  20
 102.84371592090
  30
0.0
  11
 253.22542572499
  21
 105.24371592076
  31
0.0
   0
LINE
   5
1E1
 100
AcDbEntity
   8
LEVEL001
 100
AcDbLine
   6
DASHDOT
  62
2
  10
 244.17869938146
  20
 94.782776017234
  30
0.0
  11
 246.60418832382
  21
 97.208264959594
  31
0.0
   0
LINE
   5
1E2
 100
AcDbEntity
   8
LEVEL001
 100
AcDbLine
   6
DASHDOT
  62
2
  10
 250.82542572513
  20
 101.42950236090
  30
0.0
  11
 253.22542572499
  21
 103.82950236076
  31
0.0
   0
LINE
   5
1E3
 100
AcDbEntity
   8
LEVEL001
 100
AcDbLine
   6
DASHDOT
  62
2
  10
 245.56381389702
  20
 94.753676972790
  30
0.0
  11
 248.01840188382
  21
 97.208264959594
  31
0.0
   0
LINE
   5
1E4
 100
AcDbEntity
   8
LEVEL001
 100
AcDbLine
   6
DASHDOT
  62
2
  10
 250.82542572513
  20
 100.01528880090
  30
0.0
  11
 253.22542572499
  21
 102.41528880076
  31
0.0
   0
LINE
   5
1E5
 100
AcDbEntity
   8
LEVEL001
 100
AcDbLine
   6
DASHDOT
  62
2
  10
 246.94892841257
  20
 94.724577928346
  30
0.0
  11
 249.43261544382
  21
 97.208264959594
  31
0.0
   0
LINE
   5
1E6
 100
AcDbEntity
   8
LEVEL001
 100
AcDbLine
   6
DASHDOT
  62
2
  10
 250.82542572513
  20
 98.601075240903
  30
0.0
  11
 253.22542572499
  21
 101.00107524076
  31
0.0
   0
LINE
   5
1E7
 100
AcDbEntity
   8
LEVEL001
 100
AcDbLine
   6
DASHDOT
  62
2
  10
 248.34682900382
  20
 94.708264959594
  30
0.0
  11
 253.22542572499
  21
 99.586861680763
  31
0.0
   0
LINE
   5
1E8
 100
AcDbEntity
   8
LEVEL001
 100
AcDbLine
   6
DASHDOT
  62
2
  10
 249.76104256382
  20
 94.708264959594
  30
0.0
  11
 253.22542572499
  21
 98.172648120763
  31
0.0
   0
LINE
   5
1E9
 100
AcDbEntity
   8
LEVEL001
 100
AcDbLine
   6
DASHDOT
  62
2
  10
 251.17525612382
  20
 94.708264959594
  30
0.0
  11
 253.22542572499
  21
 96.758434560763
  31
0.0
   0
ENDBLK
   5
1EA
 100
AcDbEntity
   8
0
 100
AcDbBlockEnd
   0
BLOCK
   5
1EB
 100
AcDbEntity
   8
0
 100
AcDbBlockBegin
   2
*D16
  70
65
  10
0.0
  20
0.0
  30
0.0
   3
*D16
   0
LINE
   5
1EC
 100
AcDbEntity
   8
LEVEL001
 100
AcDbLine
   6
CONTINUOUS
  62
2
  10
 228.82542572513
  20
 96.208264959594
  30
0.0
  11
 228.82542572513
  21
 80.601383841559
  31
0.0
   0
LINE
   5
1ED
 100
AcDbEntity
   8
LEVEL001
 100
AcDbLine
   6
CONTINUOUS
  62
2
  10
 250.82542572513
  20
 96.508264959594
  30
0.0
  11
 250.82542572513
  21
 80.601383841559
  31
0.0
   0
LINE
   5
1EE
 100
AcDbEntity
   8
LEVEL001
 100
AcDbLine
   6
CONTINUOUS
  62
2
  10
 228.82542572513
  20
 82.601383841559
  30
0.0
  11
 239.82542572513
  21
 82.601383841559
  31
0.0
   0
LINE
   5
1EF
 100
AcDbEntity
   8
LEVEL001
 100
AcDbLine
   6
CONTINUOUS
  62
2
  10
 250.82542572513
  20
 82.601383841559
  30
0.0
  11
 239.82542572513
  21
 82.601383841559
  31
0.0
   0
INSERT
   5
1F0
 100
AcDbEntity
   8
LEVEL001
   6
CONTINUOUS
  62
2
 100
AcDbBlockReference
   2
_OPEN30
  10
 228.82542572513
  20
 82.601383841559
  30
0.0
  41
 2.0000000000000
  42
 2.0000000000000
  43
 2.0000000000000
  50
 180.00000000000
   0
INSERT
   5
1F1
 100
AcDbEntity
   8
LEVEL001
   6
CONTINUOUS
  62
2
 100
AcDbBlockReference
   2
_OPEN30
  10
 250.82542572513
  20
 82.601383841559
  30
0.0
  41
 2.0000000000000
  42
 2.0000000000000
  43
 2.0000000000000
  50
0.0
   0
MTEXT
   5
1F2
 100
AcDbEntity
   8
LEVEL001
  62
2
 100
AcDbMText
  10
 239.82542572513
  20
 84.229955270130
  30
0.0
  40
 3.8000000000000
  41
0.0
  71
8
  72
1
   1
\A1;22
   7
GMM001
   0
ENDBLK
   5
1F3
 100
AcDbEntity
   8
0
 100
AcDbBlockEnd
   0
BLOCK
   5
1F4
 100
AcDbEntity
   8
0
 100
AcDbBlockBegin
   2
*D17
  70
65
  10
0.0
  20
0.0
  30
0.0
   3
*D17
   0
LINE
   5
1F5
 100
AcDbEntity
   8
LEVEL001
 100
AcDbLine
   6
CONTINUOUS
  62
2
  10
 253.22542572499
  20
 93.708264959594
  30
0.0
  11
 253.22542572499
  21
 80.601383841559
  31
0.0
   0
LINE
   5
1F6
 100
AcDbEntity
   8
LEVEL001
 100
AcDbLine
   6
CONTINUOUS
  62
2
  10
 263.43240803018
  20
 82.601383841559
  30
0.0
  11
 252.02542572506
  21
 82.601383841559
  31
0.0
   0
LINE
   5
1F7
 100
AcDbEntity
   8
LEVEL001
 100
AcDbLine
   6
CONTINUOUS
  62
2
  10
 248.32542572513
  20
 82.601383841559
  30
0.0
  11
 252.02542572506
  21
 82.601383841559
  31
0.0
   0
INSERT
   5
1F8
 100
AcDbEntity
   8
LEVEL001
   6
CONTINUOUS
  62
2
 100
AcDbBlockReference
   2
_OPEN30
  10
 253.22542572499
  20
 82.601383841559
  30
0.0
  41
 2.0000000000000
  42
 2.0000000000000
  43
 2.0000000000000
  50
 180.00000000000
   0
INSERT
   5
1F9
 100
AcDbEntity
   8
LEVEL001
   6
CONTINUOUS
  62
2
 100
AcDbBlockReference
   2
_OPEN30
  10
 250.82542572513
  20
 82.601383841559
  30
0.0
  41
 2.0000000000000
  42
 2.0000000000000
  43
 2.0000000000000
  50
0.0
   0
MTEXT
   5
1FA
 100
AcDbEntity
   8
LEVEL001
  62
2
 100
AcDbMText
  10
 259.43240803018
  20
 84.229955270130
  30
0.0
  40
 3.8000000000000
  41
0.0
  71
8
  72
1
   1
\A1;2.4
   7
GMM001
   0
ENDBLK
   5
1FB
 100
AcDbEntity
   8
0
 100
AcDbBlockEnd
   0
BLOCK
   5
1FC
 100
AcDbEntity
   8
0
 100
AcDbBlockBegin
   2
*D18
  70
65
  10
0.0
  20
0.0
  30
0.0
   3
*D18
   0
LINE
   5
1FD
 100
AcDbEntity
   8
LEVEL001
 100
AcDbLine
   6
CONTINUOUS
  62
2
  10
 228.82542572513
  20
 79.601383841559
  30
0.0
  11
 228.82542572513
  21
 71.489953903730
  31
0.0
   0
LINE
   5
1FE
 100
AcDbEntity
   8
LEVEL001
 100
AcDbLine
   6
CONTINUOUS
  62
2
  10
 253.22542572499
  20
 79.601383841559
  30
0.0
  11
 253.22542572499
  21
 71.489953903730
  31
0.0
   0
LINE
   5
1FF
 100
AcDbEntity
   8
LEVEL001
 100
AcDbLine
   6
CONTINUOUS
  62
2
  10
 228.82542572513
  20
 73.489953903730
  30
0.0
  11
 241.02542572506
  21
 73.489953903730
  31
0.0
   0
LINE
   5
200
 100
AcDbEntity
   8
LEVEL001
 100
AcDbLine
   6
CONTINUOUS
  62
2
  10
 253.22542572499
  20
 73.489953903730
  30
0.0
  11
 241.02542572506
  21
 73.489953903730
  31
0.0
   0
INSERT
   5
201
 100
AcDbEntity
   8
LEVEL001
   6
CONTINUOUS
  62
2
 100
AcDbBlockReference
   2
_OPEN30
  10
 228.82542572513
  20
 73.489953903730
  30
0.0
  41
 2.0000000000000
  42
 2.0000000000000
  43
 2.0000000000000
  50
 180.00000000000
   0
INSERT
   5
202
 100
AcDbEntity
   8
LEVEL001
   6
CONTINUOUS
  62
2
 100
AcDbBlockReference
   2
_OPEN30
  10
 253.22542572499
  20
 73.489953903730
  30
0.0
  41
 2.0000000000000
  42
 2.0000000000000
  43
 2.0000000000000
  50
0.0
   0
MTEXT
   5
203
 100
AcDbEntity
   8
LEVEL001
  62
2
 100
AcDbMText
  10
 241.02542572506
  20
 75.118525332301
  30
0.0
  40
 3.8000000000000
  41
0.0
  71
8
  72
1
   1
\A1;24.4
   7
GMM001
   0
ENDBLK
   5
204
 100
AcDbEntity
   8
0
 100
AcDbBlockEnd
   0
BLOCK
   5
205
 100
AcDbEntity
   8
0
 100
AcDbBlockBegin
   2
*D19
  70
65
  10
0.0
  20
0.0
  30
0.0
   3
*D19
   0
LINE
   5
206
 100
AcDbEntity
   8
LEVEL001
 100
AcDbLine
   6
CONTINUOUS
  62
2
  10
 254.22542572499
  20
 94.708264959594
  30
0.0
  11
 271.59853689835
  21
 94.708264959594
  31
0.0
   0
LINE
   5
207
 100
AcDbEntity
   8
LEVEL001
 100
AcDbLine
   6
CONTINUOUS
  62
2
  10
 254.22542572499
  20
 118.70826495959
  30
0.0
  11
 271.59853689835
  21
 118.70826495959
  31
0.0
   0
LINE
   5
208
 100
AcDbEntity
   8
LEVEL001
 100
AcDbLine
   6
CONTINUOUS
  62
2
  10
 269.59853689835
  20
 94.708264959594
  30
0.0
  11
 269.59853689835
  21
 106.70826495959
  31
0.0
   0
LINE
   5
209
 100
AcDbEntity
   8
LEVEL001
 100
AcDbLine
   6
CONTINUOUS
  62
2
  10
 269.59853689835
  20
 118.70826495959
  30
0.0
  11
 269.59853689835
  21
 106.70826495959
  31
0.0
   0
INSERT
   5
20A
 100
AcDbEntity
   8
LEVEL001
   6
CONTINUOUS
  62
2
 100
AcDbBlockReference
   2
_OPEN30
  10
 269.59853689835
  20
 94.708264959594
  30
0.0
  41
 2.0000000000000
  42
 2.0000000000000
  43
 2.0000000000000
  50
 270.00000000000
   0
INSERT
   5
20B
 100
AcDbEntity
   8
LEVEL001
   6
CONTINUOUS
  62
2
 100
AcDbBlockReference
   2
_OPEN30
  10
 269.59853689835
  20
 118.70826495959
  30
0.0
  41
 2.0000000000000
  42
 2.0000000000000
  43
 2.0000000000000
  50
 90.000000000000
   0
MTEXT
   5
20C
 100
AcDbEntity
   8
LEVEL001
  62
2
 100
AcDbMText
  10
 267.96996546978
  20
 106.70826495959
  30
0.0
  40
 3.8000000000000
  41
0.0
  71
8
  72
1
   1
\A1;%%c24
   7
GMM001
  11
0.0
  21
 1.0000000000000
  31
0.0
   0
ENDBLK
   5
20D
 100
AcDbEntity
   8
0
 100
AcDbBlockEnd
   0
BLOCK
   5
20E
 100
AcDbEntity
   8
0
 100
AcDbBlockBegin
   2
*D20
  70
65
  10
0.0
  20
0.0
  30
0.0
   3
*D20
   0
LINE
   5
20F
 100
AcDbEntity
   8
LEVEL001
 100
AcDbLine
   6
CONTINUOUS
  62
2
  10
 227.82542572513
  20
 97.208264959594
  30
0.0
  11
 215.41297974866
  21
 97.208264959594
  31
0.0
   0
LINE
   5
210
 100
AcDbEntity
   8
LEVEL001
 100
AcDbLine
   6
CONTINUOUS
  62
2
  10
 227.82542572513
  20
 116.20826495959
  30
0.0
  11
 215.41297974866
  21
 116.20826495959
  31
0.0
   0
LINE
   5
211
 100
AcDbEntity
   8
LEVEL001
 100
AcDbLine
   6
CONTINUOUS
  62
2
  10
 217.41297974866
  20
 97.208264959594
  30
0.0
  11
 217.41297974866
  21
 106.70826495959
  31
0.0
   0
LINE
   5
212
 100
AcDbEntity
   8
LEVEL001
 100
AcDbLine
   6
CONTINUOUS
  62
2
  10
 217.41297974866
  20
 116.20826495959
  30
0.0
  11
 217.41297974866
  21
 106.70826495959
  31
0.0
   0
INSERT
   5
213
 100
AcDbEntity
   8
LEVEL001
   6
CONTINUOUS
  62
2
 100
AcDbBlockReference
   2
_OPEN30
  10
 217.41297974866
  20
 97.208264959594
  30
0.0
  41
 2.0000000000000
  42
 2.0000000000000
  43
 2.0000000000000
  50
 270.00000000000
   0
INSERT
   5
214
 100
AcDbEntity
   8
LEVEL001
   6
CONTINUOUS
  62
2
 100
AcDbBlockReference
   2
_OPEN30
  10
 217.41297974866
  20
 116.20826495959
  30
0.0
  41
 2.0000000000000
  42
 2.0000000000000
  43
 2.0000000000000
  50
 90.000000000000
   0
MTEXT
   5
215
 100
AcDbEntity
   8
LEVEL001
  62
2
 100
AcDbMText
  10
 215.78440832009
  20
 106.70826495959
  30
0.0
  40
 3.8000000000000
  41
0.0
  71
8
  72
1
   1
\A1;%%c19
   7
GMM001
  11
0.0
  21
 1.0000000000000
  31
0.0
   0
ENDBLK
   5
216
 100
AcDbEntity
   8
0
 100
AcDbBlockEnd
   0
ENDSEC
   0
SECTION
   2
ENTITIES
   0
LINE
   5
217
 100
AcDbEntity
   8
LEVEL001
 100
AcDbLine
   6
CONTINUOUS
  62
8
  10
 392.00000000000
  20
 17.000000000000
  30
0.0
  11
 402.00000000000
  21
 17.000000000000
  31
0.0
   0
LINE
   5
218
 100
AcDbEntity
   8
LEVEL001
 100
AcDbLine
   6
CONTINUOUS
  62
8
  10
 392.00000000000
  20
 12.000000000000
  30
0.0
  11
 402.00000000000
  21
 12.000000000000
  31
0.0
   0
LINE
   5
219
 100
AcDbEntity
   8
LEVEL001
 100
AcDbLine
   6
CONTINUOUS
  62
8
  10
 397.00000000000
  20
 17.000000000000
  30
0.0
  11
 397.00000000000
  21
 7.0000000000000
  31
0.0
   0
LINE
   5
21A
 100
AcDbEntity
   8
LEVEL001
 100
AcDbLine
   6
CONTINUOUS
  62
8
  10
 341.00000000000
  20
 7.0000000000000
  30
0.0
  11
 341.00000000000
  21
 22.000000000000
  31
0.0
   0
LINE
   5
21B
 100
AcDbEntity
   8
LEVEL001
 100
AcDbLine
   6
CONTINUOUS
  62
8
  10
 295.69695514066
  20
 22.000000000000
  30
0.0
  11
 295.69695514066
  21
 7.0000000000000
  31
0.0
   0
LINE
   5
21C
 100
AcDbEntity
   8
LEVEL001
 100
AcDbLine
   6
CONTINUOUS
  62
8
  10
 279.41198317335
  20
 22.000000000000
  30
0.0
  11
 279.41198317335
  21
 7.0000000000000
  31
0.0
   0
CIRCLE
   5
21D
 100
AcDbEntity
   8
LEVEL001
 100
AcDbCircle
   6
CONTINUOUS
  62
8
  10
 283.85876904087
  20
 11.873119442560
  30
0.0
  40
 1.4952992000607
   0
CIRCLE
   5
21E
 100
AcDbEntity
   8
LEVEL001
 100
AcDbCircle
   6
CONTINUOUS
  62
8
  10
 283.85876904087
  20
 11.873119442560
  30
0.0
  40
 2.2926971648466
   0
LINE
   5
21F
 100
AcDbEntity
   8
LEVEL001
 100
AcDbLine
   6
DASHDOT
  62
8
  10
 283.85876904087
  20
 14.653337133794
  30
0.0
  11
 283.85876904087
  21
 9.1156039750867
  31
0.0
   0
LINE
   5
220
 100
AcDbEntity
   8
LEVEL001
 100
AcDbLine
   6
DASHDOT
  62
8
  10
 281.06714872566
  20
 11.873119442560
  30
0.0
  11
 294.11171244742
  21
 11.873119442560
  31
0.0
   0
LINE
   5
221
 100
AcDbEntity
   8
LEVEL001
 100
AcDbLine
   6
CONTINUOUS
  62
8
  10
 227.41198317335
  20
 37.000000000000
  30
0.0
  11
 402.00000000000
  21
 37.000000000000
  31
0.0
   0
LINE
   5
222
 100
AcDbEntity
   8
LEVEL001
 100
AcDbLine
   6
CONTINUOUS
  62
8
  10
 279.41198317335
  20
 22.000000000000
  30
0.0
  11
 279.41198317335
  21
 37.000000000000
  31
0.0
   0
LINE
   5
223
 100
AcDbEntity
   8
LEVEL001
 100
AcDbLine
   6
CONTINUOUS
  62
8
  10
 392.00000000000
  20
 37.000000000000
  30
0.0
  11
 392.00000000000
  21
 7.0000000000000
  31
0.0
   0
LINE
   5
224
 100
AcDbEntity
   8
LEVEL001
 100
AcDbLine
   6
CONTINUOUS
  62
8
  10
 341.00000000000
  20
 37.000000000000
  30
0.0
  11
 341.00000000000
  21
 22.000000000000
  31
0.0
   0
LINE
   5
225
 100
AcDbEntity
   8
LEVEL001
 100
AcDbLine
   6
CONTINUOUS
  62
8
  10
 341.00000000000
  20
 29.500000000000
  30
0.0
  11
 391.82654662566
  21
 29.500000000000
  31
0.0
   0
LINE
   5
226
 100
AcDbEntity
   8
LEVEL001
 100
AcDbLine
   6
CONTINUOUS
  62
8
  10
 399.58032447968
  20
 31.223684451337
  30
0.0
  11
 394.37930700766
  21
 24.208978835228
  31
0.0
   0
LINE
   5
227
 100
AcDbEntity
   8
LEVEL001
 100
AcDbLine
   6
CONTINUOUS
  62
8
  10
 279.41198317335
  20
 22.000000000000
  30
0.0
  11
 402.00000000000
  21
 22.000000000000
  31
0.0
   0
LINE
   5
228
 100
AcDbEntity
   8
LEVEL001
 100
AcDbLine
   6
CONTINUOUS
  62
8
  10
 262.07864984001
  20
 29.000000000000
  30
0.0
  11
 262.07864984001
  21
 7.0000000000000
  31
0.0
   0
LINE
   5
229
 100
AcDbEntity
   8
LEVEL001
 100
AcDbLine
   6
CONTINUOUS
  62
8
  10
 279.41198317335
  20
 29.000000000000
  30
0.0
  11
 227.41198317335
  21
 29.000000000000
  31
0.0
   0
LINE
   5
22A
 100
AcDbEntity
   8
LEVEL001
 100
AcDbLine
   6
CONTINUOUS
  62
8
  10
 244.74531650668
  20
 29.000000000000
  30
0.0
  11
 244.74531650668
  21
 7.0000000000000
  31
0.0
   0
TEXT
   5
22B
 100
AcDbEntity
   8
LEVEL001
  62
2
 100
AcDbText
  10
 392.91826757962
  20
 17.598719270554
  30
0.0
  40
 2.5000000000000
   1
ＲＥＶ.
   7
STANDARD
  72
1
  11
 397.29326757962
  21
 19.265385937221
  31
0.0
 100
AcDbText
  73
2
   0
TEXT
   5
22C
 100
AcDbEntity
   8
LEVEL001
  62
2
 100
AcDbText
  10
 277.93991800322
  20
 18.431680265561
  30
0.0
  40
 2.5000000000000
   1
ＰＲＯＪＥＣＴＩＯＮ
  41
 0.76000000000000
   7
STANDARD
  72
1
  11
 287.43991800322
  21
 20.098346932228
  31
0.0
 100
AcDbText
  73
2
   0
TEXT
   5
22D
 100
AcDbEntity
   8
LEVEL001
  62
2
 100
AcDbText
  10
 280.72327826531
  20
 33.949960132689
  30
0.0
  40
 2.5000000000000
   1
ＴＩＴＬＥ
  41
 0.76000000000000
   7
STANDARD
 100
AcDbText
   0
TEXT
   5
22E
 100
AcDbEntity
   8
LEVEL001
  62
2
 100
AcDbText
  10
 391.55881737529
  20
 33.156503336854
  30
0.0
  40
 2.5000000000000
   1
ＳＣＡＬＥ
  41
 0.88000000000000
   7
STANDARD
  72
1
  11
 397.05881737529
  21
 34.823170003521
  31
0.0
 100
AcDbText
  73
2
   0
TEXT
   5
22F
 100
AcDbEntity
   8
LEVEL001
  62
2
 100
AcDbText
  10
 341.59989527462
  20
 33.949960132689
  30
0.0
  40
 2.5000000000000
   1
ＰＴ.ＮＯ
  41
 0.76000000000000
   7
STANDARD
 100
AcDbText
   0
TEXT
   5
230
 100
AcDbEntity
   8
LEVEL001
  62
2
 100
AcDbText
  10
 341.59989527462
  20
 26.140341546847
  30
0.0
  40
 2.5000000000000
   1
ＰＴ.ＮＡＭＥ
  41
 0.76000000000000
   7
STANDARD
 100
AcDbText
   0
TEXT
   5
231
 100
AcDbEntity
   8
LEVEL001
  62
2
 100
AcDbText
  10
 392.73996445112
  20
 27.543225284477
  30
0.0
  40
 4.0000000000000
   1
１ 　
   7
STANDARD
 100
AcDbText
   0
TEXT
   5
232
 100
AcDbEntity
   8
LEVEL001
  62
2
 100
AcDbText
  10
 265.61640595996
  20
 24.983866542629
  30
0.0
  40
 3.0000000000000
   1
ＤＷＮ．
   7
STANDARD
  72
1
  11
 271.61640595996
  21
 26.983866542629
  31
0.0
 100
AcDbText
  73
2
   0
TEXT
   5
233
 100
AcDbEntity
   8
LEVEL001
  62
2
 100
AcDbText
  10
 246.53332187543
  20
 24.983866542629
  30
0.0
  40
 3.0000000000000
   1
ＣＨＫＤ．
   7
STANDARD
  72
1
  11
 254.03332187543
  21
 26.983866542629
  31
0.0
 100
AcDbText
  73
2
   0
TEXT
   5
234
 100
AcDbEntity
   8
LEVEL001
  62
2
 100
AcDbText
  10
 229.47773031344
  20
 24.983866542629
  30
0.0
  40
 3.0000000000000
   1
ＡＰＰＤ．
   7
STANDARD
  72
1
  11
 236.97773031344
  21
 26.983866542629
  31
0.0
 100
AcDbText
  73
2
   0
TEXT
   5
235
 100
AcDbEntity
   8
LEVEL001
  62
2
 100
AcDbText
  10
 228.44990547429
  20
 33.386687324788
  30
0.0
  40
 2.5000000000000
   1
ＤＡＴＥ．
   7
STANDARD
  72
1
  11
 234.69990547429
  21
 35.053353991454
  31
0.0
 100
AcDbText
  73
2
   0
TEXT
   5
236
 100
AcDbEntity
   8
LEVEL001
  62
2
 100
AcDbText
  10
 341.91273375713
  20
 18.763585471845
  30
0.0
  40
 2.5000000000000
   1
ＫＵＲＩＫＩ　ＷＯＲＫＳ　ＤＷＧ．ＮＯ．
  41
 0.80000000000000
   7
STANDARD
 100
AcDbText
   0
TEXT
   5
237
 100
AcDbEntity
   8
LEVEL001
  62
2
 100
AcDbText
  10
 297.69114317809
  20
 17.751787742440
  30
0.0
  40
 3.7000000000000
   1
Kuriki Manufacturer Co.,Ltd.
  41
 0.54054054054054
   7
STANDARD
 100
AcDbText
   0
LINE
   5
238
 100
AcDbEntity
   8
LEVEL001
 100
AcDbLine
   6
CONTINUOUS
  62
8
  10
 310.67535827922
  20
 8.1573491883116
  30
0.0
  11
 313.28453327922
  21
 8.1573491883116
  31
0.0
   0
LINE
   5
239
 100
AcDbEntity
   8
LEVEL001
 100
AcDbLine
   6
CONTINUOUS
  62
8
  10
 318.76328327922
  20
 15.132349188313
  30
0.0
  11
 317.57760810271
  21
 10.707349188314
  31
0.0
   0
LINE
   5
23A
 100
AcDbEntity
   8
LEVEL001
 100
AcDbLine
   6
CONTINUOUS
  62
8
  10
 322.54328327922
  20
 15.132349188313
  30
0.0
  11
 321.35760810271
  21
 10.707349188314
  31
0.0
   0
LINE
   5
23B
 100
AcDbEntity
   8
LEVEL001
 100
AcDbLine
   6
CONTINUOUS
  62
8
  10
 323.81828327922
  20
 15.132349188313
  30
0.0
  11
 322.63260810271
  21
 10.707349188314
  31
0.0
   0
LINE
   5
23C
 100
AcDbEntity
   8
LEVEL001
 100
AcDbLine
   6
CONTINUOUS
  62
8
  10
 324.41828327922
  20
 15.132349188313
  30
0.0
  11
 323.23260810271
  21
 10.707349188314
  31
0.0
   0
LINE
   5
23D
 100
AcDbEntity
   8
LEVEL001
 100
AcDbLine
   6
CONTINUOUS
  62
8
  10
 325.69328327922
  20
 15.132349188313
  30
0.0
  11
 324.50760810271
  21
 10.707349188314
  31
0.0
   0
LINE
   5
23E
 100
AcDbEntity
   8
LEVEL001
 100
AcDbLine
   6
CONTINUOUS
  62
8
  10
 328.31828327922
  20
 15.132349188313
  30
0.0
  11
 327.13260810271
  21
 10.707349188314
  31
0.0
   0
LINE
   5
23F
 100
AcDbEntity
   8
LEVEL001
 100
AcDbLine
   6
CONTINUOUS
  62
8
  10
 329.59328327922
  20
 15.132349188313
  30
0.0
  11
 328.40760810271
  21
 10.707349188314
  31
0.0
   0
LINE
   5
240
 100
AcDbEntity
   8
LEVEL001
 100
AcDbLine
   6
CONTINUOUS
  62
8
  10
 315.11828327922
  20
 15.132349188312
  30
0.0
  11
 316.39328327922
  21
 15.132349188313
  31
0.0
   0
LINE
   5
241
 100
AcDbEntity
   8
LEVEL001
 100
AcDbLine
   6
CONTINUOUS
  62
8
  10
 316.91828327922
  20
 15.132349188313
  30
0.0
  11
 318.19328327922
  21
 15.132349188313
  31
0.0
   0
LINE
   5
242
 100
AcDbEntity
   8
LEVEL001
 100
AcDbLine
   6
CONTINUOUS
  62
8
  10
 322.54328327922
  20
 15.132349188313
  30
0.0
  11
 323.81828327922
  21
 15.132349188313
  31
0.0
   0
LINE
   5
243
 100
AcDbEntity
   8
LEVEL001
 100
AcDbLine
   6
CONTINUOUS
  62
8
  10
 324.41828327922
  20
 15.132349188313
  30
0.0
  11
 325.69328327922
  21
 15.132349188313
  31
0.0
   0
LINE
   5
244
 100
AcDbEntity
   8
LEVEL001
 100
AcDbLine
   6
CONTINUOUS
  62
8
  10
 328.31828327922
  20
 15.132349188313
  30
0.0
  11
 329.59328327922
  21
 15.132349188313
  31
0.0
   0
LINE
   5
245
 100
AcDbEntity
   8
LEVEL001
 100
AcDbLine
   6
CONTINUOUS
  62
8
  10
 317.57760810271
  20
 10.707349188314
  30
0.0
  11
 318.85260810271
  21
 10.707349188314
  31
0.0
   0
LINE
   5
246
 100
AcDbEntity
   8
LEVEL001
 100
AcDbLine
   6
CONTINUOUS
  62
8
  10
 321.35760810271
  20
 10.707349188314
  30
0.0
  11
 322.63260810271
  21
 10.707349188314
  31
0.0
   0
LINE
   5
247
 100
AcDbEntity
   8
LEVEL001
 100
AcDbLine
   6
CONTINUOUS
  62
8
  10
 323.23260810271
  20
 10.707349188314
  30
0.0
  11
 324.54759097368
  21
 10.707349188314
  31
0.0
   0
LINE
   5
248
 100
AcDbEntity
   8
LEVEL001
 100
AcDbLine
   6
CONTINUOUS
  62
8
  10
 327.13260810271
  20
 10.707349188314
  30
0.0
  11
 328.40760810271
  21
 10.707349188314
  31
0.0
   0
LINE
   5
249
 100
AcDbEntity
   8
LEVEL001
 100
AcDbLine
   6
CONTINUOUS
  62
8
  10
 319.69664805887
  20
 13.857349188313
  30
0.0
  11
 318.85260810271
  21
 10.707349188314
  31
0.0
   0
LINE
   5
24A
 100
AcDbEntity
   8
LEVEL001
 100
AcDbLine
   6
CONTINUOUS
  62
8
  10
 326.81828327922
  20
 15.132349188313
  30
0.0
  11
 325.16274387821
  21
 13.152349188313
  31
0.0
   0
LINE
   5
24B
 100
AcDbEntity
   8
LEVEL001
 100
AcDbLine
   6
CONTINUOUS
  62
8
  10
 328.16828327922
  20
 15.132349188313
  30
0.0
  11
 326.51274387821
  21
 13.152349188313
  31
0.0
   0
LINE
   5
24C
 100
AcDbEntity
   8
LEVEL001
 100
AcDbLine
   6
CONTINUOUS
  62
8
  10
 326.81828327922
  20
 15.132349188313
  30
0.0
  11
 328.16828327922
  21
 15.132349188313
  31
0.0
   0
LINE
   5
24D
 100
AcDbEntity
   8
LEVEL001
 100
AcDbLine
   6
CONTINUOUS
  62
8
  10
 326.51274387821
  20
 13.152349188313
  30
0.0
  11
 326.98260810271
  21
 10.707349188313
  31
0.0
   0
LINE
   5
24E
 100
AcDbEntity
   8
LEVEL001
 100
AcDbLine
   6
CONTINUOUS
  62
8
  10
 325.16274387821
  20
 13.152349188313
  30
0.0
  11
 325.55760810271
  21
 10.707349188313
  31
0.0
   0
LINE
   5
24F
 100
AcDbEntity
   8
LEVEL001
 100
AcDbLine
   6
CONTINUOUS
  62
8
  10
 325.55760810271
  20
 10.707349188313
  30
0.0
  11
 326.98260810271
  21
 10.707349188313
  31
0.0
   0
LINE
   5
250
 100
AcDbEntity
   8
LEVEL001
 100
AcDbLine
   6
CONTINUOUS
  62
8
  10
 319.62515411498
  20
 10.707349188313
  30
0.0
  11
 321.05015411498
  21
 10.707349188313
  31
0.0
   0
LINE
   5
251
 100
AcDbEntity
   8
LEVEL001
 100
AcDbLine
   6
CONTINUOUS
  62
8
  10
 319.41924332306
  20
 11.982349188313
  30
0.0
  11
 319.62515411498
  21
 10.707349188313
  31
0.0
   0
LINE
   5
252
 100
AcDbEntity
   8
LEVEL001
 100
AcDbLine
   6
CONTINUOUS
  62
8
  10
 319.73274387821
  20
 13.152349188313
  30
0.0
  11
 319.41924332306
  21
 11.982349188313
  31
0.0
   0
LINE
   5
253
 100
AcDbEntity
   8
LEVEL001
 100
AcDbLine
   6
CONTINUOUS
  62
8
  10
 308.58925452741
  20
 16.259524188312
  30
0.0
  11
 310.92377952741
  21
 16.259524188312
  31
0.0
   0
LINE
   5
254
 100
AcDbEntity
   8
LEVEL001
 100
AcDbLine
   6
CONTINUOUS
  62
8
  10
 312.98365452741
  20
 16.259524188312
  30
0.0
  11
 309.95236188415
  21
 12.634144188312
  31
0.0
   0
LINE
   5
255
 100
AcDbEntity
   8
LEVEL001
 100
AcDbLine
   6
CONTINUOUS
  62
8
  10
 315.45550452741
  20
 16.259524188312
  30
0.0
  11
 312.42421188415
  21
 12.634144188312
  31
0.0
   0
LINE
   5
256
 100
AcDbEntity
   8
LEVEL001
 100
AcDbLine
   6
CONTINUOUS
  62
8
  10
 312.98365452741
  20
 16.259524188312
  30
0.0
  11
 315.45550452741
  21
 16.259524188312
  31
0.0
   0
LINE
   5
257
 100
AcDbEntity
   8
LEVEL001
 100
AcDbLine
   6
CONTINUOUS
  62
8
  10
 306.41828327922
  20
 8.1573491883130
  30
0.0
  11
 308.82601691596
  21
 8.1573491883130
  31
0.0
   0
LINE
   5
258
 100
AcDbEntity
   8
LEVEL001
 100
AcDbLine
   6
CONTINUOUS
  62
8
  10
 318.76328327922
  20
 15.132349188313
  30
0.0
  11
 320.51148269989
  21
 15.132349188313
  31
0.0
   0
LINE
   5
259
 100
AcDbEntity
   8
LEVEL001
 100
AcDbLine
   6
CONTINUOUS
  62
8
  10
 320.73602164885
  20
 12.341978597509
  30
0.0
  11
 321.05015411498
  21
 10.707349188313
  31
0.0
   0
ARC
   5
25A
 100
AcDbEntity
   8
LEVEL001
   6
CONTINUOUS
  62
8
 100
AcDbCircle
  10
 320.20249553644
  20
 13.743663811016
  30
0.0
  40
 1.4997905021646
 100
AcDbArc
  50
 290.83842144370
  51
 358.29082922067
   0
ARC
   5
25B
 100
AcDbEntity
   8
LEVEL001
   6
CONTINUOUS
  62
8
 100
AcDbCircle
  10
 320.40274450549
  20
 13.827160587672
  30
0.0
  40
 1.3051886006409
 100
AcDbArc
  50
 354.36180963063
  51
 89.999999999958
   0
LINE
   5
25C
 100
AcDbEntity
   8
LEVEL001
 100
AcDbLine
   6
CONTINUOUS
  62
8
  10
 319.69664805887
  20
 13.857349188313
  30
0.0
  11
 320.07164805887
  21
 13.857349188313
  31
0.0
   0
ARC
   5
25D
 100
AcDbEntity
   8
LEVEL001
   6
CONTINUOUS
  62
8
 100
AcDbCircle
  10
 320.07164805887
  20
 13.557349188304
  30
0.0
  40
 0.30000000000000
 100
AcDbArc
  50
 0.18275891273646E-8
  51
 90.000000000000
   0
LINE
   5
25E
 100
AcDbEntity
   8
LEVEL001
 100
AcDbLine
   6
CONTINUOUS
  62
8
  10
 320.37164805887
  20
 13.557349188313
  30
0.0
  11
 320.37164805887
  21
 13.497349188313
  31
0.0
   0
ARC
   5
25F
 100
AcDbEntity
   8
LEVEL001
   6
CONTINUOUS
  62
8
 100
AcDbCircle
  10
 320.02664805887
  20
 13.497349188313
  30
0.0
  40
 0.34500000000000
 100
AcDbArc
  50
 270.00000000013
  51
 0.44251195568082E-11
   0
LINE
   5
260
 100
AcDbEntity
   8
LEVEL001
 100
AcDbLine
   6
CONTINUOUS
  62
8
  10
 320.02664805887
  20
 13.152349188313
  30
0.0
  11
 319.73274387821
  21
 13.152349188313
  31
0.0
   0
LINE
   5
261
 100
AcDbEntity
   8
LEVEL001
 100
AcDbLine
   6
CONTINUOUS
  62
8
  10
 318.19328327922
  20
 15.132349188313
  30
0.0
  11
 317.31861731108
  21
 11.868051355549
  31
0.0
   0
ARC
   5
262
 100
AcDbEntity
   8
LEVEL001
   6
CONTINUOUS
  62
8
 100
AcDbCircle
  10
 315.60251464636
  20
 12.555654920340
  30
0.0
  40
 1.8487311914286
 100
AcDbArc
  50
 268.77075588819
  51
 338.16513925632
   0
LINE
   5
263
 100
AcDbEntity
   8
LEVEL001
 100
AcDbLine
   6
CONTINUOUS
  62
8
  10
 315.11828327922
  20
 15.132349188312
  30
0.0
  11
 314.34470916633
  21
 12.245331295576
  31
0.0
   0
ARC
   5
264
 100
AcDbEntity
   8
LEVEL001
   6
CONTINUOUS
  62
8
 100
AcDbCircle
  10
 315.65866926284
  20
 12.032637519797
  30
0.0
  40
 1.3310634009983
 100
AcDbArc
  50
 170.80515514276
  51
 264.66082673521
   0
LINE
   5
265
 100
AcDbEntity
   8
LEVEL001
 100
AcDbLine
   6
CONTINUOUS
  62
8
  10
 316.39328327922
  20
 15.132349188313
  30
0.0
  11
 315.60489774824
  21
 12.190054330755
  31
0.0
   0
ARC
   5
266
 100
AcDbEntity
   8
LEVEL001
   6
CONTINUOUS
  62
8
 100
AcDbCircle
  10
 315.76427550961
  20
 12.147349188313
  30
0.0
  40
 0.16500000000000
 100
AcDbArc
  50
 165.00000000256
  51
 269.99999999013
   0
LINE
   5
267
 100
AcDbEntity
   8
LEVEL001
 100
AcDbLine
   6
CONTINUOUS
  62
8
  10
 315.76427550958
  20
 11.982349188313
  30
0.0
  11
 315.86706503631
  21
 11.982349188313
  31
0.0
   0
ARC
   5
268
 100
AcDbEntity
   8
LEVEL001
   6
CONTINUOUS
  62
8
 100
AcDbCircle
  10
 315.86706503630
  20
 12.252349188293
  30
0.0
  40
 0.27000000000000
 100
AcDbArc
  50
 270.00000000113
  51
 345.00000000440
   0
LINE
   5
269
 100
AcDbEntity
   8
LEVEL001
 100
AcDbLine
   6
CONTINUOUS
  62
8
  10
 316.91828327922
  20
 15.132349188313
  30
0.0
  11
 316.12786500941
  21
 12.182468046135
  31
0.0
   0
LINE
   5
26A
 100
AcDbEntity
   8
LEVEL001
 100
AcDbLine
   6
CONTINUOUS
  62
8
  10
 309.95236188415
  20
 12.634144188312
  30
0.0
  11
 310.26353669538
  21
 10.707349188313
  31
0.0
   0
LINE
   5
26B
 100
AcDbEntity
   8
LEVEL001
 100
AcDbLine
   6
CONTINUOUS
  62
8
  10
 310.29987389395
  20
 10.482349188313
  30
0.0
  11
 310.67535827922
  21
 8.1573491883116
  31
0.0
   0
LINE
   5
26C
 100
AcDbEntity
   8
LEVEL001
 100
AcDbLine
   6
CONTINUOUS
  62
8
  10
 312.42421188415
  20
 12.634144188312
  30
0.0
  11
 312.79449083648
  21
 10.707349188313
  31
0.0
   0
LINE
   5
26D
 100
AcDbEntity
   8
LEVEL001
 100
AcDbLine
   6
CONTINUOUS
  62
8
  10
 312.83772987555
  20
 10.482349188313
  30
0.0
  11
 313.28453327922
  21
 8.1573491883116
  31
0.0
   0
LINE
   5
26E
 100
AcDbEntity
   8
LEVEL001
 100
AcDbLine
   6
CONTINUOUS
  62
8
  10
 310.92377952741
  20
 16.259524188312
  30
0.0
  11
 309.43607871992
  21
 10.707349188313
  31
0.0
   0
LINE
   5
26F
 100
AcDbEntity
   8
LEVEL001
 100
AcDbLine
   6
CONTINUOUS
  62
8
  10
 309.37579015162
  20
 10.482349188313
  30
0.0
  11
 308.75280827922
  21
 8.1573491883130
  31
0.0
   0
LINE
   5
270
 100
AcDbEntity
   8
LEVEL001
 100
AcDbLine
   6
CONTINUOUS
  62
8
  10
 308.58925452741
  20
 16.259524188312
  30
0.0
  11
 307.10155371992
  21
 10.707349188313
  31
0.0
   0
LINE
   5
271
 100
AcDbEntity
   8
LEVEL001
 100
AcDbLine
   6
CONTINUOUS
  62
8
  10
 307.04126515162
  20
 10.482349188313
  30
0.0
  11
 306.41828327922
  21
 8.1573491883130
  31
0.0
   0
LINE
   5
272
 100
AcDbEntity
   8
LEVEL001
 100
AcDbLine
   6
CONTINUOUS
  62
8
  10
 310.26353669538
  20
 10.707349188313
  30
0.0
  11
 309.43607871992
  21
 10.707349188313
  31
0.0
   0
LINE
   5
273
 100
AcDbEntity
   8
LEVEL001
 100
AcDbLine
   6
CONTINUOUS
  62
8
  10
 307.10155371992
  20
 10.707349188313
  30
0.0
  11
 306.19328327922
  21
 10.707349188313
  31
0.0
   0
LINE
   5
274
 100
AcDbEntity
   8
LEVEL001
 100
AcDbLine
   6
CONTINUOUS
  62
8
  10
 306.19328327922
  20
 10.482349188313
  30
0.0
  11
 307.04126515162
  21
 10.482349188313
  31
0.0
   0
LINE
   5
275
 100
AcDbEntity
   8
LEVEL001
 100
AcDbLine
   6
CONTINUOUS
  62
8
  10
 309.37579015162
  20
 10.482349188313
  30
0.0
  11
 310.29987389395
  21
 10.482349188313
  31
0.0
   0
INSERT
   5
276
 100
AcDbEntity
   8
LEVEL001
 100
AcDbBlockReference
   2
BLOCK001
  10
0.0
  20
0.0
  30
0.0
   0
INSERT
   5
277
 100
AcDbEntity
   8
LEVEL001
 100
AcDbBlockReference
   2
BLOCK002
  10
0.0
  20
0.0
  30
0.0
   0
TEXT
   5
278
 100
AcDbEntity
   8
LEVEL001
  62
2
 100
AcDbText
  10
 255.74099535138
  20
 29.923715587671
  30
0.0
  40
 3.8000000000000
   1
／
  41
 0.78947368421053
   7
STANDARD
 100
AcDbText
   0
TEXT
   5
279
 100
AcDbEntity
   8
LEVEL001
  62
2
 100
AcDbText
  10
 268.02853963722
  20
 29.923715587671
  30
0.0
  40
 3.8000000000000
   1
／
  41
 0.78947368421053
   7
STANDARD
 100
AcDbText
   0
LINE
   5
27A
 100
AcDbEntity
   8
LEVEL001
 100
AcDbLine
   6
CONTINUOUS
  62
8
  10
 287.41014305184
  20
 13.368418642621
  30
0.0
  11
 287.41014305184
  21
 10.377820242499
  31
0.0
   0
LINE
   5
27B
 100
AcDbEntity
   8
LEVEL001
 100
AcDbLine
   6
CONTINUOUS
  62
8
  10
 287.41014305184
  20
 10.377820242499
  30
0.0
  11
 293.43848405007
  21
 9.5804222777135
  31
0.0
   0
LINE
   5
27C
 100
AcDbEntity
   8
LEVEL001
 100
AcDbLine
   6
CONTINUOUS
  62
8
  10
 293.43848405007
  20
 9.5804222777135
  30
0.0
  11
 293.43848405007
  21
 14.165816607407
  31
0.0
   0
LINE
   5
27D
 100
AcDbEntity
   8
LEVEL001
 100
AcDbLine
   6
CONTINUOUS
  62
8
  10
 293.43848405007
  20
 14.165816607407
  30
0.0
  11
 287.41014305184
  21
 13.368418642621
  31
0.0
   0
LINE
   5
27E
 100
AcDbEntity
   8
LEVEL001
 100
AcDbLine
   6
CONTINUOUS
  62
8
  10
 25.500000000000
  20
 7.0000000000000
  30
0.0
  11
 25.500000000000
  21
 277.00000000000
  31
0.0
   0
LINE
   5
27F
 100
AcDbEntity
   8
LEVEL001
 100
AcDbLine
   6
CONTINUOUS
  62
8
  10
 25.500000000000
  20
 277.00000000000
  30
0.0
  11
 402.00000000000
  21
 277.00000000000
  31
0.0
   0
LINE
   5
280
 100
AcDbEntity
   8
LEVEL001
 100
AcDbLine
   6
CONTINUOUS
  62
8
  10
 402.00000000000
  20
 7.0000000000000
  30
0.0
  11
 25.500000000000
  21
 7.0000000000000
  31
0.0
   0
LINE
   5
281
 100
AcDbEntity
   8
LEVEL001
 100
AcDbLine
   6
CONTINUOUS
  62
8
  10
 306.19328327922
  20
 10.707349188313
  30
0.0
  11
 305.89328327922
  21
 10.707349188313
  31
0.0
   0
LINE
   5
282
 100
AcDbEntity
   8
LEVEL001
 100
AcDbLine
   6
CONTINUOUS
  62
8
  10
 305.89328327922
  20
 10.707349188313
  30
0.0
  11
 305.89328327922
  21
 10.482349188313
  31
0.0
   0
LINE
   5
283
 100
AcDbEntity
   8
LEVEL001
 100
AcDbLine
   6
CONTINUOUS
  62
8
  10
 305.89328327922
  20
 10.482349188313
  30
0.0
  11
 306.19328327922
  21
 10.482349188313
  31
0.0
   0
LINE
   5
284
 100
AcDbEntity
   8
LEVEL001
 100
AcDbLine
   6
CONTINUOUS
  62
8
  10
 312.83772987555
  20
 10.482349188313
  30
0.0
  11
 330.11828327922
  21
 10.482349188313
  31
0.0
   0
LINE
   5
285
 100
AcDbEntity
   8
LEVEL001
 100
AcDbLine
   6
CONTINUOUS
  62
8
  10
 330.11828327922
  20
 10.482349188313
  30
0.0
  11
 330.11828327922
  21
 10.707349188313
  31
0.0
   0
LINE
   5
286
 100
AcDbEntity
   8
LEVEL001
 100
AcDbLine
   6
CONTINUOUS
  62
8
  10
 330.11828327922
  20
 10.707349188313
  30
0.0
  11
 312.79449083648
  21
 10.707349188313
  31
0.0
   0
TEXT
   5
287
 100
AcDbEntity
   8
LEVEL001
  62
2
 100
AcDbText
  10
 397.35511870750
  20
 23.535167781429
  30
0.0
  40
 4.0000000000000
   1
１ 　
   7
STANDARD
 100
AcDbText
   0
LINE
   5
288
 100
AcDbEntity
   8
LEVEL001
 100
AcDbLine
   6
CONTINUOUS
  62
8
  10
 402.00000000000
  20
 277.00000000000
  30
0.0
  11
 402.00000000000
  21
 7.0000000000000
  31
0.0
   0
LINE
   5
289
 100
AcDbEntity
   8
LEVEL001
 100
AcDbLine
   6
CONTINUOUS
  62
8
  10
 227.41198317335
  20
 37.000000000000
  30
0.0
  11
 227.41198317335
  21
 7.0000000000000
  31
0.0
   0
TEXT
   5
28A
 100
AcDbEntity
   8
LEVEL001
  62
7
 100
AcDbText
  10
 357.31124923161
  20
 22.707736916227
  30
0.0
  40
 5.0000000000000
   1
組立図
  41
 0.80000000000000
   7
STANDARD
 100
AcDbText
   0
TEXT
   5
28B
 100
AcDbEntity
   8
LEVEL001
  62
7
 100
AcDbText
  10
 357.31124923161
  20
 30.207736916227
  30
0.0
  40
 5.0000000000000
   1
表１
  41
 0.80000000000000
   7
STANDARD
 100
AcDbText
   0
TEXT
   5
28C
 100
AcDbEntity
   8
LEVEL001
  62
2
 100
AcDbText
  10
 366.20485691599
  20
 85.101741527363
  30
0.0
  40
 4.0000000000000
   1
１,０５０
  41
 0.87500000000000
   7
STANDARD
 100
AcDbText
   0
TEXT
   5
28D
 100
AcDbEntity
   8
LEVEL001
  62
2
 100
AcDbText
  10
 366.20485691599
  20
 79.101741527363
  30
0.0
  40
 4.0000000000000
   1
１,１００
  41
 0.87500000000000
   7
STANDARD
 100
AcDbText
   0
TEXT
   5
28E
 100
AcDbEntity
   8
LEVEL001
  62
2
 100
AcDbText
  10
 366.20485691599
  20
 73.101741527363
  30
0.0
  40
 4.0000000000000
   1
１,１５０
  41
 0.87500000000000
   7
STANDARD
 100
AcDbText
   0
TEXT
   5
28F
 100
AcDbEntity
   8
LEVEL001
  62
2
 100
AcDbText
  10
 366.20485691599
  20
 67.101741527363
  30
0.0
  40
 4.0000000000000
   1
１,２００
  41
 0.87500000000000
   7
STANDARD
 100
AcDbText
   0
TEXT
   5
290
 100
AcDbEntity
   8
LEVEL001
  62
2
 100
AcDbText
  10
 366.20485691599
  20
 61.101741527363
  30
0.0
  40
 4.0000000000000
   1
１,３００
  41
 0.87500000000000
   7
STANDARD
 100
AcDbText
   0
TEXT
   5
291
 100
AcDbEntity
   8
LEVEL001
  62
2
 100
AcDbText
  10
 366.20485691599
  20
 55.101741527363
  30
0.0
  40
 4.0000000000000
   1
１,４００
  41
 0.87500000000000
   7
STANDARD
 100
AcDbText
   0
TEXT
   5
292
 100
AcDbEntity
   8
LEVEL001
  62
2
 100
AcDbText
  10
 366.20485691599
  20
 49.101741527363
  30
0.0
  40
 4.0000000000000
   1
１,６００
  41
 0.87500000000000
   7
STANDARD
 100
AcDbText
   0
TEXT
   5
293
 100
AcDbEntity
   8
LEVEL001
  62
2
 100
AcDbText
  10
 366.20485691599
  20
 43.101741527363
  30
0.0
  40
 4.0000000000000
   1
１,７５０
  41
 0.87500000000000
   7
STANDARD
 100
AcDbText
   0
ARC
   5
294
 100
AcDbEntity
   8
LEVEL002
   6
CONTINUOUS
  62
7
 100
AcDbCircle
  10
 92.362725337016
  20
 74.997827563884
  30
0.0
  40
 5.0000000000000
 100
AcDbArc
  50
 137.73141557043
  51
 180.00000000000
   0
ARC
   5
295
 100
AcDbEntity
   8
LEVEL002
   6
CONTINUOUS
  62
7
 100
AcDbCircle
  10
 84.962725337016
  20
 81.723896252203
  30
0.0
  40
 5.0000000000000
 100
AcDbArc
  50
 317.73141557043
  51
 0.11399107978365E-11
   0
LINE
   5
296
 100
AcDbEntity
   8
LEVEL002
 100
AcDbLine
   6
CONTINUOUS
  62
7
  10
 87.362725337016
  20
 74.997827563884
  30
0.0
  11
 87.362725337016
  21
 71.997827563884
  31
0.0
   0
ARC
   5
297
 100
AcDbEntity
   8
LEVEL002
   6
CONTINUOUS
  62
7
 100
AcDbCircle
  10
 86.848537677586
  20
 67.685782288544
  30
0.0
  40
 2.0000000000000
 100
AcDbArc
  50
 351.91912652095
  51
 38.025088491587
   0
ARC
   5
298
 100
AcDbEntity
   8
LEVEL002
   6
CONTINUOUS
  62
7
 100
AcDbCircle
  10
 86.438553502477
  20
 68.268995565143
  30
0.0
  40
 2.0000000000000
 100
AcDbArc
  50
 356.20094436031
  51
 32.187407443230
   0
ARC
   5
299
 100
AcDbEntity
   8
LEVEL002
   6
CONTINUOUS
  62
7
 100
AcDbCircle
  10
 92.362725337016
  20
 71.997827563884
  30
0.0
  40
 5.0000000000000
 100
AcDbArc
  50
 180.00000000000
  51
 218.02508849160
   0
ARC
   5
29A
 100
AcDbEntity
   8
LEVEL002
   6
CONTINUOUS
  62
7
 100
AcDbCircle
  10
 88.758101578255
  20
 89.645975712034
  30
0.0
  40
 1.0000000000000
 100
AcDbArc
  50
 2.6597448282572
  51
 89.999999999941
   0
LINE
   5
29B
 100
AcDbEntity
   8
LEVEL002
 100
AcDbLine
   6
CONTINUOUS
  62
7
  10
 95.962725337016
  20
 90.497827563884
  30
0.0
  11
 95.962725337016
  21
 69.497827563884
  31
0.0
   0
ARC
   5
29C
 100
AcDbEntity
   8
LEVEL002
   6
CONTINUOUS
  62
7
 100
AcDbCircle
  10
 94.962725337017
  20
 90.497827563884
  30
0.0
  40
 1.0000000000000
 100
AcDbArc
  50
0.0
  51
 90.000000000021
   0
ARC
   5
29D
 100
AcDbEntity
   8
LEVEL002
   6
CONTINUOUS
  62
7
 100
AcDbCircle
  10
 93.158207175527
  20
 84.264386403534
  30
0.0
  40
 1.0000000000000
 100
AcDbArc
  50
0.0
  51
 90.000000000016
   0
LINE
   5
29E
 100
AcDbEntity
   8
LEVEL002
 100
AcDbLine
   6
CONTINUOUS
  62
7
  10
 90.962725337016
  20
 85.264386403534
  30
0.0
  11
 93.158207175526
  21
 85.264386403534
  31
0.0
   0
ARC
   5
29F
 100
AcDbEntity
   8
LEVEL002
   6
CONTINUOUS
  62
7
 100
AcDbCircle
  10
 90.962725337016
  20
 84.264386403534
  30
0.0
  40
 1.0000000000000
 100
AcDbArc
  50
 90.000000000000
  51
 180.00000000000
   0
LINE
   5
2A0
 100
AcDbEntity
   8
LEVEL002
 100
AcDbLine
   6
CONTINUOUS
  62
7
  10
 89.962725337016
  20
 84.264386403534
  30
0.0
  11
 89.962725337016
  21
 81.723896252204
  31
0.0
   0
LINE
   5
2A1
 100
AcDbEntity
   8
LEVEL002
 100
AcDbLine
   6
CONTINUOUS
  62
7
  10
 89.962725337016
  20
 84.264386403534
  30
0.0
  11
 89.757024302976
  21
 89.692380345844
  31
0.0
   0
ARC
   5
2A2
 100
AcDbEntity
   8
LEVEL002
   6
CONTINUOUS
  62
7
 100
AcDbCircle
  10
 75.462725337016
  20
 68.997827563894
  30
0.0
  40
 13.000000000000
 100
AcDbArc
  50
 270.00000000000
  51
 356.20094436030
   0
ARC
   5
2A3
 100
AcDbEntity
   8
LEVEL002
   6
CONTINUOUS
  62
7
 100
AcDbCircle
  10
 75.462725337016
  20
 69.302345725374
  30
0.0
  40
 13.500000000000
 100
AcDbArc
  50
 270.00000000000
  51
 351.91912652096
   0
ARC
   5
2A4
 100
AcDbEntity
   8
LEVEL002
   6
CONTINUOUS
  62
7
 100
AcDbCircle
  10
 75.462725337016
  20
 69.497827563884
  30
0.0
  40
 20.500000000000
 100
AcDbArc
  50
 270.00000000000
  51
 0.79436292532162E-13
   0
LINE
   5
2A5
 100
AcDbEntity
   8
LEVEL002
 100
AcDbLine
   6
CONTINUOUS
  62
7
  10
 75.462725337016
  20
 90.645975712034
  30
0.0
  11
 88.758101578256
  21
 90.645975712034
  31
0.0
   0
LINE
   5
2A6
 100
AcDbEntity
   8
LEVEL002
 100
AcDbLine
   6
CONTINUOUS
  62
7
  10
 75.462725337016
  20
 91.497827563884
  30
0.0
  11
 94.962725337016
  21
 91.497827563884
  31
0.0
   0
ARC
   5
2A7
 100
AcDbEntity
   8
LEVEL002
   6
CONTINUOUS
  62
7
 100
AcDbCircle
  10
 58.562725337016
  20
 74.997827563884
  30
0.0
  40
 5.0000000000000
 100
AcDbArc
  50
0.0
  51
 42.268584429572
   0
ARC
   5
2A8
 100
AcDbEntity
   8
LEVEL002
   6
CONTINUOUS
  62
7
 100
AcDbCircle
  10
 65.962725337016
  20
 81.723896252204
  30
0.0
  40
 5.0000000000000
 100
AcDbArc
  50
 180.00000000000
  51
 222.26858442957
   0
ARC
   5
2A9
 100
AcDbEntity
   8
LEVEL002
   6
CONTINUOUS
  62
7
 100
AcDbCircle
  10
 62.167349095786
  20
 89.645975712034
  30
0.0
  40
 1.0000000000000
 100
AcDbArc
  50
 90.000000000000
  51
 177.34025517178
   0
LINE
   5
2AA
 100
AcDbEntity
   8
LEVEL002
 100
AcDbLine
   6
CONTINUOUS
  62
7
  10
 54.962725337016
  20
 90.497827563884
  30
0.0
  11
 54.962725337016
  21
 69.497827563884
  31
0.0
   0
ARC
   5
2AB
 100
AcDbEntity
   8
LEVEL002
   6
CONTINUOUS
  62
7
 100
AcDbCircle
  10
 55.962725337016
  20
 90.497827563883
  30
0.0
  40
 1.0000000000000
 100
AcDbArc
  50
 90.000000000000
  51
 179.99999999998
   0
ARC
   5
2AC
 100
AcDbEntity
   8
LEVEL002
   6
CONTINUOUS
  62
7
 100
AcDbCircle
  10
 57.767243498516
  20
 84.264386403533
  30
0.0
  40
 1.0000000000000
 100
AcDbArc
  50
 90.000000000000
  51
 179.99999999998
   0
LINE
   5
2AD
 100
AcDbEntity
   8
LEVEL002
 100
AcDbLine
   6
CONTINUOUS
  62
7
  10
 59.962725337016
  20
 85.264386403534
  30
0.0
  11
 57.767243498516
  21
 85.264386403534
  31
0.0
   0
ARC
   5
2AE
 100
AcDbEntity
   8
LEVEL002
   6
CONTINUOUS
  62
7
 100
AcDbCircle
  10
 59.962725337016
  20
 84.264386403534
  30
0.0
  40
 1.0000000000000
 100
AcDbArc
  50
0.0
  51
 90.000000000003
   0
LINE
   5
2AF
 100
AcDbEntity
   8
LEVEL002
 100
AcDbLine
   6
CONTINUOUS
  62
7
  10
 60.962725337016
  20
 84.264386403534
  30
0.0
  11
 60.962725337016
  21
 81.723896252204
  31
0.0
   0
LINE
   5
2B0
 100
AcDbEntity
   8
LEVEL002
 100
AcDbLine
   6
CONTINUOUS
  62
7
  10
 60.962725337016
  20
 84.264386403534
  30
0.0
  11
 61.168426371066
  21
 89.692380345844
  31
0.0
   0
LINE
   5
2B1
 100
AcDbEntity
   8
LEVEL002
 100
AcDbLine
   6
CONTINUOUS
  62
7
  10
 75.462725337016
  20
 90.645975712034
  30
0.0
  11
 62.167349095786
  21
 90.645975712034
  31
0.0
   0
LINE
   5
2B2
 100
AcDbEntity
   8
LEVEL002
 100
AcDbLine
   6
CONTINUOUS
  62
7
  10
 75.462725337016
  20
 91.497827563884
  30
0.0
  11
 55.962725337016
  21
 91.497827563884
  31
0.0
   0
LINE
   5
2B3
 100
AcDbEntity
   8
LEVEL002
 100
AcDbLine
   6
CONTINUOUS
  62
7
  10
 63.562725337016
  20
 74.997827563884
  30
0.0
  11
 63.562725337016
  21
 71.997827563884
  31
0.0
   0
ARC
   5
2B4
 100
AcDbEntity
   8
LEVEL002
   6
CONTINUOUS
  62
7
 100
AcDbCircle
  10
 64.076912996446
  20
 67.685782288544
  30
0.0
  40
 2.0000000000000
 100
AcDbArc
  50
 141.97491150841
  51
 188.08087347905
   0
ARC
   5
2B5
 100
AcDbEntity
   8
LEVEL002
   6
CONTINUOUS
  62
7
 100
AcDbCircle
  10
 64.486897171566
  20
 68.268995565144
  30
0.0
  40
 2.0000000000000
 100
AcDbArc
  50
 147.81259255679
  51
 183.79905563971
   0
ARC
   5
2B6
 100
AcDbEntity
   8
LEVEL002
   6
CONTINUOUS
  62
7
 100
AcDbCircle
  10
 58.562725337016
  20
 71.997827563884
  30
0.0
  40
 5.0000000000000
 100
AcDbArc
  50
 321.97491150840
  51
0.0
   0
ARC
   5
2B7
 100
AcDbEntity
   8
LEVEL002
   6
CONTINUOUS
  62
7
 100
AcDbCircle
  10
 75.462725337016
  20
 68.997827563894
  30
0.0
  40
 13.000000000000
 100
AcDbArc
  50
 183.79905563970
  51
 270.00000000000
   0
ARC
   5
2B8
 100
AcDbEntity
   8
LEVEL002
   6
CONTINUOUS
  62
7
 100
AcDbCircle
  10
 75.462725337016
  20
 69.302345725374
  30
0.0
  40
 13.500000000000
 100
AcDbArc
  50
 188.08087347904
  51
 270.00000000000
   0
ARC
   5
2B9
 100
AcDbEntity
   8
LEVEL002
   6
CONTINUOUS
  62
7
 100
AcDbCircle
  10
 75.462725337016
  20
 69.497827563884
  30
0.0
  40
 20.500000000000
 100
AcDbArc
  50
 180.00000000000
  51
 270.00000000000
   0
CIRCLE
   5
2BA
 100
AcDbEntity
   8
LEVEL002
 100
AcDbCircle
   6
CONTINUOUS
  62
7
  10
 75.462725337016
  20
 62.497827563883
  30
0.0
  40
 5.2500000000000
   0
CIRCLE
   5
2BB
 100
AcDbEntity
   8
LEVEL002
 100
AcDbCircle
   6
CONTINUOUS
  62
7
  10
 75.462725337016
  20
 62.497827563883
  30
0.0
  40
 2.1000000000000
   0
CIRCLE
   5
2BC
 100
AcDbEntity
   8
LEVEL002
 100
AcDbCircle
   6
CONTINUOUS
  62
7
  10
 75.462725337016
  20
 82.497827563884
  30
0.0
  40
 5.2500000000000
   0
CIRCLE
   5
2BD
 100
AcDbEntity
   8
LEVEL002
 100
AcDbCircle
   6
CONTINUOUS
  62
7
  10
 75.462725337016
  20
 82.497827563884
  30
0.0
  40
 2.1000000000000
   0
ARC
   5
2BE
 100
AcDbEntity
   8
LEVEL002
   6
CONTINUOUS
  62
7
 100
AcDbCircle
  10
 75.462725337016
  20
 69.497827563884
  30
0.0
  40
 18.695481838505
 100
AcDbArc
  50
 180.00000000000
  51
 270.00000000000
   0
LINE
   5
2BF
 100
AcDbEntity
   8
LEVEL002
 100
AcDbLine
   6
CONTINUOUS
  62
7
  10
 56.767243498516
  20
 69.497827563884
  30
0.0
  11
 56.767243498516
  21
 84.264386403534
  31
0.0
   0
LINE
   5
2C0
 100
AcDbEntity
   8
LEVEL002
 100
AcDbLine
   6
CONTINUOUS
  62
7
  10
 94.158207175526
  20
 69.497827563884
  30
0.0
  11
 94.158207175526
  21
 84.264386403534
  31
0.0
   0
ARC
   5
2C1
 100
AcDbEntity
   8
LEVEL002
   6
CONTINUOUS
  62
7
 100
AcDbCircle
  10
 75.462725337016
  20
 69.497827563884
  30
0.0
  40
 18.695481838505
 100
AcDbArc
  50
 270.00000000000
  51
 0.87103612037182E-13
   0
LINE
   5
2C2
 100
AcDbEntity
   8
LEVEL001
 100
AcDbLine
   6
CONTINUOUS
  62
7
  10
 57.767243498516
  20
 85.264386403534
  30
0.0
  11
 55.962725337016
  21
 91.497827563884
  31
0.0
   0
LINE
   5
2C3
 100
AcDbEntity
   8
LEVEL001
 100
AcDbLine
   6
CONTINUOUS
  62
7
  10
 54.962725337016
  20
 90.497827563884
  30
0.0
  11
 56.767243498516
  21
 84.264386403534
  31
0.0
   0
LINE
   5
2C4
 100
AcDbEntity
   8
LEVEL001
 100
AcDbLine
   6
CONTINUOUS
  62
7
  10
 93.158207175516
  20
 85.264386403534
  30
0.0
  11
 94.962725337016
  21
 91.497827563884
  31
0.0
   0
LINE
   5
2C5
 100
AcDbEntity
   8
LEVEL001
 100
AcDbLine
   6
CONTINUOUS
  62
7
  10
 95.962725337016
  20
 90.497827563884
  30
0.0
  11
 94.158207175516
  21
 84.264386403534
  31
0.0
   0
TEXT
   5
2C6
 100
AcDbEntity
   8
LEVEL002
  62
7
 100
AcDbText
  10
 64.056014984537
  20
 31.676651291813
  30
0.0
  40
 5.0000000000000
   1
ブラケット
   7
STANDARD
 100
AcDbText
   0
LINE
   5
2C7
 100
AcDbEntity
   8
LEVEL001
 100
AcDbLine
   6
CONTINUOUS
  62
7
  10
 62.629687239805
  20
 29.089223205878
  30
0.0
  11
 89.711466292890
  21
 29.089223205878
  31
0.0
   0
LINE
   5
2C8
 100
AcDbEntity
   8
LEVEL001
 100
AcDbLine
   6
DASHDOT
  62
3
  10
 82.641116479206
  20
 62.497827563883
  30
0.0
  11
 68.284334194827
  21
 62.497827563883
  31
0.0
   0
LINE
   5
2C9
 100
AcDbEntity
   8
LEVEL001
 100
AcDbLine
   6
DASHDOT
  62
3
  10
 75.462725337016
  20
 145.24962204988
  30
0.0
  11
 75.462725337016
  21
 109.32422533040
  31
0.0
   0
LINE
   5
2CA
 100
AcDbEntity
   8
LEVEL001
 100
AcDbLine
   6
DASHDOT
  62
3
  10
 75.462725337016
  20
 95.252491490340
  30
0.0
  11
 75.462725337016
  21
 43.361530227786
  31
0.0
   0
LINE
   5
2CB
 100
AcDbEntity
   8
LEVEL002
 100
AcDbLine
   6
CONTINUOUS
  62
7
  10
 75.462725337016
  20
 141.49561891059
  30
0.0
  11
 95.962725337016
  21
 141.49561891059
  31
0.0
   0
LINE
   5
2CC
 100
AcDbEntity
   8
LEVEL002
 100
AcDbLine
   6
CONTINUOUS
  62
7
  10
 75.462725337016
  20
 141.49561891059
  30
0.0
  11
 54.962725337016
  21
 141.49561891059
  31
0.0
   0
LINE
   5
2CD
 100
AcDbEntity
   8
LEVEL002
 100
AcDbLine
   6
CONTINUOUS
  62
7
  10
 54.962725337016
  20
 141.49561891059
  30
0.0
  11
 56.700493271056
  21
 115.42909990007
  31
0.0
   0
ARC
   5
2CE
 100
AcDbEntity
   8
LEVEL002
   6
CONTINUOUS
  62
7
 100
AcDbCircle
  10
 57.698278428916
  20
 115.49561891059
  30
0.0
  40
 1.0000000000000
 100
AcDbArc
  50
 183.81407483429
  51
 270.00000000001
   0
LINE
   5
2CF
 100
AcDbEntity
   8
LEVEL002
 100
AcDbLine
   6
CONTINUOUS
  62
7
  10
 57.698278428916
  20
 114.49561891059
  30
0.0
  11
 59.973823772476
  21
 114.49561891059
  31
0.0
   0
LINE
   5
2D0
 100
AcDbEntity
   8
LEVEL002
 100
AcDbLine
   6
CONTINUOUS
  62
7
  10
 61.562725337016
  20
 114.49561891059
  30
0.0
  11
 59.973823772476
  21
 114.49561891059
  31
0.0
   0
LINE
   5
2D1
 100
AcDbEntity
   8
LEVEL002
 100
AcDbLine
   6
CONTINUOUS
  62
7
  10
 61.562725337016
  20
 114.49561891059
  30
0.0
  11
 75.462725337016
  21
 114.49561891059
  31
0.0
   0
LINE
   5
2D2
 100
AcDbEntity
   8
LEVEL002
 100
AcDbLine
   6
CONTINUOUS
  62
3
  10
 56.948006711256
  20
 141.49561891059
  30
0.0
  11
 56.962725337016
  21
 141.48090028483
  31
0.0
   0
LINE
   5
2D3
 100
AcDbEntity
   8
LEVEL002
 100
AcDbLine
   6
DOT
  62
1
  10
 70.712725337016
  20
 139.69561891059
  30
0.0
  11
 75.462725337016
  21
 139.69561891059
  31
0.0
   0
ARC
   5
2D4
 100
AcDbEntity
   8
LEVEL002
   6
DOT
  62
1
 100
AcDbCircle
  10
 70.712725337016
  20
 139.19561891059
  30
0.0
  40
 0.50000000000000
 100
AcDbArc
  50
 90.000000000000
  51
 179.99999999988
   0
LINE
   5
2D5
 100
AcDbEntity
   8
LEVEL002
 100
AcDbLine
   6
DOT
  62
1
  10
 70.212725337016
  20
 137.19561891059
  30
0.0
  11
 70.212725337016
  21
 139.19561891059
  31
0.0
   0
ARC
   5
2D6
 100
AcDbEntity
   8
LEVEL002
   6
DOT
  62
1
 100
AcDbCircle
  10
 69.912725337016
  20
 137.19561891058
  30
0.0
  40
 0.30000000000000
 100
AcDbArc
  50
 270.00000000001
  51
 0.97706639814556E-9
   0
LINE
   5
2D7
 100
AcDbEntity
   8
LEVEL002
 100
AcDbLine
   6
DOT
  62
1
  10
 73.362725337016
  20
 139.69561891059
  30
0.0
  11
 73.362725337016
  21
 141.49561891059
  31
0.0
   0
LINE
   5
2D8
 100
AcDbEntity
   8
LEVEL002
 100
AcDbLine
   6
DOT
  62
1
  10
 77.562725337016
  20
 139.69561891059
  30
0.0
  11
 77.562725337016
  21
 141.49561891059
  31
0.0
   0
LINE
   5
2D9
 100
AcDbEntity
   8
LEVEL002
 100
AcDbLine
   6
DOT
  62
1
  10
 80.712725337016
  20
 137.19561891059
  30
0.0
  11
 80.712725337016
  21
 139.19561891059
  31
0.0
   0
ARC
   5
2DA
 100
AcDbEntity
   8
LEVEL002
   6
DOT
  62
1
 100
AcDbCircle
  10
 80.212725337017
  20
 139.19561891059
  30
0.0
  40
 0.50000000000000
 100
AcDbArc
  50
0.0
  51
 90.000000000127
   0
LINE
   5
2DB
 100
AcDbEntity
   8
LEVEL002
 100
AcDbLine
   6
DOT
  62
1
  10
 80.212725337016
  20
 139.69561891059
  30
0.0
  11
 75.462725337016
  21
 139.69561891059
  31
0.0
   0
ARC
   5
2DC
 100
AcDbEntity
   8
LEVEL002
   6
DOT
  62
1
 100
AcDbCircle
  10
 81.012725337021
  20
 137.19561891059
  30
0.0
  40
 0.30000000000000
 100
AcDbArc
  50
 179.99999999999
  51
 269.99999999903
   0
LINE
   5
2DD
 100
AcDbEntity
   8
LEVEL002
 100
AcDbLine
   6
CONTINUOUS
  62
7
  10
 63.289987501086
  20
 135.89561891059
  30
0.0
  11
 63.289987501086
  21
 116.49561891059
  31
0.0
   0
ARC
   5
2DE
 100
AcDbEntity
   8
LEVEL002
   6
CONTINUOUS
  62
7
 100
AcDbCircle
  10
 61.289987501086
  20
 116.49561891059
  30
0.0
  40
 2.0000000000000
 100
AcDbArc
  50
 270.00000000000
  51
0.0
   0
ARC
   5
2DF
 100
AcDbEntity
   8
LEVEL002
   6
CONTINUOUS
  62
7
 100
AcDbCircle
  10
 64.289987501086
  20
 135.89561891059
  30
0.0
  40
 1.0000000000000
 100
AcDbArc
  50
 90.000000000000
  51
 179.99999999998
   0
ARC
   5
2E0
 100
AcDbEntity
   8
LEVEL002
   6
CONTINUOUS
  62
7
 100
AcDbCircle
  10
 59.701085936540
  20
 115.49561891059
  30
0.0
  40
 1.0000000000000
 100
AcDbArc
  50
 269.99999999999
  51
 359.36056472384
   0
ARC
   5
2E1
 100
AcDbEntity
   8
LEVEL002
   6
CONTINUOUS
  62
7
 100
AcDbCircle
  10
 61.928889065633
  20
 135.89561891059
  30
0.0
  40
 1.0000000000000
 100
AcDbArc
  50
 89.999999999995
  51
 179.36056472394
   0
LINE
   5
2E2
 100
AcDbEntity
   8
LEVEL002
 100
AcDbLine
   6
CONTINUOUS
  62
7
  10
 60.701023661586
  20
 115.48445889134
  30
0.0
  11
 60.928951340587
  21
 135.90677892985
  31
0.0
   0
LINE
   5
2E3
 100
AcDbEntity
   8
LEVEL002
 100
AcDbLine
   6
CONTINUOUS
  62
7
  10
 61.928889065633
  20
 136.89561891059
  30
0.0
  11
 75.462725337016
  21
 136.89561891059
  31
0.0
   0
LINE
   5
2E4
 100
AcDbEntity
   8
LEVEL002
 100
AcDbLine
   6
CONTINUOUS
  62
7
  10
 95.962725337016
  20
 141.49561891059
  30
0.0
  11
 94.224957402976
  21
 115.42909990007
  31
0.0
   0
ARC
   5
2E5
 100
AcDbEntity
   8
LEVEL002
   6
CONTINUOUS
  62
7
 100
AcDbCircle
  10
 93.227172245116
  20
 115.49561891059
  30
0.0
  40
 1.0000000000000
 100
AcDbArc
  50
 270.00000000001
  51
 356.18592516571
   0
LINE
   5
2E6
 100
AcDbEntity
   8
LEVEL002
 100
AcDbLine
   6
CONTINUOUS
  62
7
  10
 93.227172245116
  20
 114.49561891059
  30
0.0
  11
 90.951626901556
  21
 114.49561891059
  31
0.0
   0
LINE
   5
2E7
 100
AcDbEntity
   8
LEVEL002
 100
AcDbLine
   6
CONTINUOUS
  62
7
  10
 89.362725337016
  20
 114.49561891059
  30
0.0
  11
 90.951626901556
  21
 114.49561891059
  31
0.0
   0
LINE
   5
2E8
 100
AcDbEntity
   8
LEVEL002
 100
AcDbLine
   6
CONTINUOUS
  62
7
  10
 89.362725337016
  20
 114.49561891059
  30
0.0
  11
 75.462725337016
  21
 114.49561891059
  31
0.0
   0
LINE
   5
2E9
 100
AcDbEntity
   8
LEVEL002
 100
AcDbLine
   6
CONTINUOUS
  62
7
  10
 87.635463172946
  20
 135.89561891059
  30
0.0
  11
 87.635463172946
  21
 116.49561891059
  31
0.0
   0
ARC
   5
2EA
 100
AcDbEntity
   8
LEVEL002
   6
CONTINUOUS
  62
7
 100
AcDbCircle
  10
 89.635463172946
  20
 116.49561891059
  30
0.0
  40
 2.0000000000000
 100
AcDbArc
  50
 180.00000000000
  51
 270.00000000000
   0
ARC
   5
2EB
 100
AcDbEntity
   8
LEVEL002
   6
CONTINUOUS
  62
7
 100
AcDbCircle
  10
 86.635463172946
  20
 135.89561891059
  30
0.0
  40
 1.0000000000000
 100
AcDbArc
  50
 0.29311991944368E-10
  51
 90.000000000000
   0
ARC
   5
2EC
 100
AcDbEntity
   8
LEVEL002
   6
CONTINUOUS
  62
7
 100
AcDbCircle
  10
 91.224364737493
  20
 115.49561891059
  30
0.0
  40
 1.0000000000000
 100
AcDbArc
  50
 180.63943527616
  51
 270.00000000001
   0
ARC
   5
2ED
 100
AcDbEntity
   8
LEVEL002
   6
CONTINUOUS
  62
7
 100
AcDbCircle
  10
 88.996561608400
  20
 135.89561891059
  30
0.0
  40
 1.0000000000000
 100
AcDbArc
  50
 0.63943527611787
  51
 90.000000000006
   0
LINE
   5
2EE
 100
AcDbEntity
   8
LEVEL002
 100
AcDbLine
   6
CONTINUOUS
  62
7
  10
 90.224427012447
  20
 115.48445889134
  30
0.0
  11
 89.996499333446
  21
 135.90677892985
  31
0.0
   0
LINE
   5
2EF
 100
AcDbEntity
   8
LEVEL002
 100
AcDbLine
   6
CONTINUOUS
  62
7
  10
 88.996561608400
  20
 136.89561891059
  30
0.0
  11
 75.462725337016
  21
 136.89561891059
  31
0.0
   0
DIMENSION
   5
2F0
 100
AcDbEntity
   8
LEVEL001
   6
CONTINUOUS
  62
2
 100
AcDbDimension
   2
*D1
  10
 95.962725337016
  20
 149.68291029984
  30
0.0
  11
 75.462725337016
  21
 149.68291029984
  31
0.0
  70
0
   3
GMM001
 100
AcDbAlignedDimension
  13
 54.962725337016
  23
 141.49561891059
  33
0.0
  14
 95.962725337016
  24
 141.49561891059
  34
0.0
 100
AcDbRotatedDimension
   0
DIMENSION
   5
2F1
 100
AcDbEntity
   8
LEVEL001
   6
CONTINUOUS
  62
2
 100
AcDbDimension
   2
*D2
  10
 109.63908020217
  20
 114.49561891059
  30
0.0
  11
 109.63908020217
  21
 127.99561891059
  31
0.0
  70
0
   3
GMM001
 100
AcDbAlignedDimension
  13
 95.962725337016
  23
 141.49561891059
  33
0.0
  14
 93.227172245116
  24
 114.49561891059
  34
0.0
  50
 270.00000000000
 100
AcDbRotatedDimension
   0
LINE
   5
2F2
 100
AcDbEntity
   8
LEVEL001
 100
AcDbLine
   6
DASHDOT
  62
3
  10
 82.641116479206
  20
 82.497827563884
  30
0.0
  11
 68.284334194827
  21
 82.497827563884
  31
0.0
   0
DIMENSION
   5
2F3
 100
AcDbEntity
   8
LEVEL001
   6
CONTINUOUS
  62
2
 100
AcDbDimension
   2
*D3
  10
 109.63908020217
  20
 82.497827563884
  30
0.0
  11
 109.63908020217
  21
 86.997827563884
  31
0.0
  70
0
   3
GMM001
 100
AcDbAlignedDimension
  13
 94.962725337016
  23
 91.497827563884
  33
0.0
  14
 82.641116479206
  24
 82.497827563884
  34
0.0
  50
 270.00000000000
 100
AcDbRotatedDimension
   0
DIMENSION
   5
2F4
 100
AcDbEntity
   8
LEVEL001
   6
CONTINUOUS
  62
2
 100
AcDbDimension
   2
*D4
  10
 109.63908020217
  20
 62.497827563883
  30
0.0
  11
 109.63908020217
  21
 72.497827563883
  31
0.0
  70
0
   3
GMM001
 100
AcDbAlignedDimension
  13
 82.641116479206
  23
 82.497827563884
  33
0.0
  14
 82.641116479206
  24
 62.497827563883
  34
0.0
  50
 270.00000000000
 100
AcDbRotatedDimension
   0
DIMENSION
   5
2F5
 100
AcDbEntity
   8
LEVEL001
   6
CONTINUOUS
  62
2
 100
AcDbDimension
   2
*D5
  10
 109.63908020217
  20
 62.497827563883
  30
0.0
  11
 109.63908020217
  21
 55.747827563883
  31
0.0
  70
0
   3
GMM001
 100
AcDbAlignedDimension
  13
 75.462725337016
  23
 48.997827563884
  33
0.0
  14
 109.63908020217
  24
 62.497827563883
  34
0.0
  50
 90.000000000000
 100
AcDbRotatedDimension
   0
DIMENSION
   5
2F6
 100
AcDbEntity
   8
LEVEL001
   6
CONTINUOUS
  62
2
 100
AcDbDimension
   2
*D6
  10
 119.87141168309
  20
 91.497827563884
  30
0.0
  11
 119.87141168309
  21
 70.247827563884
  31
0.0
  70
0
   3
GMM001
 100
AcDbAlignedDimension
  13
 111.63908020217
  23
 48.997827563884
  33
0.0
  14
 111.63908020217
  24
 91.497827563884
  34
0.0
  50
 90.000000000000
 100
AcDbRotatedDimension
   0
ARC
   5
2F7
 100
AcDbEntity
   8
LEVEL002
   6
CONTINUOUS
  62
7
 100
AcDbCircle
  10
 213.28787345358
  20
 209.12285159780
  30
0.0
  40
 6.6406250000000
 100
AcDbArc
  50
 314.33269164416
  51
 45.667308355839
   0
ARC
   5
2F8
 100
AcDbEntity
   8
LEVEL002
   6
CONTINUOUS
  62
7
 100
AcDbCircle
  10
 222.56912345358
  20
 209.12285159780
  30
0.0
  40
 6.6406250000000
 100
AcDbArc
  50
 134.33269164416
  51
 225.66730835584
   0
ARC
   5
2F9
 100
AcDbEntity
   8
LEVEL002
   6
CONTINUOUS
  62
7
 100
AcDbCircle
  10
 227.94458569416
  20
 209.12285159780
  30
0.0
  40
 6.6406250000000
 100
AcDbArc
  50
 134.33269164416
  51
 225.66730835584
   0
ARC
   5
2FA
 100
AcDbEntity
   8
LEVEL002
   6
CONTINUOUS
  62
7
 100
AcDbCircle
  10
 213.28787345358
  20
 199.62285159780
  30
0.0
  40
 6.6406250000000
 100
AcDbArc
  50
 314.33269164416
  51
 45.667308355839
   0
ARC
   5
2FB
 100
AcDbEntity
   8
LEVEL002
   6
CONTINUOUS
  62
7
 100
AcDbCircle
  10
 227.94458569416
  20
 199.62285159780
  30
0.0
  40
 6.6406250000000
 100
AcDbArc
  50
 134.33269164416
  51
 225.66730835584
   0
ARC
   5
2FC
 100
AcDbEntity
   8
LEVEL002
   6
CONTINUOUS
  62
7
 100
AcDbCircle
  10
 218.66333569416
  20
 199.62285159780
  30
0.0
  40
 6.6406250000000
 100
AcDbArc
  50
 314.33269164416
  51
 45.667308355836
   0
LINE
   5
2FD
 100
AcDbEntity
   8
LEVEL002
 100
AcDbLine
   6
CONTINUOUS
  62
3
  10
 350.46607129063
  20
 214.17285159780
  30
0.0
  11
 350.75451570968
  21
 214.17285159780
  31
0.0
   0
LINE
   5
2FE
 100
AcDbEntity
   8
LEVEL002
 100
AcDbLine
   6
CONTINUOUS
  62
3
  10
 350.75451570968
  20
 214.17285159780
  30
0.0
  11
 350.75451570968
  21
 223.57285159780
  31
0.0
   0
LINE
   5
2FF
 100
AcDbEntity
   8
LEVEL002
 100
AcDbLine
   6
CONTINUOUS
  62
3
  10
 350.75451570968
  20
 223.57285159780
  30
0.0
  11
 350.46607129063
  21
 223.57285159780
  31
0.0
   0
LINE
   5
300
 100
AcDbEntity
   8
LEVEL002
 100
AcDbLine
   6
CONTINUOUS
  62
3
  10
 350.75451570967
  20
 223.57285159780
  30
0.0
  11
 350.75451570967
  21
 214.17285159780
  31
0.0
   0
LINE
   5
301
 100
AcDbEntity
   8
LEVEL002
 100
AcDbLine
   6
CONTINUOUS
  62
3
  10
 348.28924572393
  20
 219.52285159776
  30
0.0
  11
 348.75451570968
  21
 219.52285159776
  31
0.0
   0
LINE
   5
302
 100
AcDbEntity
   8
LEVEL002
 100
AcDbLine
   6
CONTINUOUS
  62
3
  10
 348.75451570968
  20
 219.52285159776
  30
0.0
  11
 348.75451570968
  21
 218.22285159776
  31
0.0
   0
LINE
   5
303
 100
AcDbEntity
   8
LEVEL002
 100
AcDbLine
   6
CONTINUOUS
  62
3
  10
 348.75451570968
  20
 218.22285159776
  30
0.0
  11
 348.28924572394
  21
 218.22285159776
  31
0.0
   0
ARC
   5
304
 100
AcDbEntity
   8
LEVEL002
   6
CONTINUOUS
  62
3
 100
AcDbCircle
  10
 354.35451570968
  20
 218.87285159780
  30
0.0
  40
 6.1000000000000
 100
AcDbArc
  50
 129.60192708112
  51
 173.88309886056
   0
ARC
   5
305
 100
AcDbEntity
   8
LEVEL002
   6
CONTINUOUS
  62
3
 100
AcDbCircle
  10
 354.35451570968
  20
 218.87285159780
  30
0.0
  40
 6.1000000000000
 100
AcDbArc
  50
 186.11690114012
  51
 230.39807291888
   0
LINE
   5
306
 100
AcDbEntity
   8
LEVEL002
 100
AcDbLine
   6
CONTINUOUS
  62
3
  10
 350.46607129063
  20
 223.57285159780
  30
0.0
  11
 350.46607129063
  21
 214.17285159780
  31
0.0
   0
LINE
   5
307
 100
AcDbEntity
   8
LEVEL002
 100
AcDbLine
   6
CONTINUOUS
  62
3
  10
 350.75451570962
  20
 223.57285159780
  30
0.0
  11
 350.75451570962
  21
 214.17285159780
  31
0.0
   0
LINE
   5
308
 100
AcDbEntity
   8
LEVEL002
 100
AcDbLine
   6
CONTINUOUS
  62
3
  10
 352.75584057484
  20
 217.37285159780
  30
0.0
  11
 353.04451570955
  21
 216.87285159760
  31
0.0
   0
LINE
   5
309
 100
AcDbEntity
   8
LEVEL002
 100
AcDbLine
   6
CONTINUOUS
  62
3
  10
 353.04451570955
  20
 216.87285159760
  30
0.0
  11
 353.33319084426
  21
 217.37285159780
  31
0.0
   0
LINE
   5
30A
 100
AcDbEntity
   8
LEVEL002
 100
AcDbLine
   6
CONTINUOUS
  62
3
  10
 353.54584057490
  20
 220.37285159760
  30
0.0
  11
 353.83451570962
  21
 220.87285159780
  31
0.0
   0
LINE
   5
30B
 100
AcDbEntity
   8
LEVEL002
 100
AcDbLine
   6
CONTINUOUS
  62
3
  10
 353.83451570962
  20
 220.87285159780
  30
0.0
  11
 354.12319084433
  21
 220.37285159760
  31
0.0
   0
LINE
   5
30C
 100
AcDbEntity
   8
LEVEL002
 100
AcDbLine
   6
CONTINUOUS
  62
3
  10
 354.33584057484
  20
 217.37285159780
  30
0.0
  11
 354.62451570955
  21
 216.87285159760
  31
0.0
   0
LINE
   5
30D
 100
AcDbEntity
   8
LEVEL002
 100
AcDbLine
   6
CONTINUOUS
  62
3
  10
 354.62451570955
  20
 216.87285159760
  30
0.0
  11
 354.91319084426
  21
 217.37285159780
  31
0.0
   0
LINE
   5
30E
 100
AcDbEntity
   8
LEVEL002
 100
AcDbLine
   6
CONTINUOUS
  62
3
  10
 355.12584057490
  20
 220.37285159760
  30
0.0
  11
 355.41451570962
  21
 220.87285159780
  31
0.0
   0
LINE
   5
30F
 100
AcDbEntity
   8
LEVEL002
 100
AcDbLine
   6
CONTINUOUS
  62
3
  10
 355.41451570962
  20
 220.87285159780
  30
0.0
  11
 355.70319084433
  21
 220.37285159760
  31
0.0
   0
LINE
   5
310
 100
AcDbEntity
   8
LEVEL002
 100
AcDbLine
   6
CONTINUOUS
  62
3
  10
 355.91584057484
  20
 217.37285159780
  30
0.0
  11
 356.20451570955
  21
 216.87285159760
  31
0.0
   0
LINE
   5
311
 100
AcDbEntity
   8
LEVEL002
 100
AcDbLine
   6
CONTINUOUS
  62
3
  10
 356.20451570955
  20
 216.87285159760
  30
0.0
  11
 356.49319084426
  21
 217.37285159780
  31
0.0
   0
LINE
   5
312
 100
AcDbEntity
   8
LEVEL002
 100
AcDbLine
   6
CONTINUOUS
  62
3
  10
 353.83451570962
  20
 220.87285159780
  30
0.0
  11
 354.62451570955
  21
 216.87285159760
  31
0.0
   0
LINE
   5
313
 100
AcDbEntity
   8
LEVEL002
 100
AcDbLine
   6
CONTINUOUS
  62
3
  10
 355.41451570962
  20
 220.87285159780
  30
0.0
  11
 356.20451570955
  21
 216.87285159760
  31
0.0
   0
LINE
   5
314
 100
AcDbEntity
   8
LEVEL002
 100
AcDbLine
   6
CONTINUOUS
  62
3
  10
 353.54584057490
  20
 220.37285159760
  30
0.0
  11
 354.33584057484
  21
 217.37285159780
  31
0.0
   0
LINE
   5
315
 100
AcDbEntity
   8
LEVEL002
 100
AcDbLine
   6
CONTINUOUS
  62
3
  10
 354.12319084433
  20
 220.37285159760
  30
0.0
  11
 354.91319084426
  21
 217.37285159780
  31
0.0
   0
LINE
   5
316
 100
AcDbEntity
   8
LEVEL002
 100
AcDbLine
   6
CONTINUOUS
  62
3
  10
 355.12584057490
  20
 220.37285159760
  30
0.0
  11
 355.91584057484
  21
 217.37285159780
  31
0.0
   0
LINE
   5
317
 100
AcDbEntity
   8
LEVEL002
 100
AcDbLine
   6
CONTINUOUS
  62
3
  10
 356.49319084426
  20
 217.37285159780
  30
0.0
  11
 355.70319084433
  21
 220.37285159760
  31
0.0
   0
LINE
   5
318
 100
AcDbEntity
   8
LEVEL002
 100
AcDbLine
   6
CONTINUOUS
  62
3
  10
 352.75584057484
  20
 217.37285159780
  30
0.0
  11
 352.80978905468
  21
 218.06134098947
  31
0.0
   0
LINE
   5
319
 100
AcDbEntity
   8
LEVEL002
 100
AcDbLine
   6
CONTINUOUS
  62
3
  10
 352.80978905468
  20
 218.06134098947
  30
0.0
  11
 353.33319084426
  21
 217.37285159780
  31
0.0
   0
LINE
   5
31A
 100
AcDbEntity
   8
LEVEL002
 100
AcDbLine
   6
CONTINUOUS
  62
3
  10
 352.80978905468
  20
 218.06134098947
  30
0.0
  11
 353.04451570955
  21
 216.87285159760
  31
0.0
   0
LINE
   5
31B
 100
AcDbEntity
   8
LEVEL002
 100
AcDbLine
   6
CONTINUOUS
  62
3
  10
 356.99451570962
  20
 220.87285159780
  30
0.0
  11
 357.78451570955
  21
 216.87285159760
  31
0.0
   0
LINE
   5
31C
 100
AcDbEntity
   8
LEVEL002
 100
AcDbLine
   6
CONTINUOUS
  62
3
  10
 358.57451570962
  20
 220.87285159780
  30
0.0
  11
 359.36451570955
  21
 216.87285159760
  31
0.0
   0
LINE
   5
31D
 100
AcDbEntity
   8
LEVEL002
 100
AcDbLine
   6
CONTINUOUS
  62
3
  10
 356.70584057490
  20
 220.37285159760
  30
0.0
  11
 357.49584057484
  21
 217.37285159780
  31
0.0
   0
LINE
   5
31E
 100
AcDbEntity
   8
LEVEL002
 100
AcDbLine
   6
CONTINUOUS
  62
3
  10
 357.28319084433
  20
 220.37285159760
  30
0.0
  11
 358.07319084426
  21
 217.37285159780
  31
0.0
   0
LINE
   5
31F
 100
AcDbEntity
   8
LEVEL002
 100
AcDbLine
   6
CONTINUOUS
  62
3
  10
 358.28584057490
  20
 220.37285159760
  30
0.0
  11
 359.07584057484
  21
 217.37285159780
  31
0.0
   0
LINE
   5
320
 100
AcDbEntity
   8
LEVEL002
 100
AcDbLine
   6
CONTINUOUS
  62
3
  10
 359.65319084426
  20
 217.37285159780
  30
0.0
  11
 358.86319084433
  21
 220.37285159760
  31
0.0
   0
LINE
   5
321
 100
AcDbEntity
   8
LEVEL002
 100
AcDbLine
   6
CONTINUOUS
  62
3
  10
 356.70584057490
  20
 220.37285159760
  30
0.0
  11
 356.99451570962
  21
 220.87285159780
  31
0.0
   0
LINE
   5
322
 100
AcDbEntity
   8
LEVEL002
 100
AcDbLine
   6
CONTINUOUS
  62
3
  10
 356.99451570962
  20
 220.87285159780
  30
0.0
  11
 357.28319084433
  21
 220.37285159760
  31
0.0
   0
LINE
   5
323
 100
AcDbEntity
   8
LEVEL002
 100
AcDbLine
   6
CONTINUOUS
  62
3
  10
 358.28584057490
  20
 220.37285159760
  30
0.0
  11
 358.57451570962
  21
 220.87285159780
  31
0.0
   0
LINE
   5
324
 100
AcDbEntity
   8
LEVEL002
 100
AcDbLine
   6
CONTINUOUS
  62
3
  10
 358.57451570962
  20
 220.87285159780
  30
0.0
  11
 358.86319084433
  21
 220.37285159760
  31
0.0
   0
LINE
   5
325
 100
AcDbEntity
   8
LEVEL002
 100
AcDbLine
   6
CONTINUOUS
  62
3
  10
 357.49584057484
  20
 217.37285159780
  30
0.0
  11
 357.78451570955
  21
 216.87285159760
  31
0.0
   0
LINE
   5
326
 100
AcDbEntity
   8
LEVEL002
 100
AcDbLine
   6
CONTINUOUS
  62
3
  10
 357.78451570955
  20
 216.87285159760
  30
0.0
  11
 358.07319084426
  21
 217.37285159780
  31
0.0
   0
LINE
   5
327
 100
AcDbEntity
   8
LEVEL002
 100
AcDbLine
   6
CONTINUOUS
  62
3
  10
 359.07584057484
  20
 217.37285159780
  30
0.0
  11
 359.36451570955
  21
 216.87285159760
  31
0.0
   0
LINE
   5
328
 100
AcDbEntity
   8
LEVEL002
 100
AcDbLine
   6
CONTINUOUS
  62
3
  10
 359.36451570955
  20
 216.87285159760
  30
0.0
  11
 359.65319084426
  21
 217.37285159780
  31
0.0
   0
LINE
   5
329
 100
AcDbEntity
   8
LEVEL002
 100
AcDbLine
   6
CONTINUOUS
  62
3
  10
 360.15451570962
  20
 220.87285159780
  30
0.0
  11
 360.94451570955
  21
 216.87285159760
  31
0.0
   0
LINE
   5
32A
 100
AcDbEntity
   8
LEVEL002
 100
AcDbLine
   6
CONTINUOUS
  62
3
  10
 361.73451570962
  20
 220.87285159780
  30
0.0
  11
 362.52451570955
  21
 216.87285159760
  31
0.0
   0
LINE
   5
32B
 100
AcDbEntity
   8
LEVEL002
 100
AcDbLine
   6
CONTINUOUS
  62
3
  10
 359.86584057490
  20
 220.37285159760
  30
0.0
  11
 360.65584057484
  21
 217.37285159780
  31
0.0
   0
LINE
   5
32C
 100
AcDbEntity
   8
LEVEL002
 100
AcDbLine
   6
CONTINUOUS
  62
3
  10
 360.44319084433
  20
 220.37285159760
  30
0.0
  11
 361.23319084426
  21
 217.37285159780
  31
0.0
   0
LINE
   5
32D
 100
AcDbEntity
   8
LEVEL002
 100
AcDbLine
   6
CONTINUOUS
  62
3
  10
 361.44584057490
  20
 220.37285159760
  30
0.0
  11
 362.23584057484
  21
 217.37285159780
  31
0.0
   0
LINE
   5
32E
 100
AcDbEntity
   8
LEVEL002
 100
AcDbLine
   6
CONTINUOUS
  62
3
  10
 362.81319084426
  20
 217.37285159780
  30
0.0
  11
 362.02319084433
  21
 220.37285159760
  31
0.0
   0
LINE
   5
32F
 100
AcDbEntity
   8
LEVEL002
 100
AcDbLine
   6
CONTINUOUS
  62
3
  10
 359.86584057490
  20
 220.37285159760
  30
0.0
  11
 360.15451570962
  21
 220.87285159780
  31
0.0
   0
LINE
   5
330
 100
AcDbEntity
   8
LEVEL002
 100
AcDbLine
   6
CONTINUOUS
  62
3
  10
 360.15451570962
  20
 220.87285159780
  30
0.0
  11
 360.44319084433
  21
 220.37285159760
  31
0.0
   0
LINE
   5
331
 100
AcDbEntity
   8
LEVEL002
 100
AcDbLine
   6
CONTINUOUS
  62
3
  10
 361.44584057490
  20
 220.37285159760
  30
0.0
  11
 361.73451570962
  21
 220.87285159780
  31
0.0
   0
LINE
   5
332
 100
AcDbEntity
   8
LEVEL002
 100
AcDbLine
   6
CONTINUOUS
  62
3
  10
 361.73451570962
  20
 220.87285159780
  30
0.0
  11
 362.02319084433
  21
 220.37285159760
  31
0.0
   0
LINE
   5
333
 100
AcDbEntity
   8
LEVEL002
 100
AcDbLine
   6
CONTINUOUS
  62
3
  10
 360.65584057484
  20
 217.37285159780
  30
0.0
  11
 360.94451570955
  21
 216.87285159760
  31
0.0
   0
LINE
   5
334
 100
AcDbEntity
   8
LEVEL002
 100
AcDbLine
   6
CONTINUOUS
  62
3
  10
 360.94451570955
  20
 216.87285159760
  30
0.0
  11
 361.23319084426
  21
 217.37285159780
  31
0.0
   0
LINE
   5
335
 100
AcDbEntity
   8
LEVEL002
 100
AcDbLine
   6
CONTINUOUS
  62
3
  10
 362.23584057484
  20
 217.37285159780
  30
0.0
  11
 362.52451570955
  21
 216.87285159760
  31
0.0
   0
LINE
   5
336
 100
AcDbEntity
   8
LEVEL002
 100
AcDbLine
   6
CONTINUOUS
  62
3
  10
 362.52451570955
  20
 216.87285159760
  30
0.0
  11
 362.81319084426
  21
 217.37285159780
  31
0.0
   0
LINE
   5
337
 100
AcDbEntity
   8
LEVEL002
 100
AcDbLine
   6
CONTINUOUS
  62
3
  10
 363.31451570962
  20
 220.87285159780
  30
0.0
  11
 364.10451570955
  21
 216.87285159760
  31
0.0
   0
LINE
   5
338
 100
AcDbEntity
   8
LEVEL002
 100
AcDbLine
   6
CONTINUOUS
  62
3
  10
 364.89451570962
  20
 220.87285159780
  30
0.0
  11
 365.68451570955
  21
 216.87285159760
  31
0.0
   0
LINE
   5
339
 100
AcDbEntity
   8
LEVEL002
 100
AcDbLine
   6
CONTINUOUS
  62
3
  10
 363.02584057490
  20
 220.37285159760
  30
0.0
  11
 363.81584057484
  21
 217.37285159780
  31
0.0
   0
LINE
   5
33A
 100
AcDbEntity
   8
LEVEL002
 100
AcDbLine
   6
CONTINUOUS
  62
3
  10
 363.60319084433
  20
 220.37285159760
  30
0.0
  11
 364.39319084426
  21
 217.37285159780
  31
0.0
   0
LINE
   5
33B
 100
AcDbEntity
   8
LEVEL002
 100
AcDbLine
   6
CONTINUOUS
  62
3
  10
 364.60584057490
  20
 220.37285159760
  30
0.0
  11
 365.39584057484
  21
 217.37285159780
  31
0.0
   0
LINE
   5
33C
 100
AcDbEntity
   8
LEVEL002
 100
AcDbLine
   6
CONTINUOUS
  62
3
  10
 365.97319084426
  20
 217.37285159780
  30
0.0
  11
 365.18319084433
  21
 220.37285159760
  31
0.0
   0
LINE
   5
33D
 100
AcDbEntity
   8
LEVEL002
 100
AcDbLine
   6
CONTINUOUS
  62
3
  10
 363.02584057490
  20
 220.37285159760
  30
0.0
  11
 363.31451570962
  21
 220.87285159780
  31
0.0
   0
LINE
   5
33E
 100
AcDbEntity
   8
LEVEL002
 100
AcDbLine
   6
CONTINUOUS
  62
3
  10
 363.31451570962
  20
 220.87285159780
  30
0.0
  11
 363.60319084433
  21
 220.37285159760
  31
0.0
   0
LINE
   5
33F
 100
AcDbEntity
   8
LEVEL002
 100
AcDbLine
   6
CONTINUOUS
  62
3
  10
 364.60584057490
  20
 220.37285159760
  30
0.0
  11
 364.89451570962
  21
 220.87285159780
  31
0.0
   0
LINE
   5
340
 100
AcDbEntity
   8
LEVEL002
 100
AcDbLine
   6
CONTINUOUS
  62
3
  10
 364.89451570962
  20
 220.87285159780
  30
0.0
  11
 365.18319084433
  21
 220.37285159760
  31
0.0
   0
LINE
   5
341
 100
AcDbEntity
   8
LEVEL002
 100
AcDbLine
   6
CONTINUOUS
  62
3
  10
 363.81584057484
  20
 217.37285159780
  30
0.0
  11
 364.10451570955
  21
 216.87285159760
  31
0.0
   0
LINE
   5
342
 100
AcDbEntity
   8
LEVEL002
 100
AcDbLine
   6
CONTINUOUS
  62
3
  10
 364.10451570955
  20
 216.87285159760
  30
0.0
  11
 364.39319084426
  21
 217.37285159780
  31
0.0
   0
LINE
   5
343
 100
AcDbEntity
   8
LEVEL002
 100
AcDbLine
   6
CONTINUOUS
  62
3
  10
 365.39584057484
  20
 217.37285159780
  30
0.0
  11
 365.68451570955
  21
 216.87285159760
  31
0.0
   0
LINE
   5
344
 100
AcDbEntity
   8
LEVEL002
 100
AcDbLine
   6
CONTINUOUS
  62
3
  10
 365.68451570955
  20
 216.87285159760
  30
0.0
  11
 365.97319084426
  21
 217.37285159780
  31
0.0
   0
LINE
   5
345
 100
AcDbEntity
   8
LEVEL002
 100
AcDbLine
   6
CONTINUOUS
  62
3
  10
 366.47451570962
  20
 220.87285159780
  30
0.0
  11
 367.26451570955
  21
 216.87285159760
  31
0.0
   0
LINE
   5
346
 100
AcDbEntity
   8
LEVEL002
 100
AcDbLine
   6
CONTINUOUS
  62
3
  10
 368.05451570962
  20
 220.87285159780
  30
0.0
  11
 368.84451570955
  21
 216.87285159760
  31
0.0
   0
LINE
   5
347
 100
AcDbEntity
   8
LEVEL002
 100
AcDbLine
   6
CONTINUOUS
  62
3
  10
 366.18584057490
  20
 220.37285159760
  30
0.0
  11
 366.97584057484
  21
 217.37285159780
  31
0.0
   0
LINE
   5
348
 100
AcDbEntity
   8
LEVEL002
 100
AcDbLine
   6
CONTINUOUS
  62
3
  10
 366.76319084433
  20
 220.37285159760
  30
0.0
  11
 367.55319084426
  21
 217.37285159780
  31
0.0
   0
LINE
   5
349
 100
AcDbEntity
   8
LEVEL002
 100
AcDbLine
   6
CONTINUOUS
  62
3
  10
 367.76584057490
  20
 220.37285159760
  30
0.0
  11
 368.55584057484
  21
 217.37285159780
  31
0.0
   0
LINE
   5
34A
 100
AcDbEntity
   8
LEVEL002
 100
AcDbLine
   6
CONTINUOUS
  62
3
  10
 369.13319084426
  20
 217.37285159780
  30
0.0
  11
 368.34319084433
  21
 220.37285159760
  31
0.0
   0
LINE
   5
34B
 100
AcDbEntity
   8
LEVEL002
 100
AcDbLine
   6
CONTINUOUS
  62
3
  10
 366.18584057490
  20
 220.37285159760
  30
0.0
  11
 366.47451570962
  21
 220.87285159780
  31
0.0
   0
LINE
   5
34C
 100
AcDbEntity
   8
LEVEL002
 100
AcDbLine
   6
CONTINUOUS
  62
3
  10
 366.47451570962
  20
 220.87285159780
  30
0.0
  11
 366.76319084433
  21
 220.37285159760
  31
0.0
   0
LINE
   5
34D
 100
AcDbEntity
   8
LEVEL002
 100
AcDbLine
   6
CONTINUOUS
  62
3
  10
 367.76584057490
  20
 220.37285159760
  30
0.0
  11
 368.05451570962
  21
 220.87285159780
  31
0.0
   0
LINE
   5
34E
 100
AcDbEntity
   8
LEVEL002
 100
AcDbLine
   6
CONTINUOUS
  62
3
  10
 368.05451570962
  20
 220.87285159780
  30
0.0
  11
 368.34319084433
  21
 220.37285159760
  31
0.0
   0
LINE
   5
34F
 100
AcDbEntity
   8
LEVEL002
 100
AcDbLine
   6
CONTINUOUS
  62
3
  10
 366.97584057484
  20
 217.37285159780
  30
0.0
  11
 367.26451570955
  21
 216.87285159760
  31
0.0
   0
LINE
   5
350
 100
AcDbEntity
   8
LEVEL002
 100
AcDbLine
   6
CONTINUOUS
  62
3
  10
 367.26451570955
  20
 216.87285159760
  30
0.0
  11
 367.55319084426
  21
 217.37285159780
  31
0.0
   0
LINE
   5
351
 100
AcDbEntity
   8
LEVEL002
 100
AcDbLine
   6
CONTINUOUS
  62
3
  10
 368.55584057484
  20
 217.37285159780
  30
0.0
  11
 368.84451570955
  21
 216.87285159760
  31
0.0
   0
LINE
   5
352
 100
AcDbEntity
   8
LEVEL002
 100
AcDbLine
   6
CONTINUOUS
  62
3
  10
 368.84451570955
  20
 216.87285159760
  30
0.0
  11
 369.13319084426
  21
 217.37285159780
  31
0.0
   0
LINE
   5
353
 100
AcDbEntity
   8
LEVEL002
 100
AcDbLine
   6
CONTINUOUS
  62
3
  10
 369.63451570962
  20
 220.87285159780
  30
0.0
  11
 370.42451570955
  21
 216.87285159760
  31
0.0
   0
LINE
   5
354
 100
AcDbEntity
   8
LEVEL002
 100
AcDbLine
   6
CONTINUOUS
  62
3
  10
 371.21451570962
  20
 220.87285159780
  30
0.0
  11
 372.00451570955
  21
 216.87285159760
  31
0.0
   0
LINE
   5
355
 100
AcDbEntity
   8
LEVEL002
 100
AcDbLine
   6
CONTINUOUS
  62
3
  10
 369.34584057490
  20
 220.37285159760
  30
0.0
  11
 370.13584057484
  21
 217.37285159780
  31
0.0
   0
LINE
   5
356
 100
AcDbEntity
   8
LEVEL002
 100
AcDbLine
   6
CONTINUOUS
  62
3
  10
 369.92319084433
  20
 220.37285159760
  30
0.0
  11
 370.71319084426
  21
 217.37285159780
  31
0.0
   0
LINE
   5
357
 100
AcDbEntity
   8
LEVEL002
 100
AcDbLine
   6
CONTINUOUS
  62
3
  10
 370.92584057490
  20
 220.37285159760
  30
0.0
  11
 371.71584057484
  21
 217.37285159780
  31
0.0
   0
LINE
   5
358
 100
AcDbEntity
   8
LEVEL002
 100
AcDbLine
   6
CONTINUOUS
  62
3
  10
 372.29319084426
  20
 217.37285159780
  30
0.0
  11
 371.50319084433
  21
 220.37285159760
  31
0.0
   0
LINE
   5
359
 100
AcDbEntity
   8
LEVEL002
 100
AcDbLine
   6
CONTINUOUS
  62
3
  10
 369.34584057490
  20
 220.37285159760
  30
0.0
  11
 369.63451570962
  21
 220.87285159780
  31
0.0
   0
LINE
   5
35A
 100
AcDbEntity
   8
LEVEL002
 100
AcDbLine
   6
CONTINUOUS
  62
3
  10
 369.63451570962
  20
 220.87285159780
  30
0.0
  11
 369.92319084433
  21
 220.37285159760
  31
0.0
   0
LINE
   5
35B
 100
AcDbEntity
   8
LEVEL002
 100
AcDbLine
   6
CONTINUOUS
  62
3
  10
 370.92584057490
  20
 220.37285159760
  30
0.0
  11
 371.21451570962
  21
 220.87285159780
  31
0.0
   0
LINE
   5
35C
 100
AcDbEntity
   8
LEVEL002
 100
AcDbLine
   6
CONTINUOUS
  62
3
  10
 371.21451570962
  20
 220.87285159780
  30
0.0
  11
 371.50319084433
  21
 220.37285159760
  31
0.0
   0
LINE
   5
35D
 100
AcDbEntity
   8
LEVEL002
 100
AcDbLine
   6
CONTINUOUS
  62
3
  10
 370.13584057484
  20
 217.37285159780
  30
0.0
  11
 370.42451570955
  21
 216.87285159760
  31
0.0
   0
LINE
   5
35E
 100
AcDbEntity
   8
LEVEL002
 100
AcDbLine
   6
CONTINUOUS
  62
3
  10
 370.42451570955
  20
 216.87285159760
  30
0.0
  11
 370.71319084426
  21
 217.37285159780
  31
0.0
   0
LINE
   5
35F
 100
AcDbEntity
   8
LEVEL002
 100
AcDbLine
   6
CONTINUOUS
  62
3
  10
 371.71584057484
  20
 217.37285159780
  30
0.0
  11
 372.00451570955
  21
 216.87285159760
  31
0.0
   0
LINE
   5
360
 100
AcDbEntity
   8
LEVEL002
 100
AcDbLine
   6
CONTINUOUS
  62
3
  10
 372.00451570955
  20
 216.87285159760
  30
0.0
  11
 372.29319084426
  21
 217.37285159780
  31
0.0
   0
LINE
   5
361
 100
AcDbEntity
   8
LEVEL002
 100
AcDbLine
   6
CONTINUOUS
  62
3
  10
 372.79451570962
  20
 220.87285159780
  30
0.0
  11
 373.58451570955
  21
 216.87285159760
  31
0.0
   0
LINE
   5
362
 100
AcDbEntity
   8
LEVEL002
 100
AcDbLine
   6
CONTINUOUS
  62
3
  10
 374.37451570962
  20
 220.87285159780
  30
0.0
  11
 375.16451570955
  21
 216.87285159760
  31
0.0
   0
LINE
   5
363
 100
AcDbEntity
   8
LEVEL002
 100
AcDbLine
   6
CONTINUOUS
  62
3
  10
 372.50584057490
  20
 220.37285159760
  30
0.0
  11
 373.29584057484
  21
 217.37285159780
  31
0.0
   0
LINE
   5
364
 100
AcDbEntity
   8
LEVEL002
 100
AcDbLine
   6
CONTINUOUS
  62
3
  10
 373.08319084433
  20
 220.37285159760
  30
0.0
  11
 373.87319084426
  21
 217.37285159780
  31
0.0
   0
LINE
   5
365
 100
AcDbEntity
   8
LEVEL002
 100
AcDbLine
   6
CONTINUOUS
  62
3
  10
 374.08584057490
  20
 220.37285159760
  30
0.0
  11
 374.87584057484
  21
 217.37285159780
  31
0.0
   0
LINE
   5
366
 100
AcDbEntity
   8
LEVEL002
 100
AcDbLine
   6
CONTINUOUS
  62
3
  10
 375.45319084426
  20
 217.37285159780
  30
0.0
  11
 374.66319084433
  21
 220.37285159760
  31
0.0
   0
LINE
   5
367
 100
AcDbEntity
   8
LEVEL002
 100
AcDbLine
   6
CONTINUOUS
  62
3
  10
 372.50584057490
  20
 220.37285159760
  30
0.0
  11
 372.79451570962
  21
 220.87285159780
  31
0.0
   0
LINE
   5
368
 100
AcDbEntity
   8
LEVEL002
 100
AcDbLine
   6
CONTINUOUS
  62
3
  10
 372.79451570962
  20
 220.87285159780
  30
0.0
  11
 373.08319084433
  21
 220.37285159760
  31
0.0
   0
LINE
   5
369
 100
AcDbEntity
   8
LEVEL002
 100
AcDbLine
   6
CONTINUOUS
  62
3
  10
 374.08584057490
  20
 220.37285159760
  30
0.0
  11
 374.37451570962
  21
 220.87285159780
  31
0.0
   0
LINE
   5
36A
 100
AcDbEntity
   8
LEVEL002
 100
AcDbLine
   6
CONTINUOUS
  62
3
  10
 374.37451570962
  20
 220.87285159780
  30
0.0
  11
 374.66319084433
  21
 220.37285159760
  31
0.0
   0
LINE
   5
36B
 100
AcDbEntity
   8
LEVEL002
 100
AcDbLine
   6
CONTINUOUS
  62
3
  10
 373.29584057484
  20
 217.37285159780
  30
0.0
  11
 373.58451570955
  21
 216.87285159760
  31
0.0
   0
LINE
   5
36C
 100
AcDbEntity
   8
LEVEL002
 100
AcDbLine
   6
CONTINUOUS
  62
3
  10
 373.58451570955
  20
 216.87285159760
  30
0.0
  11
 373.87319084426
  21
 217.37285159780
  31
0.0
   0
LINE
   5
36D
 100
AcDbEntity
   8
LEVEL002
 100
AcDbLine
   6
CONTINUOUS
  62
3
  10
 374.87584057484
  20
 217.37285159780
  30
0.0
  11
 375.16451570955
  21
 216.87285159760
  31
0.0
   0
LINE
   5
36E
 100
AcDbEntity
   8
LEVEL002
 100
AcDbLine
   6
CONTINUOUS
  62
3
  10
 375.16451570955
  20
 216.87285159760
  30
0.0
  11
 375.45319084426
  21
 217.37285159780
  31
0.0
   0
ARC
   5
36F
 100
AcDbEntity
   8
LEVEL002
   6
CONTINUOUS
  62
3
 100
AcDbCircle
  10
 379.93723072007
  20
 218.87285159780
  30
0.0
  40
 0.30000000000000
 100
AcDbArc
  50
 290.40101745000
  51
 69.598982550189
   0
ARC
   5
370
 100
AcDbEntity
   8
LEVEL002
   6
CONTINUOUS
  62
3
 100
AcDbCircle
  10
 373.26772065490
  20
 200.94005419893
  30
0.0
  40
 19.432892804231
 100
AcDbArc
  50
 87.573684573595
  51
 89.820462377238
   0
LINE
   5
371
 100
AcDbEntity
   8
LEVEL002
 100
AcDbLine
   6
CONTINUOUS
  62
3
  10
 373.08319084421
  20
 220.37285159780
  30
0.0
  11
 373.32861396498
  21
 220.37285159780
  31
0.0
   0
LINE
   5
372
 100
AcDbEntity
   8
LEVEL002
 100
AcDbLine
   6
CONTINUOUS
  62
3
  10
 371.50319084421
  20
 220.37285159780
  30
0.0
  11
 372.50584057502
  21
 220.37285159780
  31
0.0
   0
LINE
   5
373
 100
AcDbEntity
   8
LEVEL002
 100
AcDbLine
   6
CONTINUOUS
  62
3
  10
 369.92319084421
  20
 220.37285159780
  30
0.0
  11
 370.92584057502
  21
 220.37285159780
  31
0.0
   0
LINE
   5
374
 100
AcDbEntity
   8
LEVEL002
 100
AcDbLine
   6
CONTINUOUS
  62
3
  10
 370.71319084426
  20
 217.37285159780
  30
0.0
  11
 371.71584057484
  21
 217.37285159780
  31
0.0
   0
LINE
   5
375
 100
AcDbEntity
   8
LEVEL002
 100
AcDbLine
   6
CONTINUOUS
  62
3
  10
 372.29319084426
  20
 217.37285159780
  30
0.0
  11
 373.32861396498
  21
 217.37285159780
  31
0.0
   0
ARC
   5
376
 100
AcDbEntity
   8
LEVEL002
   6
CONTINUOUS
  62
3
 100
AcDbCircle
  10
 373.26772065489
  20
 236.80564899667
  30
0.0
  40
 19.432892804231
 100
AcDbArc
  50
 271.77825661983
  51
 274.69604797276
   0
LINE
   5
377
 100
AcDbEntity
   8
LEVEL002
 100
AcDbLine
   6
CONTINUOUS
  62
3
  10
 368.34319084421
  20
 220.37285159780
  30
0.0
  11
 369.34584057502
  21
 220.37285159780
  31
0.0
   0
LINE
   5
378
 100
AcDbEntity
   8
LEVEL002
 100
AcDbLine
   6
CONTINUOUS
  62
3
  10
 366.76319084421
  20
 220.37285159780
  30
0.0
  11
 367.76584057502
  21
 220.37285159780
  31
0.0
   0
LINE
   5
379
 100
AcDbEntity
   8
LEVEL002
 100
AcDbLine
   6
CONTINUOUS
  62
3
  10
 365.18319084421
  20
 220.37285159780
  30
0.0
  11
 366.18584057502
  21
 220.37285159780
  31
0.0
   0
LINE
   5
37A
 100
AcDbEntity
   8
LEVEL002
 100
AcDbLine
   6
CONTINUOUS
  62
3
  10
 369.13319084426
  20
 217.37285159780
  30
0.0
  11
 370.13584057484
  21
 217.37285159780
  31
0.0
   0
LINE
   5
37B
 100
AcDbEntity
   8
LEVEL002
 100
AcDbLine
   6
CONTINUOUS
  62
3
  10
 367.55319084426
  20
 217.37285159780
  30
0.0
  11
 368.55584057484
  21
 217.37285159780
  31
0.0
   0
LINE
   5
37C
 100
AcDbEntity
   8
LEVEL002
 100
AcDbLine
   6
CONTINUOUS
  62
3
  10
 365.97319084426
  20
 217.37285159780
  30
0.0
  11
 366.97584057484
  21
 217.37285159780
  31
0.0
   0
LINE
   5
37D
 100
AcDbEntity
   8
LEVEL002
 100
AcDbLine
   6
CONTINUOUS
  62
3
  10
 364.39319084426
  20
 217.37285159780
  30
0.0
  11
 365.39584057484
  21
 217.37285159780
  31
0.0
   0
LINE
   5
37E
 100
AcDbEntity
   8
LEVEL002
 100
AcDbLine
   6
CONTINUOUS
  62
3
  10
 362.81319084426
  20
 217.37285159780
  30
0.0
  11
 363.81584057484
  21
 217.37285159780
  31
0.0
   0
LINE
   5
37F
 100
AcDbEntity
   8
LEVEL002
 100
AcDbLine
   6
CONTINUOUS
  62
3
  10
 361.23319084426
  20
 217.37285159780
  30
0.0
  11
 362.23584057484
  21
 217.37285159780
  31
0.0
   0
LINE
   5
380
 100
AcDbEntity
   8
LEVEL002
 100
AcDbLine
   6
CONTINUOUS
  62
3
  10
 363.60319084421
  20
 220.37285159780
  30
0.0
  11
 364.60584057502
  21
 220.37285159780
  31
0.0
   0
LINE
   5
381
 100
AcDbEntity
   8
LEVEL002
 100
AcDbLine
   6
CONTINUOUS
  62
3
  10
 362.02319084421
  20
 220.37285159780
  30
0.0
  11
 363.02584057502
  21
 220.37285159780
  31
0.0
   0
LINE
   5
382
 100
AcDbEntity
   8
LEVEL002
 100
AcDbLine
   6
CONTINUOUS
  62
3
  10
 360.44319084421
  20
 220.37285159780
  30
0.0
  11
 361.44584057502
  21
 220.37285159780
  31
0.0
   0
LINE
   5
383
 100
AcDbEntity
   8
LEVEL002
 100
AcDbLine
   6
CONTINUOUS
  62
3
  10
 358.86319084421
  20
 220.37285159780
  30
0.0
  11
 359.86584057502
  21
 220.37285159780
  31
0.0
   0
LINE
   5
384
 100
AcDbEntity
   8
LEVEL002
 100
AcDbLine
   6
CONTINUOUS
  62
3
  10
 357.28319084421
  20
 220.37285159780
  30
0.0
  11
 358.28584057502
  21
 220.37285159780
  31
0.0
   0
LINE
   5
385
 100
AcDbEntity
   8
LEVEL002
 100
AcDbLine
   6
CONTINUOUS
  62
3
  10
 359.65319084426
  20
 217.37285159780
  30
0.0
  11
 360.65584057484
  21
 217.37285159780
  31
0.0
   0
LINE
   5
386
 100
AcDbEntity
   8
LEVEL002
 100
AcDbLine
   6
CONTINUOUS
  62
3
  10
 358.07319084426
  20
 217.37285159780
  30
0.0
  11
 359.07584057484
  21
 217.37285159780
  31
0.0
   0
LINE
   5
387
 100
AcDbEntity
   8
LEVEL002
 100
AcDbLine
   6
CONTINUOUS
  62
3
  10
 356.49319084426
  20
 217.37285159780
  30
0.0
  11
 357.49584057484
  21
 217.37285159780
  31
0.0
   0
LINE
   5
388
 100
AcDbEntity
   8
LEVEL002
 100
AcDbLine
   6
CONTINUOUS
  62
3
  10
 354.91319084426
  20
 217.37285159780
  30
0.0
  11
 355.91584057484
  21
 217.37285159780
  31
0.0
   0
LINE
   5
389
 100
AcDbEntity
   8
LEVEL002
 100
AcDbLine
   6
CONTINUOUS
  62
3
  10
 353.33319084426
  20
 217.37285159780
  30
0.0
  11
 354.33584057484
  21
 217.37285159780
  31
0.0
   0
LINE
   5
38A
 100
AcDbEntity
   8
LEVEL002
 100
AcDbLine
   6
CONTINUOUS
  62
3
  10
 350.75451570968
  20
 217.37285159780
  30
0.0
  11
 352.75584057484
  21
 217.37285159780
  31
0.0
   0
LINE
   5
38B
 100
AcDbEntity
   8
LEVEL002
 100
AcDbLine
   6
CONTINUOUS
  62
3
  10
 355.70319084427
  20
 220.37285159780
  30
0.0
  11
 356.70584057502
  21
 220.37285159780
  31
0.0
   0
LINE
   5
38C
 100
AcDbEntity
   8
LEVEL002
 100
AcDbLine
   6
CONTINUOUS
  62
3
  10
 354.12319084427
  20
 220.37285159780
  30
0.0
  11
 355.12584057485
  21
 220.37285159780
  31
0.0
   0
LINE
   5
38D
 100
AcDbEntity
   8
LEVEL002
 100
AcDbLine
   6
CONTINUOUS
  62
3
  10
 350.75451570968
  20
 220.37285159780
  30
0.0
  11
 353.54584057485
  21
 220.37285159780
  31
0.0
   0
LINE
   5
38E
 100
AcDbEntity
   8
LEVEL002
 100
AcDbLine
   6
CONTINUOUS
  62
3
  10
 377.37363207483
  20
 219.72580602845
  30
0.0
  11
 377.66230720954
  21
 220.22580602866
  31
0.0
   0
LINE
   5
38F
 100
AcDbEntity
   8
LEVEL002
 100
AcDbLine
   6
CONTINUOUS
  62
3
  10
 377.66230720954
  20
 220.22580602866
  30
0.0
  11
 377.95098234425
  21
 219.72580602845
  31
0.0
   0
LINE
   5
390
 100
AcDbEntity
   8
LEVEL002
 100
AcDbLine
   6
CONTINUOUS
  62
3
  10
 375.71503954114
  20
 220.12374290805
  30
0.0
  11
 376.00371467585
  21
 220.62374290826
  31
0.0
   0
LINE
   5
391
 100
AcDbEntity
   8
LEVEL002
 100
AcDbLine
   6
CONTINUOUS
  62
3
  10
 376.00371467585
  20
 220.62374290826
  30
0.0
  11
 376.29238981056
  21
 220.12374290805
  31
0.0
   0
LINE
   5
392
 100
AcDbEntity
   8
LEVEL002
 100
AcDbLine
   6
CONTINUOUS
  62
3
  10
 377.88387134804
  20
 218.14231603741
  30
0.0
  11
 378.17254648275
  21
 217.64231603721
  31
0.0
   0
LINE
   5
393
 100
AcDbEntity
   8
LEVEL002
 100
AcDbLine
   6
CONTINUOUS
  62
3
  10
 378.17254648275
  20
 217.64231603721
  30
0.0
  11
 378.46122161747
  21
 218.14231603741
  31
0.0
   0
LINE
   5
394
 100
AcDbEntity
   8
LEVEL002
 100
AcDbLine
   6
CONTINUOUS
  62
3
  10
 377.66230720954
  20
 220.22580602866
  30
0.0
  11
 378.17254648275
  21
 217.64231603721
  31
0.0
   0
LINE
   5
395
 100
AcDbEntity
   8
LEVEL002
 100
AcDbLine
   6
CONTINUOUS
  62
3
  10
 377.37363207483
  20
 219.72580602845
  30
0.0
  11
 377.88387134804
  21
 218.14231603741
  31
0.0
   0
LINE
   5
396
 100
AcDbEntity
   8
LEVEL002
 100
AcDbLine
   6
CONTINUOUS
  62
3
  10
 378.46122161747
  20
 218.14231603741
  30
0.0
  11
 377.95098234425
  21
 219.72580602845
  31
0.0
   0
LINE
   5
397
 100
AcDbEntity
   8
LEVEL002
 100
AcDbLine
   6
CONTINUOUS
  62
3
  10
 376.38198210444
  20
 217.74681853660
  30
0.0
  11
 376.67065723915
  21
 217.24681853640
  31
0.0
   0
LINE
   5
398
 100
AcDbEntity
   8
LEVEL002
 100
AcDbLine
   6
CONTINUOUS
  62
3
  10
 376.67065723915
  20
 217.24681853640
  30
0.0
  11
 376.95933237386
  21
 217.74681853660
  31
0.0
   0
LINE
   5
399
 100
AcDbEntity
   8
LEVEL002
 100
AcDbLine
   6
CONTINUOUS
  62
3
  10
 376.00371467585
  20
 220.62374290826
  30
0.0
  11
 376.67065723915
  21
 217.24681853640
  31
0.0
   0
LINE
   5
39A
 100
AcDbEntity
   8
LEVEL002
 100
AcDbLine
   6
CONTINUOUS
  62
3
  10
 375.71503954114
  20
 220.12374290805
  30
0.0
  11
 376.38198210444
  21
 217.74681853660
  31
0.0
   0
LINE
   5
39B
 100
AcDbEntity
   8
LEVEL002
 100
AcDbLine
   6
CONTINUOUS
  62
3
  10
 376.29238981056
  20
 220.12374290805
  30
0.0
  11
 376.95933237386
  21
 217.74681853660
  31
0.0
   0
ARC
   5
39C
 100
AcDbEntity
   8
LEVEL002
   6
CONTINUOUS
  62
3
 100
AcDbCircle
  10
 373.26772065490
  20
 236.80564899667
  30
0.0
  40
 19.432892804231
 100
AcDbArc
  50
 285.36912183053
  51
 290.40101745057
   0
ARC
   5
39D
 100
AcDbEntity
   8
LEVEL002
   6
CONTINUOUS
  62
3
 100
AcDbCircle
  10
 373.26772065491
  20
 236.80564899667
  30
0.0
  40
 19.432892804231
 100
AcDbArc
  50
 280.91145635715
  51
 284.06890367745
   0
ARC
   5
39E
 100
AcDbEntity
   8
LEVEL002
   6
CONTINUOUS
  62
3
 100
AcDbCircle
  10
 373.26772065491
  20
 236.80564899667
  30
0.0
  40
 19.432892804231
 100
AcDbArc
  50
 276.36380310185
  51
 279.41548149648
   0
ARC
   5
39F
 100
AcDbEntity
   8
LEVEL002
   6
CONTINUOUS
  62
3
 100
AcDbCircle
  10
 373.26772065491
  20
 200.94005419893
  30
0.0
  40
 19.432892804231
 100
AcDbArc
  50
 69.598982549440
  51
 76.206717786156
   0
ARC
   5
3A0
 100
AcDbEntity
   8
LEVEL002
   6
CONTINUOUS
  62
3
 100
AcDbCircle
  10
 373.26772065490
  20
 200.94005419893
  30
0.0
  40
 19.432892804231
 100
AcDbArc
  50
 77.479809934337
  51
 81.069132374817
   0
ARC
   5
3A1
 100
AcDbEntity
   8
LEVEL002
   6
CONTINUOUS
  62
3
 100
AcDbCircle
  10
 373.26772065489
  20
 200.94005419893
  30
0.0
  40
 19.432892804231
 100
AcDbArc
  50
 82.614161977934
  51
 85.842326840402
   0
LINE
   5
3A2
 100
AcDbEntity
   8
LEVEL002
 100
AcDbLine
   6
CONTINUOUS
  62
3
  10
 350.46607129063
  20
 194.17285159780
  30
0.0
  11
 350.75451570968
  21
 194.17285159780
  31
0.0
   0
LINE
   5
3A3
 100
AcDbEntity
   8
LEVEL002
 100
AcDbLine
   6
CONTINUOUS
  62
3
  10
 350.75451570968
  20
 194.17285159780
  30
0.0
  11
 350.75451570968
  21
 203.57285159780
  31
0.0
   0
LINE
   5
3A4
 100
AcDbEntity
   8
LEVEL002
 100
AcDbLine
   6
CONTINUOUS
  62
3
  10
 350.75451570968
  20
 203.57285159780
  30
0.0
  11
 350.46607129063
  21
 203.57285159780
  31
0.0
   0
LINE
   5
3A5
 100
AcDbEntity
   8
LEVEL002
 100
AcDbLine
   6
CONTINUOUS
  62
3
  10
 350.75451570967
  20
 203.57285159780
  30
0.0
  11
 350.75451570967
  21
 194.17285159780
  31
0.0
   0
LINE
   5
3A6
 100
AcDbEntity
   8
LEVEL002
 100
AcDbLine
   6
CONTINUOUS
  62
3
  10
 348.28924572393
  20
 199.52285159776
  30
0.0
  11
 348.75451570968
  21
 199.52285159776
  31
0.0
   0
LINE
   5
3A7
 100
AcDbEntity
   8
LEVEL002
 100
AcDbLine
   6
CONTINUOUS
  62
3
  10
 348.75451570968
  20
 199.52285159776
  30
0.0
  11
 348.75451570968
  21
 198.22285159776
  31
0.0
   0
LINE
   5
3A8
 100
AcDbEntity
   8
LEVEL002
 100
AcDbLine
   6
CONTINUOUS
  62
3
  10
 348.75451570968
  20
 198.22285159776
  30
0.0
  11
 348.28924572394
  21
 198.22285159776
  31
0.0
   0
ARC
   5
3A9
 100
AcDbEntity
   8
LEVEL002
   6
CONTINUOUS
  62
3
 100
AcDbCircle
  10
 354.35451570968
  20
 198.87285159780
  30
0.0
  40
 6.1000000000000
 100
AcDbArc
  50
 129.60192708112
  51
 173.88309886056
   0
ARC
   5
3AA
 100
AcDbEntity
   8
LEVEL002
   6
CONTINUOUS
  62
3
 100
AcDbCircle
  10
 354.35451570968
  20
 198.87285159780
  30
0.0
  40
 6.1000000000000
 100
AcDbArc
  50
 186.11690114012
  51
 230.39807291888
   0
LINE
   5
3AB
 100
AcDbEntity
   8
LEVEL002
 100
AcDbLine
   6
CONTINUOUS
  62
3
  10
 350.46607129063
  20
 203.57285159780
  30
0.0
  11
 350.46607129063
  21
 194.17285159780
  31
0.0
   0
LINE
   5
3AC
 100
AcDbEntity
   8
LEVEL002
 100
AcDbLine
   6
CONTINUOUS
  62
3
  10
 350.75451570962
  20
 203.57285159780
  30
0.0
  11
 350.75451570962
  21
 194.17285159780
  31
0.0
   0
LINE
   5
3AD
 100
AcDbEntity
   8
LEVEL002
 100
AcDbLine
   6
CONTINUOUS
  62
3
  10
 352.75584057484
  20
 197.37285159780
  30
0.0
  11
 353.04451570955
  21
 196.87285159760
  31
0.0
   0
LINE
   5
3AE
 100
AcDbEntity
   8
LEVEL002
 100
AcDbLine
   6
CONTINUOUS
  62
3
  10
 353.04451570955
  20
 196.87285159760
  30
0.0
  11
 353.33319084426
  21
 197.37285159780
  31
0.0
   0
LINE
   5
3AF
 100
AcDbEntity
   8
LEVEL002
 100
AcDbLine
   6
CONTINUOUS
  62
3
  10
 353.54584057490
  20
 200.37285159760
  30
0.0
  11
 353.83451570962
  21
 200.87285159780
  31
0.0
   0
LINE
   5
3B0
 100
AcDbEntity
   8
LEVEL002
 100
AcDbLine
   6
CONTINUOUS
  62
3
  10
 353.83451570962
  20
 200.87285159780
  30
0.0
  11
 354.12319084433
  21
 200.37285159760
  31
0.0
   0
LINE
   5
3B1
 100
AcDbEntity
   8
LEVEL002
 100
AcDbLine
   6
CONTINUOUS
  62
3
  10
 354.33584057484
  20
 197.37285159780
  30
0.0
  11
 354.62451570955
  21
 196.87285159760
  31
0.0
   0
LINE
   5
3B2
 100
AcDbEntity
   8
LEVEL002
 100
AcDbLine
   6
CONTINUOUS
  62
3
  10
 354.62451570955
  20
 196.87285159760
  30
0.0
  11
 354.91319084426
  21
 197.37285159780
  31
0.0
   0
LINE
   5
3B3
 100
AcDbEntity
   8
LEVEL002
 100
AcDbLine
   6
CONTINUOUS
  62
3
  10
 355.12584057490
  20
 200.37285159760
  30
0.0
  11
 355.41451570962
  21
 200.87285159780
  31
0.0
   0
LINE
   5
3B4
 100
AcDbEntity
   8
LEVEL002
 100
AcDbLine
   6
CONTINUOUS
  62
3
  10
 355.41451570962
  20
 200.87285159780
  30
0.0
  11
 355.70319084433
  21
 200.37285159760
  31
0.0
   0
LINE
   5
3B5
 100
AcDbEntity
   8
LEVEL002
 100
AcDbLine
   6
CONTINUOUS
  62
3
  10
 355.91584057484
  20
 197.37285159780
  30
0.0
  11
 356.20451570955
  21
 196.87285159760
  31
0.0
   0
LINE
   5
3B6
 100
AcDbEntity
   8
LEVEL002
 100
AcDbLine
   6
CONTINUOUS
  62
3
  10
 356.20451570955
  20
 196.87285159760
  30
0.0
  11
 356.49319084426
  21
 197.37285159780
  31
0.0
   0
LINE
   5
3B7
 100
AcDbEntity
   8
LEVEL002
 100
AcDbLine
   6
CONTINUOUS
  62
3
  10
 353.83451570962
  20
 200.87285159780
  30
0.0
  11
 354.62451570955
  21
 196.87285159760
  31
0.0
   0
LINE
   5
3B8
 100
AcDbEntity
   8
LEVEL002
 100
AcDbLine
   6
CONTINUOUS
  62
3
  10
 355.41451570962
  20
 200.87285159780
  30
0.0
  11
 356.20451570955
  21
 196.87285159760
  31
0.0
   0
LINE
   5
3B9
 100
AcDbEntity
   8
LEVEL002
 100
AcDbLine
   6
CONTINUOUS
  62
3
  10
 353.54584057490
  20
 200.37285159760
  30
0.0
  11
 354.33584057484
  21
 197.37285159780
  31
0.0
   0
LINE
   5
3BA
 100
AcDbEntity
   8
LEVEL002
 100
AcDbLine
   6
CONTINUOUS
  62
3
  10
 354.12319084433
  20
 200.37285159760
  30
0.0
  11
 354.91319084426
  21
 197.37285159780
  31
0.0
   0
LINE
   5
3BB
 100
AcDbEntity
   8
LEVEL002
 100
AcDbLine
   6
CONTINUOUS
  62
3
  10
 355.12584057490
  20
 200.37285159760
  30
0.0
  11
 355.91584057484
  21
 197.37285159780
  31
0.0
   0
LINE
   5
3BC
 100
AcDbEntity
   8
LEVEL002
 100
AcDbLine
   6
CONTINUOUS
  62
3
  10
 356.49319084426
  20
 197.37285159780
  30
0.0
  11
 355.70319084433
  21
 200.37285159760
  31
0.0
   0
LINE
   5
3BD
 100
AcDbEntity
   8
LEVEL002
 100
AcDbLine
   6
CONTINUOUS
  62
3
  10
 352.75584057484
  20
 197.37285159780
  30
0.0
  11
 352.80978905468
  21
 198.06134098947
  31
0.0
   0
LINE
   5
3BE
 100
AcDbEntity
   8
LEVEL002
 100
AcDbLine
   6
CONTINUOUS
  62
3
  10
 352.80978905468
  20
 198.06134098947
  30
0.0
  11
 353.33319084426
  21
 197.37285159780
  31
0.0
   0
LINE
   5
3BF
 100
AcDbEntity
   8
LEVEL002
 100
AcDbLine
   6
CONTINUOUS
  62
3
  10
 352.80978905468
  20
 198.06134098947
  30
0.0
  11
 353.04451570955
  21
 196.87285159760
  31
0.0
   0
LINE
   5
3C0
 100
AcDbEntity
   8
LEVEL002
 100
AcDbLine
   6
CONTINUOUS
  62
3
  10
 356.99451570962
  20
 200.87285159780
  30
0.0
  11
 357.78451570955
  21
 196.87285159760
  31
0.0
   0
LINE
   5
3C1
 100
AcDbEntity
   8
LEVEL002
 100
AcDbLine
   6
CONTINUOUS
  62
3
  10
 358.57451570962
  20
 200.87285159780
  30
0.0
  11
 359.36451570955
  21
 196.87285159760
  31
0.0
   0
LINE
   5
3C2
 100
AcDbEntity
   8
LEVEL002
 100
AcDbLine
   6
CONTINUOUS
  62
3
  10
 356.70584057490
  20
 200.37285159760
  30
0.0
  11
 357.49584057484
  21
 197.37285159780
  31
0.0
   0
LINE
   5
3C3
 100
AcDbEntity
   8
LEVEL002
 100
AcDbLine
   6
CONTINUOUS
  62
3
  10
 357.28319084433
  20
 200.37285159760
  30
0.0
  11
 358.07319084426
  21
 197.37285159780
  31
0.0
   0
LINE
   5
3C4
 100
AcDbEntity
   8
LEVEL002
 100
AcDbLine
   6
CONTINUOUS
  62
3
  10
 358.28584057490
  20
 200.37285159760
  30
0.0
  11
 359.07584057484
  21
 197.37285159780
  31
0.0
   0
LINE
   5
3C5
 100
AcDbEntity
   8
LEVEL002
 100
AcDbLine
   6
CONTINUOUS
  62
3
  10
 359.65319084426
  20
 197.37285159780
  30
0.0
  11
 358.86319084433
  21
 200.37285159760
  31
0.0
   0
LINE
   5
3C6
 100
AcDbEntity
   8
LEVEL002
 100
AcDbLine
   6
CONTINUOUS
  62
3
  10
 356.70584057490
  20
 200.37285159760
  30
0.0
  11
 356.99451570962
  21
 200.87285159780
  31
0.0
   0
LINE
   5
3C7
 100
AcDbEntity
   8
LEVEL002
 100
AcDbLine
   6
CONTINUOUS
  62
3
  10
 356.99451570962
  20
 200.87285159780
  30
0.0
  11
 357.28319084433
  21
 200.37285159760
  31
0.0
   0
LINE
   5
3C8
 100
AcDbEntity
   8
LEVEL002
 100
AcDbLine
   6
CONTINUOUS
  62
3
  10
 358.28584057490
  20
 200.37285159760
  30
0.0
  11
 358.57451570962
  21
 200.87285159780
  31
0.0
   0
LINE
   5
3C9
 100
AcDbEntity
   8
LEVEL002
 100
AcDbLine
   6
CONTINUOUS
  62
3
  10
 358.57451570962
  20
 200.87285159780
  30
0.0
  11
 358.86319084433
  21
 200.37285159760
  31
0.0
   0
LINE
   5
3CA
 100
AcDbEntity
   8
LEVEL002
 100
AcDbLine
   6
CONTINUOUS
  62
3
  10
 357.49584057484
  20
 197.37285159780
  30
0.0
  11
 357.78451570955
  21
 196.87285159760
  31
0.0
   0
LINE
   5
3CB
 100
AcDbEntity
   8
LEVEL002
 100
AcDbLine
   6
CONTINUOUS
  62
3
  10
 357.78451570955
  20
 196.87285159760
  30
0.0
  11
 358.07319084426
  21
 197.37285159780
  31
0.0
   0
LINE
   5
3CC
 100
AcDbEntity
   8
LEVEL002
 100
AcDbLine
   6
CONTINUOUS
  62
3
  10
 359.07584057484
  20
 197.37285159780
  30
0.0
  11
 359.36451570955
  21
 196.87285159760
  31
0.0
   0
LINE
   5
3CD
 100
AcDbEntity
   8
LEVEL002
 100
AcDbLine
   6
CONTINUOUS
  62
3
  10
 359.36451570955
  20
 196.87285159760
  30
0.0
  11
 359.65319084426
  21
 197.37285159780
  31
0.0
   0
LINE
   5
3CE
 100
AcDbEntity
   8
LEVEL002
 100
AcDbLine
   6
CONTINUOUS
  62
3
  10
 360.15451570962
  20
 200.87285159780
  30
0.0
  11
 360.94451570955
  21
 196.87285159760
  31
0.0
   0
LINE
   5
3CF
 100
AcDbEntity
   8
LEVEL002
 100
AcDbLine
   6
CONTINUOUS
  62
3
  10
 361.73451570962
  20
 200.87285159780
  30
0.0
  11
 362.52451570955
  21
 196.87285159760
  31
0.0
   0
LINE
   5
3D0
 100
AcDbEntity
   8
LEVEL002
 100
AcDbLine
   6
CONTINUOUS
  62
3
  10
 359.86584057490
  20
 200.37285159760
  30
0.0
  11
 360.65584057484
  21
 197.37285159780
  31
0.0
   0
LINE
   5
3D1
 100
AcDbEntity
   8
LEVEL002
 100
AcDbLine
   6
CONTINUOUS
  62
3
  10
 360.44319084433
  20
 200.37285159760
  30
0.0
  11
 361.23319084426
  21
 197.37285159780
  31
0.0
   0
LINE
   5
3D2
 100
AcDbEntity
   8
LEVEL002
 100
AcDbLine
   6
CONTINUOUS
  62
3
  10
 361.44584057490
  20
 200.37285159760
  30
0.0
  11
 362.23584057484
  21
 197.37285159780
  31
0.0
   0
LINE
   5
3D3
 100
AcDbEntity
   8
LEVEL002
 100
AcDbLine
   6
CONTINUOUS
  62
3
  10
 362.81319084426
  20
 197.37285159780
  30
0.0
  11
 362.02319084433
  21
 200.37285159760
  31
0.0
   0
LINE
   5
3D4
 100
AcDbEntity
   8
LEVEL002
 100
AcDbLine
   6
CONTINUOUS
  62
3
  10
 359.86584057490
  20
 200.37285159760
  30
0.0
  11
 360.15451570962
  21
 200.87285159780
  31
0.0
   0
LINE
   5
3D5
 100
AcDbEntity
   8
LEVEL002
 100
AcDbLine
   6
CONTINUOUS
  62
3
  10
 360.15451570962
  20
 200.87285159780
  30
0.0
  11
 360.44319084433
  21
 200.37285159760
  31
0.0
   0
LINE
   5
3D6
 100
AcDbEntity
   8
LEVEL002
 100
AcDbLine
   6
CONTINUOUS
  62
3
  10
 361.44584057490
  20
 200.37285159760
  30
0.0
  11
 361.73451570962
  21
 200.87285159780
  31
0.0
   0
LINE
   5
3D7
 100
AcDbEntity
   8
LEVEL002
 100
AcDbLine
   6
CONTINUOUS
  62
3
  10
 361.73451570962
  20
 200.87285159780
  30
0.0
  11
 362.02319084433
  21
 200.37285159760
  31
0.0
   0
LINE
   5
3D8
 100
AcDbEntity
   8
LEVEL002
 100
AcDbLine
   6
CONTINUOUS
  62
3
  10
 360.65584057484
  20
 197.37285159780
  30
0.0
  11
 360.94451570955
  21
 196.87285159760
  31
0.0
   0
LINE
   5
3D9
 100
AcDbEntity
   8
LEVEL002
 100
AcDbLine
   6
CONTINUOUS
  62
3
  10
 360.94451570955
  20
 196.87285159760
  30
0.0
  11
 361.23319084426
  21
 197.37285159780
  31
0.0
   0
LINE
   5
3DA
 100
AcDbEntity
   8
LEVEL002
 100
AcDbLine
   6
CONTINUOUS
  62
3
  10
 362.23584057484
  20
 197.37285159780
  30
0.0
  11
 362.52451570955
  21
 196.87285159760
  31
0.0
   0
LINE
   5
3DB
 100
AcDbEntity
   8
LEVEL002
 100
AcDbLine
   6
CONTINUOUS
  62
3
  10
 362.52451570955
  20
 196.87285159760
  30
0.0
  11
 362.81319084426
  21
 197.37285159780
  31
0.0
   0
LINE
   5
3DC
 100
AcDbEntity
   8
LEVEL002
 100
AcDbLine
   6
CONTINUOUS
  62
3
  10
 363.31451570962
  20
 200.87285159780
  30
0.0
  11
 364.10451570955
  21
 196.87285159760
  31
0.0
   0
LINE
   5
3DD
 100
AcDbEntity
   8
LEVEL002
 100
AcDbLine
   6
CONTINUOUS
  62
3
  10
 364.89451570962
  20
 200.87285159780
  30
0.0
  11
 365.68451570955
  21
 196.87285159760
  31
0.0
   0
LINE
   5
3DE
 100
AcDbEntity
   8
LEVEL002
 100
AcDbLine
   6
CONTINUOUS
  62
3
  10
 363.02584057490
  20
 200.37285159760
  30
0.0
  11
 363.81584057484
  21
 197.37285159780
  31
0.0
   0
LINE
   5
3DF
 100
AcDbEntity
   8
LEVEL002
 100
AcDbLine
   6
CONTINUOUS
  62
3
  10
 363.60319084433
  20
 200.37285159760
  30
0.0
  11
 364.39319084426
  21
 197.37285159780
  31
0.0
   0
LINE
   5
3E0
 100
AcDbEntity
   8
LEVEL002
 100
AcDbLine
   6
CONTINUOUS
  62
3
  10
 364.60584057490
  20
 200.37285159760
  30
0.0
  11
 365.39584057484
  21
 197.37285159780
  31
0.0
   0
LINE
   5
3E1
 100
AcDbEntity
   8
LEVEL002
 100
AcDbLine
   6
CONTINUOUS
  62
3
  10
 365.97319084426
  20
 197.37285159780
  30
0.0
  11
 365.18319084433
  21
 200.37285159760
  31
0.0
   0
LINE
   5
3E2
 100
AcDbEntity
   8
LEVEL002
 100
AcDbLine
   6
CONTINUOUS
  62
3
  10
 363.02584057490
  20
 200.37285159760
  30
0.0
  11
 363.31451570962
  21
 200.87285159780
  31
0.0
   0
LINE
   5
3E3
 100
AcDbEntity
   8
LEVEL002
 100
AcDbLine
   6
CONTINUOUS
  62
3
  10
 363.31451570962
  20
 200.87285159780
  30
0.0
  11
 363.60319084433
  21
 200.37285159760
  31
0.0
   0
LINE
   5
3E4
 100
AcDbEntity
   8
LEVEL002
 100
AcDbLine
   6
CONTINUOUS
  62
3
  10
 364.60584057490
  20
 200.37285159760
  30
0.0
  11
 364.89451570962
  21
 200.87285159780
  31
0.0
   0
LINE
   5
3E5
 100
AcDbEntity
   8
LEVEL002
 100
AcDbLine
   6
CONTINUOUS
  62
3
  10
 364.89451570962
  20
 200.87285159780
  30
0.0
  11
 365.18319084433
  21
 200.37285159760
  31
0.0
   0
LINE
   5
3E6
 100
AcDbEntity
   8
LEVEL002
 100
AcDbLine
   6
CONTINUOUS
  62
3
  10
 363.81584057484
  20
 197.37285159780
  30
0.0
  11
 364.10451570955
  21
 196.87285159760
  31
0.0
   0
LINE
   5
3E7
 100
AcDbEntity
   8
LEVEL002
 100
AcDbLine
   6
CONTINUOUS
  62
3
  10
 364.10451570955
  20
 196.87285159760
  30
0.0
  11
 364.39319084426
  21
 197.37285159780
  31
0.0
   0
LINE
   5
3E8
 100
AcDbEntity
   8
LEVEL002
 100
AcDbLine
   6
CONTINUOUS
  62
3
  10
 365.39584057484
  20
 197.37285159780
  30
0.0
  11
 365.68451570955
  21
 196.87285159760
  31
0.0
   0
LINE
   5
3E9
 100
AcDbEntity
   8
LEVEL002
 100
AcDbLine
   6
CONTINUOUS
  62
3
  10
 365.68451570955
  20
 196.87285159760
  30
0.0
  11
 365.97319084426
  21
 197.37285159780
  31
0.0
   0
LINE
   5
3EA
 100
AcDbEntity
   8
LEVEL002
 100
AcDbLine
   6
CONTINUOUS
  62
3
  10
 366.47451570962
  20
 200.87285159780
  30
0.0
  11
 367.26451570955
  21
 196.87285159760
  31
0.0
   0
LINE
   5
3EB
 100
AcDbEntity
   8
LEVEL002
 100
AcDbLine
   6
CONTINUOUS
  62
3
  10
 368.05451570962
  20
 200.87285159780
  30
0.0
  11
 368.84451570955
  21
 196.87285159760
  31
0.0
   0
LINE
   5
3EC
 100
AcDbEntity
   8
LEVEL002
 100
AcDbLine
   6
CONTINUOUS
  62
3
  10
 366.18584057490
  20
 200.37285159760
  30
0.0
  11
 366.97584057484
  21
 197.37285159780
  31
0.0
   0
LINE
   5
3ED
 100
AcDbEntity
   8
LEVEL002
 100
AcDbLine
   6
CONTINUOUS
  62
3
  10
 366.76319084433
  20
 200.37285159760
  30
0.0
  11
 367.55319084426
  21
 197.37285159780
  31
0.0
   0
LINE
   5
3EE
 100
AcDbEntity
   8
LEVEL002
 100
AcDbLine
   6
CONTINUOUS
  62
3
  10
 367.76584057490
  20
 200.37285159760
  30
0.0
  11
 368.55584057484
  21
 197.37285159780
  31
0.0
   0
LINE
   5
3EF
 100
AcDbEntity
   8
LEVEL002
 100
AcDbLine
   6
CONTINUOUS
  62
3
  10
 369.13319084426
  20
 197.37285159780
  30
0.0
  11
 368.34319084433
  21
 200.37285159760
  31
0.0
   0
LINE
   5
3F0
 100
AcDbEntity
   8
LEVEL002
 100
AcDbLine
   6
CONTINUOUS
  62
3
  10
 366.18584057490
  20
 200.37285159760
  30
0.0
  11
 366.47451570962
  21
 200.87285159780
  31
0.0
   0
LINE
   5
3F1
 100
AcDbEntity
   8
LEVEL002
 100
AcDbLine
   6
CONTINUOUS
  62
3
  10
 366.47451570962
  20
 200.87285159780
  30
0.0
  11
 366.76319084433
  21
 200.37285159760
  31
0.0
   0
LINE
   5
3F2
 100
AcDbEntity
   8
LEVEL002
 100
AcDbLine
   6
CONTINUOUS
  62
3
  10
 367.76584057490
  20
 200.37285159760
  30
0.0
  11
 368.05451570962
  21
 200.87285159780
  31
0.0
   0
LINE
   5
3F3
 100
AcDbEntity
   8
LEVEL002
 100
AcDbLine
   6
CONTINUOUS
  62
3
  10
 368.05451570962
  20
 200.87285159780
  30
0.0
  11
 368.34319084433
  21
 200.37285159760
  31
0.0
   0
LINE
   5
3F4
 100
AcDbEntity
   8
LEVEL002
 100
AcDbLine
   6
CONTINUOUS
  62
3
  10
 366.97584057484
  20
 197.37285159780
  30
0.0
  11
 367.26451570955
  21
 196.87285159760
  31
0.0
   0
LINE
   5
3F5
 100
AcDbEntity
   8
LEVEL002
 100
AcDbLine
   6
CONTINUOUS
  62
3
  10
 367.26451570955
  20
 196.87285159760
  30
0.0
  11
 367.55319084426
  21
 197.37285159780
  31
0.0
   0
LINE
   5
3F6
 100
AcDbEntity
   8
LEVEL002
 100
AcDbLine
   6
CONTINUOUS
  62
3
  10
 368.55584057484
  20
 197.37285159780
  30
0.0
  11
 368.84451570955
  21
 196.87285159760
  31
0.0
   0
LINE
   5
3F7
 100
AcDbEntity
   8
LEVEL002
 100
AcDbLine
   6
CONTINUOUS
  62
3
  10
 368.84451570955
  20
 196.87285159760
  30
0.0
  11
 369.13319084426
  21
 197.37285159780
  31
0.0
   0
LINE
   5
3F8
 100
AcDbEntity
   8
LEVEL002
 100
AcDbLine
   6
CONTINUOUS
  62
3
  10
 369.63451570962
  20
 200.87285159780
  30
0.0
  11
 370.42451570955
  21
 196.87285159760
  31
0.0
   0
LINE
   5
3F9
 100
AcDbEntity
   8
LEVEL002
 100
AcDbLine
   6
CONTINUOUS
  62
3
  10
 371.21451570962
  20
 200.87285159780
  30
0.0
  11
 372.00451570955
  21
 196.87285159760
  31
0.0
   0
LINE
   5
3FA
 100
AcDbEntity
   8
LEVEL002
 100
AcDbLine
   6
CONTINUOUS
  62
3
  10
 369.34584057490
  20
 200.37285159760
  30
0.0
  11
 370.13584057484
  21
 197.37285159780
  31
0.0
   0
LINE
   5
3FB
 100
AcDbEntity
   8
LEVEL002
 100
AcDbLine
   6
CONTINUOUS
  62
3
  10
 369.92319084433
  20
 200.37285159760
  30
0.0
  11
 370.71319084426
  21
 197.37285159780
  31
0.0
   0
LINE
   5
3FC
 100
AcDbEntity
   8
LEVEL002
 100
AcDbLine
   6
CONTINUOUS
  62
3
  10
 370.92584057490
  20
 200.37285159760
  30
0.0
  11
 371.71584057484
  21
 197.37285159780
  31
0.0
   0
LINE
   5
3FD
 100
AcDbEntity
   8
LEVEL002
 100
AcDbLine
   6
CONTINUOUS
  62
3
  10
 372.29319084426
  20
 197.37285159780
  30
0.0
  11
 371.50319084433
  21
 200.37285159760
  31
0.0
   0
LINE
   5
3FE
 100
AcDbEntity
   8
LEVEL002
 100
AcDbLine
   6
CONTINUOUS
  62
3
  10
 369.34584057490
  20
 200.37285159760
  30
0.0
  11
 369.63451570962
  21
 200.87285159780
  31
0.0
   0
LINE
   5
3FF
 100
AcDbEntity
   8
LEVEL002
 100
AcDbLine
   6
CONTINUOUS
  62
3
  10
 369.63451570962
  20
 200.87285159780
  30
0.0
  11
 369.92319084433
  21
 200.37285159760
  31
0.0
   0
LINE
   5
400
 100
AcDbEntity
   8
LEVEL002
 100
AcDbLine
   6
CONTINUOUS
  62
3
  10
 370.92584057490
  20
 200.37285159760
  30
0.0
  11
 371.21451570962
  21
 200.87285159780
  31
0.0
   0
LINE
   5
401
 100
AcDbEntity
   8
LEVEL002
 100
AcDbLine
   6
CONTINUOUS
  62
3
  10
 371.21451570962
  20
 200.87285159780
  30
0.0
  11
 371.50319084433
  21
 200.37285159760
  31
0.0
   0
LINE
   5
402
 100
AcDbEntity
   8
LEVEL002
 100
AcDbLine
   6
CONTINUOUS
  62
3
  10
 370.13584057484
  20
 197.37285159780
  30
0.0
  11
 370.42451570955
  21
 196.87285159760
  31
0.0
   0
LINE
   5
403
 100
AcDbEntity
   8
LEVEL002
 100
AcDbLine
   6
CONTINUOUS
  62
3
  10
 370.42451570955
  20
 196.87285159760
  30
0.0
  11
 370.71319084426
  21
 197.37285159780
  31
0.0
   0
LINE
   5
404
 100
AcDbEntity
   8
LEVEL002
 100
AcDbLine
   6
CONTINUOUS
  62
3
  10
 371.71584057484
  20
 197.37285159780
  30
0.0
  11
 372.00451570955
  21
 196.87285159760
  31
0.0
   0
LINE
   5
405
 100
AcDbEntity
   8
LEVEL002
 100
AcDbLine
   6
CONTINUOUS
  62
3
  10
 372.00451570955
  20
 196.87285159760
  30
0.0
  11
 372.29319084426
  21
 197.37285159780
  31
0.0
   0
LINE
   5
406
 100
AcDbEntity
   8
LEVEL002
 100
AcDbLine
   6
CONTINUOUS
  62
3
  10
 372.79451570962
  20
 200.87285159780
  30
0.0
  11
 373.58451570955
  21
 196.87285159760
  31
0.0
   0
LINE
   5
407
 100
AcDbEntity
   8
LEVEL002
 100
AcDbLine
   6
CONTINUOUS
  62
3
  10
 374.37451570962
  20
 200.87285159780
  30
0.0
  11
 375.16451570955
  21
 196.87285159760
  31
0.0
   0
LINE
   5
408
 100
AcDbEntity
   8
LEVEL002
 100
AcDbLine
   6
CONTINUOUS
  62
3
  10
 372.50584057490
  20
 200.37285159760
  30
0.0
  11
 373.29584057484
  21
 197.37285159780
  31
0.0
   0
LINE
   5
409
 100
AcDbEntity
   8
LEVEL002
 100
AcDbLine
   6
CONTINUOUS
  62
3
  10
 373.08319084433
  20
 200.37285159760
  30
0.0
  11
 373.87319084426
  21
 197.37285159780
  31
0.0
   0
LINE
   5
40A
 100
AcDbEntity
   8
LEVEL002
 100
AcDbLine
   6
CONTINUOUS
  62
3
  10
 374.08584057490
  20
 200.37285159760
  30
0.0
  11
 374.87584057484
  21
 197.37285159780
  31
0.0
   0
LINE
   5
40B
 100
AcDbEntity
   8
LEVEL002
 100
AcDbLine
   6
CONTINUOUS
  62
3
  10
 375.45319084426
  20
 197.37285159780
  30
0.0
  11
 374.66319084433
  21
 200.37285159760
  31
0.0
   0
LINE
   5
40C
 100
AcDbEntity
   8
LEVEL002
 100
AcDbLine
   6
CONTINUOUS
  62
3
  10
 372.50584057490
  20
 200.37285159760
  30
0.0
  11
 372.79451570962
  21
 200.87285159780
  31
0.0
   0
LINE
   5
40D
 100
AcDbEntity
   8
LEVEL002
 100
AcDbLine
   6
CONTINUOUS
  62
3
  10
 372.79451570962
  20
 200.87285159780
  30
0.0
  11
 373.08319084433
  21
 200.37285159760
  31
0.0
   0
LINE
   5
40E
 100
AcDbEntity
   8
LEVEL002
 100
AcDbLine
   6
CONTINUOUS
  62
3
  10
 374.08584057490
  20
 200.37285159760
  30
0.0
  11
 374.37451570962
  21
 200.87285159780
  31
0.0
   0
LINE
   5
40F
 100
AcDbEntity
   8
LEVEL002
 100
AcDbLine
   6
CONTINUOUS
  62
3
  10
 374.37451570962
  20
 200.87285159780
  30
0.0
  11
 374.66319084433
  21
 200.37285159760
  31
0.0
   0
LINE
   5
410
 100
AcDbEntity
   8
LEVEL002
 100
AcDbLine
   6
CONTINUOUS
  62
3
  10
 373.29584057484
  20
 197.37285159780
  30
0.0
  11
 373.58451570955
  21
 196.87285159760
  31
0.0
   0
LINE
   5
411
 100
AcDbEntity
   8
LEVEL002
 100
AcDbLine
   6
CONTINUOUS
  62
3
  10
 373.58451570955
  20
 196.87285159760
  30
0.0
  11
 373.87319084426
  21
 197.37285159780
  31
0.0
   0
LINE
   5
412
 100
AcDbEntity
   8
LEVEL002
 100
AcDbLine
   6
CONTINUOUS
  62
3
  10
 374.87584057484
  20
 197.37285159780
  30
0.0
  11
 375.16451570955
  21
 196.87285159760
  31
0.0
   0
LINE
   5
413
 100
AcDbEntity
   8
LEVEL002
 100
AcDbLine
   6
CONTINUOUS
  62
3
  10
 375.16451570955
  20
 196.87285159760
  30
0.0
  11
 375.45319084426
  21
 197.37285159780
  31
0.0
   0
ARC
   5
414
 100
AcDbEntity
   8
LEVEL002
   6
CONTINUOUS
  62
3
 100
AcDbCircle
  10
 379.93723072007
  20
 198.87285159780
  30
0.0
  40
 0.30000000000000
 100
AcDbArc
  50
 290.40101744932
  51
 69.598982551080
   0
ARC
   5
415
 100
AcDbEntity
   8
LEVEL002
   6
CONTINUOUS
  62
3
 100
AcDbCircle
  10
 373.26772065490
  20
 180.94005419893
  30
0.0
  40
 19.432892804231
 100
AcDbArc
  50
 87.573684573590
  51
 89.820462377233
   0
LINE
   5
416
 100
AcDbEntity
   8
LEVEL002
 100
AcDbLine
   6
CONTINUOUS
  62
3
  10
 373.08319084421
  20
 200.37285159780
  30
0.0
  11
 373.32861396498
  21
 200.37285159780
  31
0.0
   0
LINE
   5
417
 100
AcDbEntity
   8
LEVEL002
 100
AcDbLine
   6
CONTINUOUS
  62
3
  10
 371.50319084421
  20
 200.37285159780
  30
0.0
  11
 372.50584057502
  21
 200.37285159780
  31
0.0
   0
LINE
   5
418
 100
AcDbEntity
   8
LEVEL002
 100
AcDbLine
   6
CONTINUOUS
  62
3
  10
 369.92319084421
  20
 200.37285159780
  30
0.0
  11
 370.92584057502
  21
 200.37285159780
  31
0.0
   0
LINE
   5
419
 100
AcDbEntity
   8
LEVEL002
 100
AcDbLine
   6
CONTINUOUS
  62
3
  10
 370.71319084426
  20
 197.37285159780
  30
0.0
  11
 371.71584057484
  21
 197.37285159780
  31
0.0
   0
LINE
   5
41A
 100
AcDbEntity
   8
LEVEL002
 100
AcDbLine
   6
CONTINUOUS
  62
3
  10
 372.29319084426
  20
 197.37285159780
  30
0.0
  11
 373.32861396498
  21
 197.37285159780
  31
0.0
   0
ARC
   5
41B
 100
AcDbEntity
   8
LEVEL002
   6
CONTINUOUS
  62
3
 100
AcDbCircle
  10
 373.26772065489
  20
 216.80564899667
  30
0.0
  40
 19.432892804231
 100
AcDbArc
  50
 271.77825661984
  51
 274.69604797277
   0
LINE
   5
41C
 100
AcDbEntity
   8
LEVEL002
 100
AcDbLine
   6
CONTINUOUS
  62
3
  10
 368.34319084421
  20
 200.37285159780
  30
0.0
  11
 369.34584057502
  21
 200.37285159780
  31
0.0
   0
LINE
   5
41D
 100
AcDbEntity
   8
LEVEL002
 100
AcDbLine
   6
CONTINUOUS
  62
3
  10
 366.76319084421
  20
 200.37285159780
  30
0.0
  11
 367.76584057502
  21
 200.37285159780
  31
0.0
   0
LINE
   5
41E
 100
AcDbEntity
   8
LEVEL002
 100
AcDbLine
   6
CONTINUOUS
  62
3
  10
 365.18319084421
  20
 200.37285159780
  30
0.0
  11
 366.18584057502
  21
 200.37285159780
  31
0.0
   0
LINE
   5
41F
 100
AcDbEntity
   8
LEVEL002
 100
AcDbLine
   6
CONTINUOUS
  62
3
  10
 369.13319084426
  20
 197.37285159780
  30
0.0
  11
 370.13584057484
  21
 197.37285159780
  31
0.0
   0
LINE
   5
420
 100
AcDbEntity
   8
LEVEL002
 100
AcDbLine
   6
CONTINUOUS
  62
3
  10
 367.55319084426
  20
 197.37285159780
  30
0.0
  11
 368.55584057484
  21
 197.37285159780
  31
0.0
   0
LINE
   5
421
 100
AcDbEntity
   8
LEVEL002
 100
AcDbLine
   6
CONTINUOUS
  62
3
  10
 365.97319084426
  20
 197.37285159780
  30
0.0
  11
 366.97584057484
  21
 197.37285159780
  31
0.0
   0
LINE
   5
422
 100
AcDbEntity
   8
LEVEL002
 100
AcDbLine
   6
CONTINUOUS
  62
3
  10
 364.39319084426
  20
 197.37285159780
  30
0.0
  11
 365.39584057484
  21
 197.37285159780
  31
0.0
   0
LINE
   5
423
 100
AcDbEntity
   8
LEVEL002
 100
AcDbLine
   6
CONTINUOUS
  62
3
  10
 362.81319084426
  20
 197.37285159780
  30
0.0
  11
 363.81584057484
  21
 197.37285159780
  31
0.0
   0
LINE
   5
424
 100
AcDbEntity
   8
LEVEL002
 100
AcDbLine
   6
CONTINUOUS
  62
3
  10
 361.23319084426
  20
 197.37285159780
  30
0.0
  11
 362.23584057484
  21
 197.37285159780
  31
0.0
   0
LINE
   5
425
 100
AcDbEntity
   8
LEVEL002
 100
AcDbLine
   6
CONTINUOUS
  62
3
  10
 363.60319084421
  20
 200.37285159780
  30
0.0
  11
 364.60584057502
  21
 200.37285159780
  31
0.0
   0
LINE
   5
426
 100
AcDbEntity
   8
LEVEL002
 100
AcDbLine
   6
CONTINUOUS
  62
3
  10
 362.02319084421
  20
 200.37285159780
  30
0.0
  11
 363.02584057502
  21
 200.37285159780
  31
0.0
   0
LINE
   5
427
 100
AcDbEntity
   8
LEVEL002
 100
AcDbLine
   6
CONTINUOUS
  62
3
  10
 360.44319084421
  20
 200.37285159780
  30
0.0
  11
 361.44584057502
  21
 200.37285159780
  31
0.0
   0
LINE
   5
428
 100
AcDbEntity
   8
LEVEL002
 100
AcDbLine
   6
CONTINUOUS
  62
3
  10
 358.86319084421
  20
 200.37285159780
  30
0.0
  11
 359.86584057502
  21
 200.37285159780
  31
0.0
   0
LINE
   5
429
 100
AcDbEntity
   8
LEVEL002
 100
AcDbLine
   6
CONTINUOUS
  62
3
  10
 357.28319084421
  20
 200.37285159780
  30
0.0
  11
 358.28584057502
  21
 200.37285159780
  31
0.0
   0
LINE
   5
42A
 100
AcDbEntity
   8
LEVEL002
 100
AcDbLine
   6
CONTINUOUS
  62
3
  10
 359.65319084426
  20
 197.37285159780
  30
0.0
  11
 360.65584057484
  21
 197.37285159780
  31
0.0
   0
LINE
   5
42B
 100
AcDbEntity
   8
LEVEL002
 100
AcDbLine
   6
CONTINUOUS
  62
3
  10
 358.07319084426
  20
 197.37285159780
  30
0.0
  11
 359.07584057484
  21
 197.37285159780
  31
0.0
   0
LINE
   5
42C
 100
AcDbEntity
   8
LEVEL002
 100
AcDbLine
   6
CONTINUOUS
  62
3
  10
 356.49319084426
  20
 197.37285159780
  30
0.0
  11
 357.49584057484
  21
 197.37285159780
  31
0.0
   0
LINE
   5
42D
 100
AcDbEntity
   8
LEVEL002
 100
AcDbLine
   6
CONTINUOUS
  62
3
  10
 354.91319084426
  20
 197.37285159780
  30
0.0
  11
 355.91584057484
  21
 197.37285159780
  31
0.0
   0
LINE
   5
42E
 100
AcDbEntity
   8
LEVEL002
 100
AcDbLine
   6
CONTINUOUS
  62
3
  10
 353.33319084426
  20
 197.37285159780
  30
0.0
  11
 354.33584057484
  21
 197.37285159780
  31
0.0
   0
LINE
   5
42F
 100
AcDbEntity
   8
LEVEL002
 100
AcDbLine
   6
CONTINUOUS
  62
3
  10
 350.75451570968
  20
 197.37285159780
  30
0.0
  11
 352.75584057484
  21
 197.37285159780
  31
0.0
   0
LINE
   5
430
 100
AcDbEntity
   8
LEVEL002
 100
AcDbLine
   6
CONTINUOUS
  62
3
  10
 355.70319084427
  20
 200.37285159780
  30
0.0
  11
 356.70584057502
  21
 200.37285159780
  31
0.0
   0
LINE
   5
431
 100
AcDbEntity
   8
LEVEL002
 100
AcDbLine
   6
CONTINUOUS
  62
3
  10
 354.12319084427
  20
 200.37285159780
  30
0.0
  11
 355.12584057485
  21
 200.37285159780
  31
0.0
   0
LINE
   5
432
 100
AcDbEntity
   8
LEVEL002
 100
AcDbLine
   6
CONTINUOUS
  62
3
  10
 350.75451570968
  20
 200.37285159780
  30
0.0
  11
 353.54584057485
  21
 200.37285159780
  31
0.0
   0
LINE
   5
433
 100
AcDbEntity
   8
LEVEL002
 100
AcDbLine
   6
CONTINUOUS
  62
3
  10
 377.37363207483
  20
 199.72580602845
  30
0.0
  11
 377.66230720954
  21
 200.22580602866
  31
0.0
   0
LINE
   5
434
 100
AcDbEntity
   8
LEVEL002
 100
AcDbLine
   6
CONTINUOUS
  62
3
  10
 377.66230720954
  20
 200.22580602866
  30
0.0
  11
 377.95098234425
  21
 199.72580602845
  31
0.0
   0
LINE
   5
435
 100
AcDbEntity
   8
LEVEL002
 100
AcDbLine
   6
CONTINUOUS
  62
3
  10
 375.71503954114
  20
 200.12374290805
  30
0.0
  11
 376.00371467585
  21
 200.62374290826
  31
0.0
   0
LINE
   5
436
 100
AcDbEntity
   8
LEVEL002
 100
AcDbLine
   6
CONTINUOUS
  62
3
  10
 376.00371467585
  20
 200.62374290826
  30
0.0
  11
 376.29238981056
  21
 200.12374290805
  31
0.0
   0
LINE
   5
437
 100
AcDbEntity
   8
LEVEL002
 100
AcDbLine
   6
CONTINUOUS
  62
3
  10
 377.88387134804
  20
 198.14231603741
  30
0.0
  11
 378.17254648275
  21
 197.64231603721
  31
0.0
   0
LINE
   5
438
 100
AcDbEntity
   8
LEVEL002
 100
AcDbLine
   6
CONTINUOUS
  62
3
  10
 378.17254648275
  20
 197.64231603721
  30
0.0
  11
 378.46122161747
  21
 198.14231603741
  31
0.0
   0
LINE
   5
439
 100
AcDbEntity
   8
LEVEL002
 100
AcDbLine
   6
CONTINUOUS
  62
3
  10
 377.66230720954
  20
 200.22580602866
  30
0.0
  11
 378.17254648275
  21
 197.64231603721
  31
0.0
   0
LINE
   5
43A
 100
AcDbEntity
   8
LEVEL002
 100
AcDbLine
   6
CONTINUOUS
  62
3
  10
 377.37363207483
  20
 199.72580602845
  30
0.0
  11
 377.88387134804
  21
 198.14231603741
  31
0.0
   0
LINE
   5
43B
 100
AcDbEntity
   8
LEVEL002
 100
AcDbLine
   6
CONTINUOUS
  62
3
  10
 378.46122161747
  20
 198.14231603741
  30
0.0
  11
 377.95098234425
  21
 199.72580602845
  31
0.0
   0
LINE
   5
43C
 100
AcDbEntity
   8
LEVEL002
 100
AcDbLine
   6
CONTINUOUS
  62
3
  10
 376.38198210444
  20
 197.74681853660
  30
0.0
  11
 376.67065723915
  21
 197.24681853640
  31
0.0
   0
LINE
   5
43D
 100
AcDbEntity
   8
LEVEL002
 100
AcDbLine
   6
CONTINUOUS
  62
3
  10
 376.67065723915
  20
 197.24681853640
  30
0.0
  11
 376.95933237386
  21
 197.74681853660
  31
0.0
   0
LINE
   5
43E
 100
AcDbEntity
   8
LEVEL002
 100
AcDbLine
   6
CONTINUOUS
  62
3
  10
 376.00371467585
  20
 200.62374290826
  30
0.0
  11
 376.67065723915
  21
 197.24681853640
  31
0.0
   0
LINE
   5
43F
 100
AcDbEntity
   8
LEVEL002
 100
AcDbLine
   6
CONTINUOUS
  62
3
  10
 375.71503954114
  20
 200.12374290805
  30
0.0
  11
 376.38198210444
  21
 197.74681853660
  31
0.0
   0
LINE
   5
440
 100
AcDbEntity
   8
LEVEL002
 100
AcDbLine
   6
CONTINUOUS
  62
3
  10
 376.29238981056
  20
 200.12374290805
  30
0.0
  11
 376.95933237386
  21
 197.74681853660
  31
0.0
   0
ARC
   5
441
 100
AcDbEntity
   8
LEVEL002
   6
CONTINUOUS
  62
3
 100
AcDbCircle
  10
 373.26772065490
  20
 216.80564899667
  30
0.0
  40
 19.432892804231
 100
AcDbArc
  50
 285.36912183053
  51
 290.40101745057
   0
ARC
   5
442
 100
AcDbEntity
   8
LEVEL002
   6
CONTINUOUS
  62
3
 100
AcDbCircle
  10
 373.26772065491
  20
 216.80564899667
  30
0.0
  40
 19.432892804231
 100
AcDbArc
  50
 280.91145635715
  51
 284.06890367745
   0
ARC
   5
443
 100
AcDbEntity
   8
LEVEL002
   6
CONTINUOUS
  62
3
 100
AcDbCircle
  10
 373.26772065490
  20
 216.80564899667
  30
0.0
  40
 19.432892804231
 100
AcDbArc
  50
 276.36380310186
  51
 279.41548149649
   0
ARC
   5
444
 100
AcDbEntity
   8
LEVEL002
   6
CONTINUOUS
  62
3
 100
AcDbCircle
  10
 373.26772065491
  20
 180.94005419893
  30
0.0
  40
 19.432892804231
 100
AcDbArc
  50
 69.598982549438
  51
 76.206717786154
   0
ARC
   5
445
 100
AcDbEntity
   8
LEVEL002
   6
CONTINUOUS
  62
3
 100
AcDbCircle
  10
 373.26772065490
  20
 180.94005419893
  30
0.0
  40
 19.432892804231
 100
AcDbArc
  50
 77.479809934345
  51
 81.069132374825
   0
ARC
   5
446
 100
AcDbEntity
   8
LEVEL002
   6
CONTINUOUS
  62
3
 100
AcDbCircle
  10
 373.26772065489
  20
 180.94005419893
  30
0.0
  40
 19.432892804231
 100
AcDbArc
  50
 82.614161977933
  51
 85.842326840402
   0
LINE
   5
447
 100
AcDbEntity
   8
LEVEL002
 100
AcDbLine
   6
CONTINUOUS
  62
7
  10
 352.55451570962
  20
 216.87285159780
  30
0.0
  11
 353.55451570962
  21
 216.87285159780
  31
0.0
   0
LINE
   5
448
 100
AcDbEntity
   8
LEVEL002
 100
AcDbLine
   6
CONTINUOUS
  62
7
  10
 352.55451570962
  20
 220.87285159780
  30
0.0
  11
 353.55451570962
  21
 220.87285159780
  31
0.0
   0
LINE
   5
449
 100
AcDbEntity
   8
LEVEL002
 100
AcDbLine
   6
CONTINUOUS
  62
7
  10
 352.55451570962
  20
 216.87285159780
  30
0.0
  11
 352.55451570962
  21
 200.87285159780
  31
0.0
   0
LINE
   5
44A
 100
AcDbEntity
   8
LEVEL002
 100
AcDbLine
   6
CONTINUOUS
  62
7
  10
 353.55451570962
  20
 200.87285159780
  30
0.0
  11
 353.55451570962
  21
 216.87285159780
  31
0.0
   0
LINE
   5
44B
 100
AcDbEntity
   8
LEVEL002
 100
AcDbLine
   6
CONTINUOUS
  62
7
  10
 352.55451570962
  20
 200.87285159780
  30
0.0
  11
 353.55451570962
  21
 200.87285159780
  31
0.0
   0
LINE
   5
44C
 100
AcDbEntity
   8
LEVEL002
 100
AcDbLine
   6
CONTINUOUS
  62
7
  10
 352.55451570962
  20
 196.87285159780
  30
0.0
  11
 353.55451570962
  21
 196.87285159780
  31
0.0
   0
LINE
   5
44D
 100
AcDbEntity
   8
LEVEL002
 100
AcDbLine
   6
CONTINUOUS
  62
7
  10
 345.45451570976
  20
 216.37285159780
  30
0.0
  11
 345.95451570962
  21
 216.37285159780
  31
0.0
   0
ARC
   5
44E
 100
AcDbEntity
   8
LEVEL002
   6
CONTINUOUS
  62
7
 100
AcDbCircle
  10
 345.95451570962
  20
 214.37285159780
  30
0.0
  40
 2.0000000000000
 100
AcDbArc
  50
0.0
  51
 89.999999999958
   0
LINE
   5
44F
 100
AcDbEntity
   8
LEVEL002
 100
AcDbLine
   6
CONTINUOUS
  62
7
  10
 345.45451570976
  20
 192.37285159780
  30
0.0
  11
 345.95451570962
  21
 192.37285159780
  31
0.0
   0
ARC
   5
450
 100
AcDbEntity
   8
LEVEL002
   6
CONTINUOUS
  62
7
 100
AcDbCircle
  10
 345.95451570962
  20
 194.37285159780
  30
0.0
  40
 2.0000000000000
 100
AcDbArc
  50
 270.00000000000
  51
 0.70023091867101E-10
   0
LINE
   5
451
 100
AcDbEntity
   8
LEVEL002
 100
AcDbLine
   6
CONTINUOUS
  62
7
  10
 347.95451570962
  20
 214.37285159780
  30
0.0
  11
 347.95451570962
  21
 194.37285159780
  31
0.0
   0
LINE
   5
452
 100
AcDbEntity
   8
LEVEL002
 100
AcDbLine
   6
CONTINUOUS
  62
7
  10
 323.55451570976
  20
 213.87285159780
  30
0.0
  11
 345.25451570976
  21
 213.87285159780
  31
0.0
   0
ARC
   5
453
 100
AcDbEntity
   8
LEVEL002
   6
CONTINUOUS
  62
7
 100
AcDbCircle
  10
 345.25451570976
  20
 213.57285159780
  30
0.0
  40
 0.30000000000000
 100
AcDbArc
  50
0.0
  51
 90.000000000586
   0
LINE
   5
454
 100
AcDbEntity
   8
LEVEL002
 100
AcDbLine
   6
CONTINUOUS
  62
7
  10
 345.55451570976
  20
 213.57285159780
  30
0.0
  11
 345.55451570976
  21
 195.17285159780
  31
0.0
   0
LINE
   5
455
 100
AcDbEntity
   8
LEVEL002
 100
AcDbLine
   6
CONTINUOUS
  62
7
  10
 345.25451570976
  20
 194.87285159780
  30
0.0
  11
 323.55451570976
  21
 194.87285159780
  31
0.0
   0
ARC
   5
456
 100
AcDbEntity
   8
LEVEL002
   6
CONTINUOUS
  62
7
 100
AcDbCircle
  10
 345.25451570976
  20
 195.17285159780
  30
0.0
  40
 0.30000000000000
 100
AcDbArc
  50
 270.00000000000
  51
0.0
   0
ARC
   5
457
 100
AcDbEntity
   8
LEVEL002
   6
CONTINUOUS
  62
7
 100
AcDbCircle
  10
 330.89311126412
  20
 213.12930299330
  30
0.0
  40
 3.0000000000000
 100
AcDbArc
  50
 91.203515809313
  51
 101.70290148023
   0
LINE
   5
458
 100
AcDbEntity
   8
LEVEL002
 100
AcDbLine
   6
CONTINUOUS
  62
7
  10
 323.95309726810
  20
 214.75541492060
  30
0.0
  11
 330.28460061418
  21
 216.06694061372
  31
0.0
   0
ARC
   5
459
 100
AcDbEntity
   8
LEVEL002
   6
CONTINUOUS
  62
7
 100
AcDbCircle
  10
 324.05451570976
  20
 214.26580865054
  30
0.0
  40
 0.50000000000000
 100
AcDbArc
  50
 101.70290148044
  51
 180.00000000105
   0
LINE
   5
45A
 100
AcDbEntity
   8
LEVEL002
 100
AcDbLine
   6
CONTINUOUS
  62
7
  10
 323.55451570976
  20
 214.26580865053
  30
0.0
  11
 323.55451570976
  21
 213.87285159780
  31
0.0
   0
LINE
   5
45B
 100
AcDbEntity
   8
LEVEL002
 100
AcDbLine
   6
CONTINUOUS
  62
7
  10
 330.83009995762
  20
 216.12864118284
  30
0.0
  11
 342.45451570976
  21
 216.37285159780
  31
0.0
   0
LINE
   5
45C
 100
AcDbEntity
   8
LEVEL002
 100
AcDbLine
   6
CONTINUOUS
  62
7
  10
 330.83009995762
  20
 192.61706201276
  30
0.0
  11
 342.45451570976
  21
 192.37285159780
  31
0.0
   0
ARC
   5
45D
 100
AcDbEntity
   8
LEVEL002
   6
CONTINUOUS
  62
7
 100
AcDbCircle
  10
 330.89311126412
  20
 195.61640020231
  30
0.0
  40
 3.0000000000000
 100
AcDbArc
  50
 258.29709851977
  51
 268.79648419069
   0
LINE
   5
45E
 100
AcDbEntity
   8
LEVEL002
 100
AcDbLine
   6
CONTINUOUS
  62
7
  10
 323.55451570976
  20
 194.47989454507
  30
0.0
  11
 323.55451570976
  21
 194.87285159780
  31
0.0
   0
ARC
   5
45F
 100
AcDbEntity
   8
LEVEL002
   6
CONTINUOUS
  62
7
 100
AcDbCircle
  10
 324.05451570977
  20
 194.47989454507
  30
0.0
  40
 0.50000000000000
 100
AcDbArc
  50
 179.99999999969
  51
 258.29709851824
   0
LINE
   5
460
 100
AcDbEntity
   8
LEVEL002
 100
AcDbLine
   6
CONTINUOUS
  62
7
  10
 323.95309726810
  20
 193.99028827500
  30
0.0
  11
 330.28460061418
  21
 192.67876258189
  31
0.0
   0
LINE
   5
461
 100
AcDbEntity
   8
LEVEL002
 100
AcDbLine
   6
CONTINUOUS
  62
7
  10
 345.45451570976
  20
 216.37285159780
  30
0.0
  11
 342.45451570976
  21
 216.37285159780
  31
0.0
   0
LINE
   5
462
 100
AcDbEntity
   8
LEVEL002
 100
AcDbLine
   6
CONTINUOUS
  62
7
  10
 345.45451570976
  20
 192.37285159780
  30
0.0
  11
 342.45451570976
  21
 192.37285159780
  31
0.0
   0
ARC
   5
463
 100
AcDbEntity
   8
LEVEL002
   6
CONTINUOUS
  62
7
 100
AcDbCircle
  10
 326.55451570982
  20
 220.86491900348
  30
0.0
  40
 1.0000000000000
 100
AcDbArc
  50
 102.99999999996
  51
 179.99999999980
   0
LINE
   5
464
 100
AcDbEntity
   8
LEVEL002
 100
AcDbLine
   6
CONTINUOUS
  62
7
  10
 326.32956465547
  20
 221.83928906826
  30
0.0
  11
 349.11708912810
  21
 227.10020362349
  31
0.0
   0
LINE
   5
465
 100
AcDbEntity
   8
LEVEL002
 100
AcDbLine
   6
CONTINUOUS
  62
7
  10
 325.55451570982
  20
 191.20700303139
  30
0.0
  11
 325.55451570982
  21
 188.13371113972
  31
0.0
   0
ARC
   5
466
 100
AcDbEntity
   8
LEVEL002
   6
CONTINUOUS
  62
7
 100
AcDbCircle
  10
 326.55451570982
  20
 188.13371113972
  30
0.0
  40
 1.0000000000000
 100
AcDbArc
  50
 179.99999999999
  51
 266.17637985928
   0
LINE
   5
467
 100
AcDbEntity
   8
LEVEL002
 100
AcDbLine
   6
CONTINUOUS
  62
7
  10
 326.48783047218
  20
 187.13593707758
  30
0.0
  11
 352.55451570962
  21
 185.39379608049
  31
0.0
   0
LINE
   5
468
 100
AcDbEntity
   8
LEVEL002
 100
AcDbLine
   6
CONTINUOUS
  62
7
  10
 350.75451570962
  20
 200.99379608049
  30
0.0
  11
 352.55451570962
  21
 200.99379608049
  31
0.0
   0
LINE
   5
469
 100
AcDbEntity
   8
LEVEL002
 100
AcDbLine
   6
CONTINUOUS
  62
7
  10
 350.75451570962
  20
 196.79379608049
  30
0.0
  11
 352.55451570962
  21
 196.79379608049
  31
0.0
   0
LINE
   5
46A
 100
AcDbEntity
   8
LEVEL002
 100
AcDbLine
   6
CONTINUOUS
  62
7
  10
 350.75451570962
  20
 216.79379608049
  30
0.0
  11
 352.55451570962
  21
 216.79379608049
  31
0.0
   0
LINE
   5
46B
 100
AcDbEntity
   8
LEVEL002
 100
AcDbLine
   6
CONTINUOUS
  62
7
  10
 350.75451570962
  20
 220.99379608049
  30
0.0
  11
 352.55451570962
  21
 220.99379608049
  31
0.0
   0
ARC
   5
46C
 100
AcDbEntity
   8
LEVEL002
   6
CONTINUOUS
  62
7
 100
AcDbCircle
  10
 348.95451570962
  20
 226.03636648465
  30
0.0
  40
 1.0000000000000
 100
AcDbArc
  50
 103.00000000002
  51
 179.99999999994
   0
LINE
   5
46D
 100
AcDbEntity
   8
LEVEL002
 100
AcDbLine
   6
CONTINUOUS
  62
7
  10
 352.55451570962
  20
 227.89379608049
  30
0.0
  11
 348.72956465527
  21
 227.01073654943
  31
0.0
   0
ARC
   5
46E
 100
AcDbEntity
   8
LEVEL002
   6
CONTINUOUS
  62
7
 100
AcDbCircle
  10
 350.25451570962
  20
 223.64379608049
  30
0.0
  40
 0.50000000000000
 100
AcDbArc
  50
0.0
  51
 89.999999999896
   0
ARC
   5
46F
 100
AcDbEntity
   8
LEVEL002
   6
CONTINUOUS
  62
7
 100
AcDbCircle
  10
 350.25451570962
  20
 214.14379608049
  30
0.0
  40
 0.50000000000000
 100
AcDbArc
  50
 270.00000000000
  51
0.0
   0
LINE
   5
470
 100
AcDbEntity
   8
LEVEL002
 100
AcDbLine
   6
CONTINUOUS
  62
7
  10
 350.75451570962
  20
 223.64379608049
  30
0.0
  11
 350.75451570962
  21
 214.14379608049
  31
0.0
   0
ARC
   5
471
 100
AcDbEntity
   8
LEVEL002
   6
CONTINUOUS
  62
7
 100
AcDbCircle
  10
 350.25451570962
  20
 203.64379608049
  30
0.0
  40
 0.50000000000000
 100
AcDbArc
  50
0.0
  51
 89.999999999896
   0
ARC
   5
472
 100
AcDbEntity
   8
LEVEL002
   6
CONTINUOUS
  62
7
 100
AcDbCircle
  10
 350.25451570962
  20
 194.14379608049
  30
0.0
  40
 0.50000000000000
 100
AcDbArc
  50
 270.00000000000
  51
0.0
   0
LINE
   5
473
 100
AcDbEntity
   8
LEVEL002
 100
AcDbLine
   6
CONTINUOUS
  62
7
  10
 350.75451570962
  20
 203.64379608049
  30
0.0
  11
 350.75451570962
  21
 194.14379608049
  31
0.0
   0
ARC
   5
474
 100
AcDbEntity
   8
LEVEL002
   6
CONTINUOUS
  62
7
 100
AcDbCircle
  10
 326.55451570982
  20
 191.20700303139
  30
0.0
  40
 1.0000000000000
 100
AcDbArc
  50
 90.499999999998
  51
 180.00000000003
   0
LINE
   5
475
 100
AcDbEntity
   8
LEVEL002
 100
AcDbLine
   6
CONTINUOUS
  62
7
  10
 326.54578917432
  20
 192.20696495446
  30
0.0
  11
 346.96324224512
  21
 192.38514536803
  31
0.0
   0
LINE
   5
476
 100
AcDbEntity
   8
LEVEL002
 100
AcDbLine
   6
CONTINUOUS
  62
7
  10
 352.55451570962
  20
 211.89379608049
  30
0.0
  11
 351.55451570962
  21
 211.89379608049
  31
0.0
   0
LINE
   5
477
 100
AcDbEntity
   8
LEVEL002
 100
AcDbLine
   6
CONTINUOUS
  62
7
  10
 351.55451570962
  20
 211.89379608049
  30
0.0
  11
 351.55451570962
  21
 205.89379608049
  31
0.0
   0
LINE
   5
478
 100
AcDbEntity
   8
LEVEL002
 100
AcDbLine
   6
CONTINUOUS
  62
7
  10
 351.55451570962
  20
 205.89379608049
  30
0.0
  11
 352.55451570962
  21
 205.89379608049
  31
0.0
   0
LINE
   5
479
 100
AcDbEntity
   8
LEVEL002
 100
AcDbLine
   6
CONTINUOUS
  62
7
  10
 351.55451570962
  20
 191.89379608049
  30
0.0
  11
 351.55451570962
  21
 187.39379608049
  31
0.0
   0
LINE
   5
47A
 100
AcDbEntity
   8
LEVEL002
 100
AcDbLine
   6
CONTINUOUS
  62
7
  10
 351.55451570962
  20
 187.39379608049
  30
0.0
  11
 352.55451570962
  21
 187.39379608049
  31
0.0
   0
LINE
   5
47B
 100
AcDbEntity
   8
LEVEL002
 100
AcDbLine
   6
CONTINUOUS
  62
7
  10
 352.55451570962
  20
 191.89379608049
  30
0.0
  11
 351.55451570962
  21
 191.89379608049
  31
0.0
   0
LINE
   5
47C
 100
AcDbEntity
   8
LEVEL002
 100
AcDbLine
   6
CONTINUOUS
  62
7
  10
 350.25451570962
  20
 193.64379608049
  30
0.0
  11
 348.25385915301
  21
 193.64379608049
  31
0.0
   0
ARC
   5
47D
 100
AcDbEntity
   8
LEVEL002
   6
CONTINUOUS
  62
7
 100
AcDbCircle
  10
 348.25385915301
  20
 193.34379608047
  30
0.0
  40
 0.30000000000000
 100
AcDbArc
  50
 89.999999999913
  51
 178.17895648434
   0
ARC
   5
47E
 100
AcDbEntity
   8
LEVEL002
   6
CONTINUOUS
  62
7
 100
AcDbCircle
  10
 346.95451570962
  20
 193.38510729109
  30
0.0
  40
 1.0000000000000
 100
AcDbArc
  50
 270.50000000001
  51
 358.17895648723
   0
LINE
   5
47F
 100
AcDbEntity
   8
LEVEL002
 100
AcDbLine
   6
CONTINUOUS
  62
7
  10
 347.95451570962
  20
 198.89379608049
  30
0.0
  11
 347.95451570962
  21
 193.35332943679
  31
0.0
   0
LINE
   5
480
 100
AcDbEntity
   8
LEVEL002
 100
AcDbLine
   6
CONTINUOUS
  62
7
  10
 348.25451570962
  20
 224.14379608049
  30
0.0
  11
 350.25451570962
  21
 224.14379608049
  31
0.0
   0
ARC
   5
481
 100
AcDbEntity
   8
LEVEL002
   6
CONTINUOUS
  62
7
 100
AcDbCircle
  10
 348.25451570964
  20
 224.44379608049
  30
0.0
  40
 0.30000000000000
 100
AcDbArc
  50
 179.99999999999
  51
 269.99999999617
   0
ARC
   5
482
 100
AcDbEntity
   8
LEVEL002
   6
CONTINUOUS
  62
7
 100
AcDbCircle
  10
 348.25451570962
  20
 213.34379608051
  30
0.0
  40
 0.30000000000000
 100
AcDbArc
  50
 89.999999999978
  51
 180.00000000322
   0
LINE
   5
483
 100
AcDbEntity
   8
LEVEL002
 100
AcDbLine
   6
CONTINUOUS
  62
7
  10
 350.25451570962
  20
 213.64379608049
  30
0.0
  11
 348.25451570962
  21
 213.64379608049
  31
0.0
   0
LINE
   5
484
 100
AcDbEntity
   8
LEVEL002
 100
AcDbLine
   6
CONTINUOUS
  62
7
  10
 348.25451570962
  20
 204.14379608049
  30
0.0
  11
 350.25451570962
  21
 204.14379608049
  31
0.0
   0
ARC
   5
485
 100
AcDbEntity
   8
LEVEL002
   6
CONTINUOUS
  62
7
 100
AcDbCircle
  10
 348.25451570964
  20
 204.44379608049
  30
0.0
  40
 0.30000000000000
 100
AcDbArc
  50
 180.00000000000
  51
 269.99999999631
   0
LINE
   5
486
 100
AcDbEntity
   8
LEVEL002
 100
AcDbLine
   6
CONTINUOUS
  62
7
  10
 347.95451570962
  20
 213.34379608049
  30
0.0
  11
 347.95451570962
  21
 198.89379608049
  31
0.0
   0
LINE
   5
487
 100
AcDbEntity
   8
LEVEL002
 100
AcDbLine
   6
CONTINUOUS
  62
7
  10
 347.95451570962
  20
 226.03636648465
  30
0.0
  11
 347.95451570962
  21
 218.89379608049
  31
0.0
   0
LINE
   5
488
 100
AcDbEntity
   8
LEVEL002
 100
AcDbLine
   6
CONTINUOUS
  62
7
  10
 347.95451570962
  20
 218.89379608049
  30
0.0
  11
 347.95451570962
  21
 213.34379608049
  31
0.0
   0
LINE
   5
489
 100
AcDbEntity
   8
LEVEL002
 100
AcDbLine
   6
CONTINUOUS
  62
7
  10
 325.55451570982
  20
 191.20700303139
  30
0.0
  11
 325.55451570982
  21
 193.65856588350
  31
0.0
   0
LINE
   5
48A
 100
AcDbEntity
   8
LEVEL002
 100
AcDbLine
   6
CONTINUOUS
  62
7
  10
 325.55451570982
  20
 215.08713731210
  30
0.0
  11
 325.55451570982
  21
 220.86491900348
  31
0.0
   0
LINE
   5
48B
 100
AcDbEntity
   8
LEVEL002
 100
AcDbLine
   6
CONTINUOUS
  62
7
  10
 352.55451570962
  20
 185.39379608049
  30
0.0
  11
 353.55451570962
  21
 185.39379608049
  31
0.0
   0
LINE
   5
48C
 100
AcDbEntity
   8
LEVEL002
 100
AcDbLine
   6
CONTINUOUS
  62
7
  10
 353.55451570962
  20
 185.39379608049
  30
0.0
  11
 353.55451570962
  21
 197.37285159780
  31
0.0
   0
LINE
   5
48D
 100
AcDbEntity
   8
LEVEL002
 100
AcDbLine
   6
CONTINUOUS
  62
7
  10
 353.55451570962
  20
 200.87285159780
  30
0.0
  11
 353.55451570962
  21
 200.37285159780
  31
0.0
   0
LINE
   5
48E
 100
AcDbEntity
   8
LEVEL002
 100
AcDbLine
   6
CONTINUOUS
  62
7
  10
 353.55451570962
  20
 216.87285159780
  30
0.0
  11
 353.55451570962
  21
 217.37285159780
  31
0.0
   0
LINE
   5
48F
 100
AcDbEntity
   8
LEVEL002
 100
AcDbLine
   6
CONTINUOUS
  62
7
  10
 352.55451570962
  20
 227.89379608049
  30
0.0
  11
 353.55451570962
  21
 227.89379608049
  31
0.0
   0
LINE
   5
490
 100
AcDbEntity
   8
LEVEL002
 100
AcDbLine
   6
CONTINUOUS
  62
7
  10
 353.55451570962
  20
 227.89379608049
  30
0.0
  11
 353.55451570962
  21
 220.37285159780
  31
0.0
   0
LINE
   5
491
 100
AcDbEntity
   8
LEVEL002
 100
AcDbLine
   6
CONTINUOUS
  62
7
  10
 345.55451570976
  20
 213.87285159780
  30
0.0
  11
 345.55451570976
  21
 194.87285159780
  31
0.0
   0
LINE
   5
492
 100
AcDbEntity
   8
LEVEL002
 100
AcDbLine
   6
CONTINUOUS
  62
7
  10
 223.30396069416
  20
 213.87285159780
  30
0.0
  11
 345.55451570976
  21
 213.87285159780
  31
0.0
   0
LINE
   5
493
 100
AcDbEntity
   8
LEVEL002
 100
AcDbLine
   6
CONTINUOUS
  62
7
  10
 345.55451570976
  20
 194.87285159780
  30
0.0
  11
 223.30396069416
  21
 194.87285159780
  31
0.0
   0
LINE
   5
494
 100
AcDbEntity
   8
LEVEL002
 100
AcDbLine
   6
DOT
  62
1
  10
 222.68194373497
  20
 213.17285159780
  30
0.0
  11
 345.55451570976
  21
 213.17285159780
  31
0.0
   0
LINE
   5
495
 100
AcDbEntity
   8
LEVEL002
 100
AcDbLine
   6
DOT
  62
1
  10
 223.92597765335
  20
 195.57285159780
  30
0.0
  11
 345.55451570976
  21
 195.57285159780
  31
0.0
   0
INSERT
   5
496
 100
AcDbEntity
   8
LEVEL001
 100
AcDbBlockReference
   2
HATCH001
  10
0.0
  20
0.0
  30
0.0
   0
LINE
   5
497
 100
AcDbEntity
   8
LEVEL002
 100
AcDbLine
   6
CONTINUOUS
  62
7
  10
 352.55451570962
  20
 227.89379608049
  30
0.0
  11
 352.55451570962
  21
 220.87285159780
  31
0.0
   0
LINE
   5
498
 100
AcDbEntity
   8
LEVEL002
 100
AcDbLine
   6
CONTINUOUS
  62
7
  10
 352.55451570962
  20
 216.87285159780
  30
0.0
  11
 352.55451570962
  21
 200.87285159780
  31
0.0
   0
LINE
   5
499
 100
AcDbEntity
   8
LEVEL002
 100
AcDbLine
   6
CONTINUOUS
  62
7
  10
 352.55451570962
  20
 185.39379608049
  30
0.0
  11
 352.55451570962
  21
 196.87285159780
  31
0.0
   0
INSERT
   5
49A
 100
AcDbEntity
   8
LEVEL001
 100
AcDbBlockReference
   2
HATCH002
  10
0.0
  20
0.0
  30
0.0
   0
INSERT
   5
49B
 100
AcDbEntity
   8
LEVEL001
 100
AcDbBlockReference
   2
HATCH003
  10
0.0
  20
0.0
  30
0.0
   0
INSERT
   5
49C
 100
AcDbEntity
   8
LEVEL001
 100
AcDbBlockReference
   2
HATCH004
  10
0.0
  20
0.0
  30
0.0
   0
INSERT
   5
49D
 100
AcDbEntity
   8
LEVEL001
 100
AcDbBlockReference
   2
HATCH005
  10
0.0
  20
0.0
  30
0.0
   0
INSERT
   5
49E
 100
AcDbEntity
   8
LEVEL001
 100
AcDbBlockReference
   2
HATCH006
  10
0.0
  20
0.0
  30
0.0
   0
INSERT
   5
49F
 100
AcDbEntity
   8
LEVEL001
 100
AcDbBlockReference
   2
HATCH007
  10
0.0
  20
0.0
  30
0.0
   0
ARC
   5
4A0
 100
AcDbEntity
   8
LEVEL002
   6
CONTINUOUS
  62
7
 100
AcDbCircle
  10
 97.399565924623
  20
 220.84397452079
  30
0.0
  40
 1.0000000000000
 100
AcDbArc
  50
0.0
  51
 76.999999999934
   0
LINE
   5
4A1
 100
AcDbEntity
   8
LEVEL002
 100
AcDbLine
   6
CONTINUOUS
  62
7
  10
 97.624516978968
  20
 221.81834458557
  30
0.0
  11
 74.836992506340
  21
 227.07925914080
  31
0.0
   0
LINE
   5
4A2
 100
AcDbEntity
   8
LEVEL002
 100
AcDbLine
   6
CONTINUOUS
  62
7
  10
 98.399565924624
  20
 191.18605854870
  30
0.0
  11
 98.399565924624
  21
 188.11276665703
  31
0.0
   0
ARC
   5
4A3
 100
AcDbEntity
   8
LEVEL002
   6
CONTINUOUS
  62
7
 100
AcDbCircle
  10
 97.399565924624
  20
 188.11276665703
  30
0.0
  40
 1.0000000000000
 100
AcDbArc
  50
 273.82362014064
  51
 0.66766203873282E-10
   0
LINE
   5
4A4
 100
AcDbEntity
   8
LEVEL002
 100
AcDbLine
   6
CONTINUOUS
  62
7
  10
 97.466251162262
  20
 187.11499259489
  30
0.0
  11
 71.399565924824
  21
 185.37285159780
  31
0.0
   0
LINE
   5
4A5
 100
AcDbEntity
   8
LEVEL002
 100
AcDbLine
   6
CONTINUOUS
  62
7
  10
 98.399565924624
  20
 191.18605854870
  30
0.0
  11
 98.399565924624
  21
 220.84397452079
  31
0.0
   0
LINE
   5
4A6
 100
AcDbEntity
   8
LEVEL002
 100
AcDbLine
   6
CONTINUOUS
  62
7
  10
 71.399565924824
  20
 218.87285159780
  30
0.0
  11
 71.399565924824
  21
 198.87285159780
  31
0.0
   0
LINE
   5
4A7
 100
AcDbEntity
   8
LEVEL002
 100
AcDbLine
   6
CONTINUOUS
  62
7
  10
 71.399565924824
  20
 227.87285159780
  30
0.0
  11
 71.399565924824
  21
 218.87285159780
  31
0.0
   0
LINE
   5
4A8
 100
AcDbEntity
   8
LEVEL002
 100
AcDbLine
   6
CONTINUOUS
  62
7
  10
 71.399565924824
  20
 227.87285159780
  30
0.0
  11
 75.224516979168
  21
 226.98979206674
  31
0.0
   0
LINE
   5
4A9
 100
AcDbEntity
   8
LEVEL002
 100
AcDbLine
   6
CONTINUOUS
  62
7
  10
 71.399565924824
  20
 185.37285159780
  30
0.0
  11
 71.399565924824
  21
 198.87285159780
  31
0.0
   0
LINE
   5
4AA
 100
AcDbEntity
   8
LEVEL002
 100
AcDbLine
   6
CONTINUOUS
  62
7
  10
 71.399565924824
  20
 185.37285159780
  30
0.0
  11
 71.399565924824
  21
 227.87285159780
  31
0.0
   0
LINE
   5
4AB
 100
AcDbEntity
   8
LEVEL002
 100
AcDbLine
   6
CONTINUOUS
  62
7
  10
 71.399565924824
  20
 227.87285159780
  30
0.0
  11
 70.399565924824
  21
 227.87285159780
  31
0.0
   0
LINE
   5
4AC
 100
AcDbEntity
   8
LEVEL002
 100
AcDbLine
   6
CONTINUOUS
  62
7
  10
 70.399565924824
  20
 227.87285159780
  30
0.0
  11
 70.399565924824
  21
 185.37285159780
  31
0.0
   0
LINE
   5
4AD
 100
AcDbEntity
   8
LEVEL002
 100
AcDbLine
   6
CONTINUOUS
  62
7
  10
 70.399565924824
  20
 185.37285159780
  30
0.0
  11
 71.399565924824
  21
 185.37285159780
  31
0.0
   0
ARC
   5
4AE
 100
AcDbEntity
   8
LEVEL002
   6
CONTINUOUS
  62
7
 100
AcDbCircle
  10
 99.899565924689
  20
 214.26580865053
  30
0.0
  40
 0.50000000000000
 100
AcDbArc
  50
 0.11724796777856E-9
  51
 78.297098520329
   0
LINE
   5
4AF
 100
AcDbEntity
   8
LEVEL002
 100
AcDbLine
   6
CONTINUOUS
  62
7
  10
 100.39956592468
  20
 214.26580865053
  30
0.0
  11
 100.39956592468
  21
 213.87285159780
  31
0.0
   0
LINE
   5
4B0
 100
AcDbEntity
   8
LEVEL002
 100
AcDbLine
   6
CONTINUOUS
  62
7
  10
 100.39956592468
  20
 194.47989454507
  30
0.0
  11
 100.39956592468
  21
 194.87285159780
  31
0.0
   0
ARC
   5
4B1
 100
AcDbEntity
   8
LEVEL002
   6
CONTINUOUS
  62
7
 100
AcDbCircle
  10
 99.899565924685
  20
 194.47989454507
  30
0.0
  40
 0.50000000000000
 100
AcDbArc
  50
 281.70290148025
  51
 0.12701863175893E-9
   0
LINE
   5
4B2
 100
AcDbEntity
   8
LEVEL002
 100
AcDbLine
   6
CONTINUOUS
  62
7
  10
 100.39956592468
  20
 213.87285159780
  30
0.0
  11
 100.39956592468
  21
 194.87285159780
  31
0.0
   0
LINE
   5
4B3
 100
AcDbEntity
   8
LEVEL002
 100
AcDbLine
   6
CONTINUOUS
  62
3
  10
 70.408241059536
  20
 200.37285159760
  30
0.0
  11
 70.119565924824
  21
 200.87285159780
  31
0.0
   0
LINE
   5
4B4
 100
AcDbEntity
   8
LEVEL002
 100
AcDbLine
   6
CONTINUOUS
  62
3
  10
 70.119565924824
  20
 200.87285159780
  30
0.0
  11
 69.830890790112
  21
 200.37285159760
  31
0.0
   0
LINE
   5
4B5
 100
AcDbEntity
   8
LEVEL002
 100
AcDbLine
   6
CONTINUOUS
  62
3
  10
 69.618241059602
  20
 197.37285159780
  30
0.0
  11
 69.329565924890
  21
 196.87285159760
  31
0.0
   0
LINE
   5
4B6
 100
AcDbEntity
   8
LEVEL002
 100
AcDbLine
   6
CONTINUOUS
  62
3
  10
 69.329565924890
  20
 196.87285159760
  30
0.0
  11
 69.040890790178
  21
 197.37285159780
  31
0.0
   0
LINE
   5
4B7
 100
AcDbEntity
   8
LEVEL002
 100
AcDbLine
   6
CONTINUOUS
  62
3
  10
 68.828241059536
  20
 200.37285159760
  30
0.0
  11
 68.539565924824
  21
 200.87285159780
  31
0.0
   0
LINE
   5
4B8
 100
AcDbEntity
   8
LEVEL002
 100
AcDbLine
   6
CONTINUOUS
  62
3
  10
 68.539565924824
  20
 200.87285159780
  30
0.0
  11
 68.250890790112
  21
 200.37285159760
  31
0.0
   0
LINE
   5
4B9
 100
AcDbEntity
   8
LEVEL002
 100
AcDbLine
   6
CONTINUOUS
  62
3
  10
 68.038241059602
  20
 197.37285159780
  30
0.0
  11
 67.749565924890
  21
 196.87285159760
  31
0.0
   0
LINE
   5
4BA
 100
AcDbEntity
   8
LEVEL002
 100
AcDbLine
   6
CONTINUOUS
  62
3
  10
 67.749565924890
  20
 196.87285159760
  30
0.0
  11
 67.460890790178
  21
 197.37285159780
  31
0.0
   0
LINE
   5
4BB
 100
AcDbEntity
   8
LEVEL002
 100
AcDbLine
   6
CONTINUOUS
  62
3
  10
 70.119565924824
  20
 200.87285159780
  30
0.0
  11
 69.329565924890
  21
 196.87285159760
  31
0.0
   0
LINE
   5
4BC
 100
AcDbEntity
   8
LEVEL002
 100
AcDbLine
   6
CONTINUOUS
  62
3
  10
 68.539565924824
  20
 200.87285159780
  30
0.0
  11
 67.749565924890
  21
 196.87285159760
  31
0.0
   0
LINE
   5
4BD
 100
AcDbEntity
   8
LEVEL002
 100
AcDbLine
   6
CONTINUOUS
  62
3
  10
 70.408241059536
  20
 200.37285159760
  30
0.0
  11
 69.618241059602
  21
 197.37285159780
  31
0.0
   0
LINE
   5
4BE
 100
AcDbEntity
   8
LEVEL002
 100
AcDbLine
   6
CONTINUOUS
  62
3
  10
 69.830890790112
  20
 200.37285159760
  30
0.0
  11
 69.040890790178
  21
 197.37285159780
  31
0.0
   0
LINE
   5
4BF
 100
AcDbEntity
   8
LEVEL002
 100
AcDbLine
   6
CONTINUOUS
  62
3
  10
 68.828241059536
  20
 200.37285159760
  30
0.0
  11
 68.038241059602
  21
 197.37285159780
  31
0.0
   0
LINE
   5
4C0
 100
AcDbEntity
   8
LEVEL002
 100
AcDbLine
   6
CONTINUOUS
  62
3
  10
 67.460890790178
  20
 197.37285159780
  30
0.0
  11
 68.250890790112
  21
 200.37285159760
  31
0.0
   0
LINE
   5
4C1
 100
AcDbEntity
   8
LEVEL002
 100
AcDbLine
   6
CONTINUOUS
  62
3
  10
 66.959565924824
  20
 200.87285159780
  30
0.0
  11
 66.169565924890
  21
 196.87285159760
  31
0.0
   0
LINE
   5
4C2
 100
AcDbEntity
   8
LEVEL002
 100
AcDbLine
   6
CONTINUOUS
  62
3
  10
 65.379565924824
  20
 200.87285159780
  30
0.0
  11
 64.589565924890
  21
 196.87285159760
  31
0.0
   0
LINE
   5
4C3
 100
AcDbEntity
   8
LEVEL002
 100
AcDbLine
   6
CONTINUOUS
  62
3
  10
 67.248241059536
  20
 200.37285159760
  30
0.0
  11
 66.458241059602
  21
 197.37285159780
  31
0.0
   0
LINE
   5
4C4
 100
AcDbEntity
   8
LEVEL002
 100
AcDbLine
   6
CONTINUOUS
  62
3
  10
 66.670890790111
  20
 200.37285159760
  30
0.0
  11
 65.880890790178
  21
 197.37285159780
  31
0.0
   0
LINE
   5
4C5
 100
AcDbEntity
   8
LEVEL002
 100
AcDbLine
   6
CONTINUOUS
  62
3
  10
 65.668241059536
  20
 200.37285159760
  30
0.0
  11
 64.878241059602
  21
 197.37285159780
  31
0.0
   0
LINE
   5
4C6
 100
AcDbEntity
   8
LEVEL002
 100
AcDbLine
   6
CONTINUOUS
  62
3
  10
 64.300890790178
  20
 197.37285159780
  30
0.0
  11
 65.090890790111
  21
 200.37285159760
  31
0.0
   0
LINE
   5
4C7
 100
AcDbEntity
   8
LEVEL002
 100
AcDbLine
   6
CONTINUOUS
  62
3
  10
 67.248241059536
  20
 200.37285159760
  30
0.0
  11
 66.959565924824
  21
 200.87285159780
  31
0.0
   0
LINE
   5
4C8
 100
AcDbEntity
   8
LEVEL002
 100
AcDbLine
   6
CONTINUOUS
  62
3
  10
 66.959565924824
  20
 200.87285159780
  30
0.0
  11
 66.670890790111
  21
 200.37285159760
  31
0.0
   0
LINE
   5
4C9
 100
AcDbEntity
   8
LEVEL002
 100
AcDbLine
   6
CONTINUOUS
  62
3
  10
 65.668241059536
  20
 200.37285159760
  30
0.0
  11
 65.379565924824
  21
 200.87285159780
  31
0.0
   0
LINE
   5
4CA
 100
AcDbEntity
   8
LEVEL002
 100
AcDbLine
   6
CONTINUOUS
  62
3
  10
 65.379565924824
  20
 200.87285159780
  30
0.0
  11
 65.090890790111
  21
 200.37285159760
  31
0.0
   0
LINE
   5
4CB
 100
AcDbEntity
   8
LEVEL002
 100
AcDbLine
   6
CONTINUOUS
  62
3
  10
 66.458241059602
  20
 197.37285159780
  30
0.0
  11
 66.169565924890
  21
 196.87285159760
  31
0.0
   0
LINE
   5
4CC
 100
AcDbEntity
   8
LEVEL002
 100
AcDbLine
   6
CONTINUOUS
  62
3
  10
 66.169565924890
  20
 196.87285159760
  30
0.0
  11
 65.880890790178
  21
 197.37285159780
  31
0.0
   0
LINE
   5
4CD
 100
AcDbEntity
   8
LEVEL002
 100
AcDbLine
   6
CONTINUOUS
  62
3
  10
 64.878241059602
  20
 197.37285159780
  30
0.0
  11
 64.589565924890
  21
 196.87285159760
  31
0.0
   0
LINE
   5
4CE
 100
AcDbEntity
   8
LEVEL002
 100
AcDbLine
   6
CONTINUOUS
  62
3
  10
 64.589565924890
  20
 196.87285159760
  30
0.0
  11
 64.300890790178
  21
 197.37285159780
  31
0.0
   0
LINE
   5
4CF
 100
AcDbEntity
   8
LEVEL002
 100
AcDbLine
   6
CONTINUOUS
  62
3
  10
 63.799565924823
  20
 200.87285159780
  30
0.0
  11
 63.009565924890
  21
 196.87285159760
  31
0.0
   0
LINE
   5
4D0
 100
AcDbEntity
   8
LEVEL002
 100
AcDbLine
   6
CONTINUOUS
  62
3
  10
 62.219565924823
  20
 200.87285159780
  30
0.0
  11
 61.429565924890
  21
 196.87285159760
  31
0.0
   0
LINE
   5
4D1
 100
AcDbEntity
   8
LEVEL002
 100
AcDbLine
   6
CONTINUOUS
  62
3
  10
 64.088241059536
  20
 200.37285159760
  30
0.0
  11
 63.298241059602
  21
 197.37285159780
  31
0.0
   0
LINE
   5
4D2
 100
AcDbEntity
   8
LEVEL002
 100
AcDbLine
   6
CONTINUOUS
  62
3
  10
 63.510890790111
  20
 200.37285159760
  30
0.0
  11
 62.720890790178
  21
 197.37285159780
  31
0.0
   0
LINE
   5
4D3
 100
AcDbEntity
   8
LEVEL002
 100
AcDbLine
   6
CONTINUOUS
  62
3
  10
 62.508241059536
  20
 200.37285159760
  30
0.0
  11
 61.718241059602
  21
 197.37285159780
  31
0.0
   0
LINE
   5
4D4
 100
AcDbEntity
   8
LEVEL002
 100
AcDbLine
   6
CONTINUOUS
  62
3
  10
 61.140890790178
  20
 197.37285159780
  30
0.0
  11
 61.930890790111
  21
 200.37285159760
  31
0.0
   0
LINE
   5
4D5
 100
AcDbEntity
   8
LEVEL002
 100
AcDbLine
   6
CONTINUOUS
  62
3
  10
 64.088241059536
  20
 200.37285159760
  30
0.0
  11
 63.799565924823
  21
 200.87285159780
  31
0.0
   0
LINE
   5
4D6
 100
AcDbEntity
   8
LEVEL002
 100
AcDbLine
   6
CONTINUOUS
  62
3
  10
 63.799565924823
  20
 200.87285159780
  30
0.0
  11
 63.510890790111
  21
 200.37285159760
  31
0.0
   0
LINE
   5
4D7
 100
AcDbEntity
   8
LEVEL002
 100
AcDbLine
   6
CONTINUOUS
  62
3
  10
 62.508241059536
  20
 200.37285159760
  30
0.0
  11
 62.219565924823
  21
 200.87285159780
  31
0.0
   0
LINE
   5
4D8
 100
AcDbEntity
   8
LEVEL002
 100
AcDbLine
   6
CONTINUOUS
  62
3
  10
 62.219565924823
  20
 200.87285159780
  30
0.0
  11
 61.930890790111
  21
 200.37285159760
  31
0.0
   0
LINE
   5
4D9
 100
AcDbEntity
   8
LEVEL002
 100
AcDbLine
   6
CONTINUOUS
  62
3
  10
 63.298241059602
  20
 197.37285159780
  30
0.0
  11
 63.009565924890
  21
 196.87285159760
  31
0.0
   0
LINE
   5
4DA
 100
AcDbEntity
   8
LEVEL002
 100
AcDbLine
   6
CONTINUOUS
  62
3
  10
 63.009565924890
  20
 196.87285159760
  30
0.0
  11
 62.720890790178
  21
 197.37285159780
  31
0.0
   0
LINE
   5
4DB
 100
AcDbEntity
   8
LEVEL002
 100
AcDbLine
   6
CONTINUOUS
  62
3
  10
 61.718241059602
  20
 197.37285159780
  30
0.0
  11
 61.429565924890
  21
 196.87285159760
  31
0.0
   0
LINE
   5
4DC
 100
AcDbEntity
   8
LEVEL002
 100
AcDbLine
   6
CONTINUOUS
  62
3
  10
 61.429565924890
  20
 196.87285159760
  30
0.0
  11
 61.140890790178
  21
 197.37285159780
  31
0.0
   0
LINE
   5
4DD
 100
AcDbEntity
   8
LEVEL002
 100
AcDbLine
   6
CONTINUOUS
  62
3
  10
 60.639565924823
  20
 200.87285159780
  30
0.0
  11
 59.849565924890
  21
 196.87285159760
  31
0.0
   0
LINE
   5
4DE
 100
AcDbEntity
   8
LEVEL002
 100
AcDbLine
   6
CONTINUOUS
  62
3
  10
 59.059565924823
  20
 200.87285159780
  30
0.0
  11
 58.269565924890
  21
 196.87285159760
  31
0.0
   0
LINE
   5
4DF
 100
AcDbEntity
   8
LEVEL002
 100
AcDbLine
   6
CONTINUOUS
  62
3
  10
 60.928241059535
  20
 200.37285159760
  30
0.0
  11
 60.138241059602
  21
 197.37285159780
  31
0.0
   0
LINE
   5
4E0
 100
AcDbEntity
   8
LEVEL002
 100
AcDbLine
   6
CONTINUOUS
  62
3
  10
 60.350890790111
  20
 200.37285159760
  30
0.0
  11
 59.560890790178
  21
 197.37285159780
  31
0.0
   0
LINE
   5
4E1
 100
AcDbEntity
   8
LEVEL002
 100
AcDbLine
   6
CONTINUOUS
  62
3
  10
 59.348241059535
  20
 200.37285159760
  30
0.0
  11
 58.558241059602
  21
 197.37285159780
  31
0.0
   0
LINE
   5
4E2
 100
AcDbEntity
   8
LEVEL002
 100
AcDbLine
   6
CONTINUOUS
  62
3
  10
 57.980890790177
  20
 197.37285159780
  30
0.0
  11
 58.770890790111
  21
 200.37285159760
  31
0.0
   0
LINE
   5
4E3
 100
AcDbEntity
   8
LEVEL002
 100
AcDbLine
   6
CONTINUOUS
  62
3
  10
 60.928241059535
  20
 200.37285159760
  30
0.0
  11
 60.639565924823
  21
 200.87285159780
  31
0.0
   0
LINE
   5
4E4
 100
AcDbEntity
   8
LEVEL002
 100
AcDbLine
   6
CONTINUOUS
  62
3
  10
 60.639565924823
  20
 200.87285159780
  30
0.0
  11
 60.350890790111
  21
 200.37285159760
  31
0.0
   0
LINE
   5
4E5
 100
AcDbEntity
   8
LEVEL002
 100
AcDbLine
   6
CONTINUOUS
  62
3
  10
 59.348241059535
  20
 200.37285159760
  30
0.0
  11
 59.059565924823
  21
 200.87285159780
  31
0.0
   0
LINE
   5
4E6
 100
AcDbEntity
   8
LEVEL002
 100
AcDbLine
   6
CONTINUOUS
  62
3
  10
 59.059565924823
  20
 200.87285159780
  30
0.0
  11
 58.770890790111
  21
 200.37285159760
  31
0.0
   0
LINE
   5
4E7
 100
AcDbEntity
   8
LEVEL002
 100
AcDbLine
   6
CONTINUOUS
  62
3
  10
 60.138241059602
  20
 197.37285159780
  30
0.0
  11
 59.849565924890
  21
 196.87285159760
  31
0.0
   0
LINE
   5
4E8
 100
AcDbEntity
   8
LEVEL002
 100
AcDbLine
   6
CONTINUOUS
  62
3
  10
 59.849565924890
  20
 196.87285159760
  30
0.0
  11
 59.560890790178
  21
 197.37285159780
  31
0.0
   0
LINE
   5
4E9
 100
AcDbEntity
   8
LEVEL002
 100
AcDbLine
   6
CONTINUOUS
  62
3
  10
 58.558241059602
  20
 197.37285159780
  30
0.0
  11
 58.269565924890
  21
 196.87285159760
  31
0.0
   0
LINE
   5
4EA
 100
AcDbEntity
   8
LEVEL002
 100
AcDbLine
   6
CONTINUOUS
  62
3
  10
 58.269565924890
  20
 196.87285159760
  30
0.0
  11
 57.980890790177
  21
 197.37285159780
  31
0.0
   0
LINE
   5
4EB
 100
AcDbEntity
   8
LEVEL002
 100
AcDbLine
   6
CONTINUOUS
  62
3
  10
 57.479565924823
  20
 200.87285159780
  30
0.0
  11
 56.689565924890
  21
 196.87285159760
  31
0.0
   0
LINE
   5
4EC
 100
AcDbEntity
   8
LEVEL002
 100
AcDbLine
   6
CONTINUOUS
  62
3
  10
 55.899565924823
  20
 200.87285159780
  30
0.0
  11
 55.109565924889
  21
 196.87285159760
  31
0.0
   0
LINE
   5
4ED
 100
AcDbEntity
   8
LEVEL002
 100
AcDbLine
   6
CONTINUOUS
  62
3
  10
 57.768241059535
  20
 200.37285159760
  30
0.0
  11
 56.978241059602
  21
 197.37285159780
  31
0.0
   0
LINE
   5
4EE
 100
AcDbEntity
   8
LEVEL002
 100
AcDbLine
   6
CONTINUOUS
  62
3
  10
 57.190890790111
  20
 200.37285159760
  30
0.0
  11
 56.400890790177
  21
 197.37285159780
  31
0.0
   0
LINE
   5
4EF
 100
AcDbEntity
   8
LEVEL002
 100
AcDbLine
   6
CONTINUOUS
  62
3
  10
 56.188241059535
  20
 200.37285159760
  30
0.0
  11
 55.398241059602
  21
 197.37285159780
  31
0.0
   0
LINE
   5
4F0
 100
AcDbEntity
   8
LEVEL002
 100
AcDbLine
   6
CONTINUOUS
  62
3
  10
 54.820890790177
  20
 197.37285159780
  30
0.0
  11
 55.610890790111
  21
 200.37285159760
  31
0.0
   0
LINE
   5
4F1
 100
AcDbEntity
   8
LEVEL002
 100
AcDbLine
   6
CONTINUOUS
  62
3
  10
 57.768241059535
  20
 200.37285159760
  30
0.0
  11
 57.479565924823
  21
 200.87285159780
  31
0.0
   0
LINE
   5
4F2
 100
AcDbEntity
   8
LEVEL002
 100
AcDbLine
   6
CONTINUOUS
  62
3
  10
 57.479565924823
  20
 200.87285159780
  30
0.0
  11
 57.190890790111
  21
 200.37285159760
  31
0.0
   0
LINE
   5
4F3
 100
AcDbEntity
   8
LEVEL002
 100
AcDbLine
   6
CONTINUOUS
  62
3
  10
 56.188241059535
  20
 200.37285159760
  30
0.0
  11
 55.899565924823
  21
 200.87285159780
  31
0.0
   0
LINE
   5
4F4
 100
AcDbEntity
   8
LEVEL002
 100
AcDbLine
   6
CONTINUOUS
  62
3
  10
 55.899565924823
  20
 200.87285159780
  30
0.0
  11
 55.610890790111
  21
 200.37285159760
  31
0.0
   0
LINE
   5
4F5
 100
AcDbEntity
   8
LEVEL002
 100
AcDbLine
   6
CONTINUOUS
  62
3
  10
 56.978241059602
  20
 197.37285159780
  30
0.0
  11
 56.689565924890
  21
 196.87285159760
  31
0.0
   0
LINE
   5
4F6
 100
AcDbEntity
   8
LEVEL002
 100
AcDbLine
   6
CONTINUOUS
  62
3
  10
 56.689565924890
  20
 196.87285159760
  30
0.0
  11
 56.400890790177
  21
 197.37285159780
  31
0.0
   0
LINE
   5
4F7
 100
AcDbEntity
   8
LEVEL002
 100
AcDbLine
   6
CONTINUOUS
  62
3
  10
 55.398241059602
  20
 197.37285159780
  30
0.0
  11
 55.109565924889
  21
 196.87285159760
  31
0.0
   0
LINE
   5
4F8
 100
AcDbEntity
   8
LEVEL002
 100
AcDbLine
   6
CONTINUOUS
  62
3
  10
 55.109565924889
  20
 196.87285159760
  30
0.0
  11
 54.820890790177
  21
 197.37285159780
  31
0.0
   0
LINE
   5
4F9
 100
AcDbEntity
   8
LEVEL002
 100
AcDbLine
   6
CONTINUOUS
  62
3
  10
 54.319565924823
  20
 200.87285159780
  30
0.0
  11
 53.529565924890
  21
 196.87285159760
  31
0.0
   0
LINE
   5
4FA
 100
AcDbEntity
   8
LEVEL002
 100
AcDbLine
   6
CONTINUOUS
  62
3
  10
 52.739565924823
  20
 200.87285159780
  30
0.0
  11
 51.949565924890
  21
 196.87285159760
  31
0.0
   0
LINE
   5
4FB
 100
AcDbEntity
   8
LEVEL002
 100
AcDbLine
   6
CONTINUOUS
  62
3
  10
 54.608241059535
  20
 200.37285159760
  30
0.0
  11
 53.818241059602
  21
 197.37285159780
  31
0.0
   0
LINE
   5
4FC
 100
AcDbEntity
   8
LEVEL002
 100
AcDbLine
   6
CONTINUOUS
  62
3
  10
 54.030890790111
  20
 200.37285159760
  30
0.0
  11
 53.240890790177
  21
 197.37285159780
  31
0.0
   0
LINE
   5
4FD
 100
AcDbEntity
   8
LEVEL002
 100
AcDbLine
   6
CONTINUOUS
  62
3
  10
 53.028241059535
  20
 200.37285159760
  30
0.0
  11
 52.238241059602
  21
 197.37285159780
  31
0.0
   0
LINE
   5
4FE
 100
AcDbEntity
   8
LEVEL002
 100
AcDbLine
   6
CONTINUOUS
  62
3
  10
 51.660890790177
  20
 197.37285159780
  30
0.0
  11
 52.450890790111
  21
 200.37285159760
  31
0.0
   0
LINE
   5
4FF
 100
AcDbEntity
   8
LEVEL002
 100
AcDbLine
   6
CONTINUOUS
  62
3
  10
 54.608241059535
  20
 200.37285159760
  30
0.0
  11
 54.319565924823
  21
 200.87285159780
  31
0.0
   0
LINE
   5
500
 100
AcDbEntity
   8
LEVEL002
 100
AcDbLine
   6
CONTINUOUS
  62
3
  10
 54.319565924823
  20
 200.87285159780
  30
0.0
  11
 54.030890790111
  21
 200.37285159760
  31
0.0
   0
LINE
   5
501
 100
AcDbEntity
   8
LEVEL002
 100
AcDbLine
   6
CONTINUOUS
  62
3
  10
 53.028241059535
  20
 200.37285159760
  30
0.0
  11
 52.739565924823
  21
 200.87285159780
  31
0.0
   0
LINE
   5
502
 100
AcDbEntity
   8
LEVEL002
 100
AcDbLine
   6
CONTINUOUS
  62
3
  10
 52.739565924823
  20
 200.87285159780
  30
0.0
  11
 52.450890790111
  21
 200.37285159760
  31
0.0
   0
LINE
   5
503
 100
AcDbEntity
   8
LEVEL002
 100
AcDbLine
   6
CONTINUOUS
  62
3
  10
 53.818241059602
  20
 197.37285159780
  30
0.0
  11
 53.529565924890
  21
 196.87285159760
  31
0.0
   0
LINE
   5
504
 100
AcDbEntity
   8
LEVEL002
 100
AcDbLine
   6
CONTINUOUS
  62
3
  10
 53.529565924890
  20
 196.87285159760
  30
0.0
  11
 53.240890790177
  21
 197.37285159780
  31
0.0
   0
LINE
   5
505
 100
AcDbEntity
   8
LEVEL002
 100
AcDbLine
   6
CONTINUOUS
  62
3
  10
 52.238241059602
  20
 197.37285159780
  30
0.0
  11
 51.949565924890
  21
 196.87285159760
  31
0.0
   0
LINE
   5
506
 100
AcDbEntity
   8
LEVEL002
 100
AcDbLine
   6
CONTINUOUS
  62
3
  10
 51.949565924890
  20
 196.87285159760
  30
0.0
  11
 51.660890790177
  21
 197.37285159780
  31
0.0
   0
LINE
   5
507
 100
AcDbEntity
   8
LEVEL002
 100
AcDbLine
   6
CONTINUOUS
  62
3
  10
 51.159565924823
  20
 200.87285159780
  30
0.0
  11
 50.369565924890
  21
 196.87285159760
  31
0.0
   0
LINE
   5
508
 100
AcDbEntity
   8
LEVEL002
 100
AcDbLine
   6
CONTINUOUS
  62
3
  10
 49.579565924823
  20
 200.87285159780
  30
0.0
  11
 48.789565924890
  21
 196.87285159760
  31
0.0
   0
LINE
   5
509
 100
AcDbEntity
   8
LEVEL002
 100
AcDbLine
   6
CONTINUOUS
  62
3
  10
 51.448241059535
  20
 200.37285159760
  30
0.0
  11
 50.658241059602
  21
 197.37285159780
  31
0.0
   0
LINE
   5
50A
 100
AcDbEntity
   8
LEVEL002
 100
AcDbLine
   6
CONTINUOUS
  62
3
  10
 50.870890790111
  20
 200.37285159760
  30
0.0
  11
 50.080890790177
  21
 197.37285159780
  31
0.0
   0
LINE
   5
50B
 100
AcDbEntity
   8
LEVEL002
 100
AcDbLine
   6
CONTINUOUS
  62
3
  10
 49.868241059535
  20
 200.37285159760
  30
0.0
  11
 49.078241059602
  21
 197.37285159780
  31
0.0
   0
LINE
   5
50C
 100
AcDbEntity
   8
LEVEL002
 100
AcDbLine
   6
CONTINUOUS
  62
3
  10
 48.500890790177
  20
 197.37285159780
  30
0.0
  11
 49.290890790111
  21
 200.37285159760
  31
0.0
   0
LINE
   5
50D
 100
AcDbEntity
   8
LEVEL002
 100
AcDbLine
   6
CONTINUOUS
  62
3
  10
 51.448241059535
  20
 200.37285159760
  30
0.0
  11
 51.159565924823
  21
 200.87285159780
  31
0.0
   0
LINE
   5
50E
 100
AcDbEntity
   8
LEVEL002
 100
AcDbLine
   6
CONTINUOUS
  62
3
  10
 51.159565924823
  20
 200.87285159780
  30
0.0
  11
 50.870890790111
  21
 200.37285159760
  31
0.0
   0
LINE
   5
50F
 100
AcDbEntity
   8
LEVEL002
 100
AcDbLine
   6
CONTINUOUS
  62
3
  10
 49.868241059535
  20
 200.37285159760
  30
0.0
  11
 49.579565924823
  21
 200.87285159780
  31
0.0
   0
LINE
   5
510
 100
AcDbEntity
   8
LEVEL002
 100
AcDbLine
   6
CONTINUOUS
  62
3
  10
 49.579565924823
  20
 200.87285159780
  30
0.0
  11
 49.290890790111
  21
 200.37285159760
  31
0.0
   0
LINE
   5
511
 100
AcDbEntity
   8
LEVEL002
 100
AcDbLine
   6
CONTINUOUS
  62
3
  10
 50.658241059602
  20
 197.37285159780
  30
0.0
  11
 50.369565924890
  21
 196.87285159760
  31
0.0
   0
LINE
   5
512
 100
AcDbEntity
   8
LEVEL002
 100
AcDbLine
   6
CONTINUOUS
  62
3
  10
 50.369565924890
  20
 196.87285159760
  30
0.0
  11
 50.080890790177
  21
 197.37285159780
  31
0.0
   0
LINE
   5
513
 100
AcDbEntity
   8
LEVEL002
 100
AcDbLine
   6
CONTINUOUS
  62
3
  10
 49.078241059602
  20
 197.37285159780
  30
0.0
  11
 48.789565924890
  21
 196.87285159760
  31
0.0
   0
LINE
   5
514
 100
AcDbEntity
   8
LEVEL002
 100
AcDbLine
   6
CONTINUOUS
  62
3
  10
 48.789565924890
  20
 196.87285159760
  30
0.0
  11
 48.500890790177
  21
 197.37285159780
  31
0.0
   0
ARC
   5
515
 100
AcDbEntity
   8
LEVEL002
   6
CONTINUOUS
  62
3
 100
AcDbCircle
  10
 44.016850914383
  20
 198.87285159780
  30
0.0
  40
 0.30000000000000
 100
AcDbArc
  50
 110.40101745182
  51
 249.59898254778
   0
ARC
   5
516
 100
AcDbEntity
   8
LEVEL002
   6
CONTINUOUS
  62
3
 100
AcDbCircle
  10
 50.686360979536
  20
 180.94005419893
  30
0.0
  40
 19.432892804231
 100
AcDbArc
  50
 90.179537622764
  51
 92.426315426407
   0
LINE
   5
517
 100
AcDbEntity
   8
LEVEL002
 100
AcDbLine
   6
CONTINUOUS
  62
3
  10
 50.870890790229
  20
 200.37285159780
  30
0.0
  11
 50.625467669461
  21
 200.37285159780
  31
0.0
   0
LINE
   5
518
 100
AcDbEntity
   8
LEVEL002
 100
AcDbLine
   6
CONTINUOUS
  62
3
  10
 52.450890790228
  20
 200.37285159780
  30
0.0
  11
 51.448241059418
  21
 200.37285159780
  31
0.0
   0
LINE
   5
519
 100
AcDbEntity
   8
LEVEL002
 100
AcDbLine
   6
CONTINUOUS
  62
3
  10
 54.030890790228
  20
 200.37285159780
  30
0.0
  11
 53.028241059418
  21
 200.37285159780
  31
0.0
   0
LINE
   5
51A
 100
AcDbEntity
   8
LEVEL002
 100
AcDbLine
   6
CONTINUOUS
  62
3
  10
 53.240890790177
  20
 197.37285159780
  30
0.0
  11
 52.238241059602
  21
 197.37285159780
  31
0.0
   0
LINE
   5
51B
 100
AcDbEntity
   8
LEVEL002
 100
AcDbLine
   6
CONTINUOUS
  62
3
  10
 51.660890790177
  20
 197.37285159780
  30
0.0
  11
 50.625467669461
  21
 197.37285159780
  31
0.0
   0
ARC
   5
51C
 100
AcDbEntity
   8
LEVEL002
   6
CONTINUOUS
  62
3
 100
AcDbCircle
  10
 50.686360979535
  20
 216.80564899667
  30
0.0
  40
 19.432892804231
 100
AcDbArc
  50
 265.30395202727
  51
 268.22174338020
   0
LINE
   5
51D
 100
AcDbEntity
   8
LEVEL002
 100
AcDbLine
   6
CONTINUOUS
  62
3
  10
 55.610890790228
  20
 200.37285159780
  30
0.0
  11
 54.608241059418
  21
 200.37285159780
  31
0.0
   0
LINE
   5
51E
 100
AcDbEntity
   8
LEVEL002
 100
AcDbLine
   6
CONTINUOUS
  62
3
  10
 57.190890790228
  20
 200.37285159780
  30
0.0
  11
 56.188241059418
  21
 200.37285159780
  31
0.0
   0
LINE
   5
51F
 100
AcDbEntity
   8
LEVEL002
 100
AcDbLine
   6
CONTINUOUS
  62
3
  10
 58.770890790228
  20
 200.37285159780
  30
0.0
  11
 57.768241059418
  21
 200.37285159780
  31
0.0
   0
LINE
   5
520
 100
AcDbEntity
   8
LEVEL002
 100
AcDbLine
   6
CONTINUOUS
  62
3
  10
 54.820890790177
  20
 197.37285159780
  30
0.0
  11
 53.818241059602
  21
 197.37285159780
  31
0.0
   0
LINE
   5
521
 100
AcDbEntity
   8
LEVEL002
 100
AcDbLine
   6
CONTINUOUS
  62
3
  10
 56.400890790177
  20
 197.37285159780
  30
0.0
  11
 55.398241059602
  21
 197.37285159780
  31
0.0
   0
LINE
   5
522
 100
AcDbEntity
   8
LEVEL002
 100
AcDbLine
   6
CONTINUOUS
  62
3
  10
 57.980890790177
  20
 197.37285159780
  30
0.0
  11
 56.978241059602
  21
 197.37285159780
  31
0.0
   0
LINE
   5
523
 100
AcDbEntity
   8
LEVEL002
 100
AcDbLine
   6
CONTINUOUS
  62
3
  10
 59.560890790178
  20
 197.37285159780
  30
0.0
  11
 58.558241059602
  21
 197.37285159780
  31
0.0
   0
LINE
   5
524
 100
AcDbEntity
   8
LEVEL002
 100
AcDbLine
   6
CONTINUOUS
  62
3
  10
 61.140890790178
  20
 197.37285159780
  30
0.0
  11
 60.138241059602
  21
 197.37285159780
  31
0.0
   0
LINE
   5
525
 100
AcDbEntity
   8
LEVEL002
 100
AcDbLine
   6
CONTINUOUS
  62
3
  10
 62.720890790178
  20
 197.37285159780
  30
0.0
  11
 61.718241059602
  21
 197.37285159780
  31
0.0
   0
LINE
   5
526
 100
AcDbEntity
   8
LEVEL002
 100
AcDbLine
   6
CONTINUOUS
  62
3
  10
 60.350890790229
  20
 200.37285159780
  30
0.0
  11
 59.348241059418
  21
 200.37285159780
  31
0.0
   0
LINE
   5
527
 100
AcDbEntity
   8
LEVEL002
 100
AcDbLine
   6
CONTINUOUS
  62
3
  10
 61.930890790229
  20
 200.37285159780
  30
0.0
  11
 60.928241059418
  21
 200.37285159780
  31
0.0
   0
LINE
   5
528
 100
AcDbEntity
   8
LEVEL002
 100
AcDbLine
   6
CONTINUOUS
  62
3
  10
 63.510890790229
  20
 200.37285159780
  30
0.0
  11
 62.508241059418
  21
 200.37285159780
  31
0.0
   0
LINE
   5
529
 100
AcDbEntity
   8
LEVEL002
 100
AcDbLine
   6
CONTINUOUS
  62
3
  10
 65.090890790229
  20
 200.37285159780
  30
0.0
  11
 64.088241059418
  21
 200.37285159780
  31
0.0
   0
LINE
   5
52A
 100
AcDbEntity
   8
LEVEL002
 100
AcDbLine
   6
CONTINUOUS
  62
3
  10
 66.670890790229
  20
 200.37285159780
  30
0.0
  11
 65.668241059418
  21
 200.37285159780
  31
0.0
   0
LINE
   5
52B
 100
AcDbEntity
   8
LEVEL002
 100
AcDbLine
   6
CONTINUOUS
  62
3
  10
 64.300890790178
  20
 197.37285159780
  30
0.0
  11
 63.298241059602
  21
 197.37285159780
  31
0.0
   0
LINE
   5
52C
 100
AcDbEntity
   8
LEVEL002
 100
AcDbLine
   6
CONTINUOUS
  62
3
  10
 65.880890790178
  20
 197.37285159780
  30
0.0
  11
 64.878241059602
  21
 197.37285159780
  31
0.0
   0
LINE
   5
52D
 100
AcDbEntity
   8
LEVEL002
 100
AcDbLine
   6
CONTINUOUS
  62
3
  10
 67.460890790178
  20
 197.37285159780
  30
0.0
  11
 66.458241059602
  21
 197.37285159780
  31
0.0
   0
LINE
   5
52E
 100
AcDbEntity
   8
LEVEL002
 100
AcDbLine
   6
CONTINUOUS
  62
3
  10
 69.040890790178
  20
 197.37285159780
  30
0.0
  11
 68.038241059602
  21
 197.37285159780
  31
0.0
   0
LINE
   5
52F
 100
AcDbEntity
   8
LEVEL002
 100
AcDbLine
   6
CONTINUOUS
  62
3
  10
 68.250890790165
  20
 200.37285159780
  30
0.0
  11
 67.248241059418
  21
 200.37285159780
  31
0.0
   0
LINE
   5
530
 100
AcDbEntity
   8
LEVEL002
 100
AcDbLine
   6
CONTINUOUS
  62
3
  10
 69.830890790165
  20
 200.37285159780
  30
0.0
  11
 68.828241059589
  21
 200.37285159780
  31
0.0
   0
LINE
   5
531
 100
AcDbEntity
   8
LEVEL002
 100
AcDbLine
   6
CONTINUOUS
  62
3
  10
 46.580449559614
  20
 199.72580602846
  30
0.0
  11
 46.291774424901
  21
 200.22580602866
  31
0.0
   0
LINE
   5
532
 100
AcDbEntity
   8
LEVEL002
 100
AcDbLine
   6
CONTINUOUS
  62
3
  10
 46.291774424901
  20
 200.22580602866
  30
0.0
  11
 46.003099290189
  21
 199.72580602846
  31
0.0
   0
LINE
   5
533
 100
AcDbEntity
   8
LEVEL002
 100
AcDbLine
   6
CONTINUOUS
  62
3
  10
 48.239042093301
  20
 200.12374290805
  30
0.0
  11
 47.950366958589
  21
 200.62374290826
  31
0.0
   0
LINE
   5
534
 100
AcDbEntity
   8
LEVEL002
 100
AcDbLine
   6
CONTINUOUS
  62
3
  10
 47.950366958589
  20
 200.62374290826
  30
0.0
  11
 47.661691823877
  21
 200.12374290805
  31
0.0
   0
LINE
   5
535
 100
AcDbEntity
   8
LEVEL002
 100
AcDbLine
   6
CONTINUOUS
  62
3
  10
 46.070210286397
  20
 198.14231603742
  30
0.0
  11
 45.781535151685
  21
 197.64231603721
  31
0.0
   0
LINE
   5
536
 100
AcDbEntity
   8
LEVEL002
 100
AcDbLine
   6
CONTINUOUS
  62
3
  10
 45.781535151685
  20
 197.64231603721
  30
0.0
  11
 45.492860016973
  21
 198.14231603742
  31
0.0
   0
LINE
   5
537
 100
AcDbEntity
   8
LEVEL002
 100
AcDbLine
   6
CONTINUOUS
  62
3
  10
 46.291774424901
  20
 200.22580602866
  30
0.0
  11
 45.781535151685
  21
 197.64231603721
  31
0.0
   0
LINE
   5
538
 100
AcDbEntity
   8
LEVEL002
 100
AcDbLine
   6
CONTINUOUS
  62
3
  10
 46.580449559614
  20
 199.72580602846
  30
0.0
  11
 46.070210286397
  21
 198.14231603742
  31
0.0
   0
LINE
   5
539
 100
AcDbEntity
   8
LEVEL002
 100
AcDbLine
   6
CONTINUOUS
  62
3
  10
 45.492860016973
  20
 198.14231603742
  30
0.0
  11
 46.003099290189
  21
 199.72580602846
  31
0.0
   0
LINE
   5
53A
 100
AcDbEntity
   8
LEVEL002
 100
AcDbLine
   6
CONTINUOUS
  62
3
  10
 47.572099530000
  20
 197.74681853661
  30
0.0
  11
 47.283424395288
  21
 197.24681853640
  31
0.0
   0
LINE
   5
53B
 100
AcDbEntity
   8
LEVEL002
 100
AcDbLine
   6
CONTINUOUS
  62
3
  10
 47.283424395288
  20
 197.24681853640
  30
0.0
  11
 46.994749260576
  21
 197.74681853661
  31
0.0
   0
LINE
   5
53C
 100
AcDbEntity
   8
LEVEL002
 100
AcDbLine
   6
CONTINUOUS
  62
3
  10
 47.950366958589
  20
 200.62374290826
  30
0.0
  11
 47.283424395288
  21
 197.24681853640
  31
0.0
   0
LINE
   5
53D
 100
AcDbEntity
   8
LEVEL002
 100
AcDbLine
   6
CONTINUOUS
  62
3
  10
 48.239042093301
  20
 200.12374290805
  30
0.0
  11
 47.572099530000
  21
 197.74681853661
  31
0.0
   0
LINE
   5
53E
 100
AcDbEntity
   8
LEVEL002
 100
AcDbLine
   6
CONTINUOUS
  62
3
  10
 47.661691823877
  20
 200.12374290805
  30
0.0
  11
 46.994749260576
  21
 197.74681853661
  31
0.0
   0
ARC
   5
53F
 100
AcDbEntity
   8
LEVEL002
   6
CONTINUOUS
  62
3
 100
AcDbCircle
  10
 50.686360979536
  20
 216.80564899667
  30
0.0
  40
 19.432892804231
 100
AcDbArc
  50
 249.59898254943
  51
 254.63087816947
   0
ARC
   5
540
 100
AcDbEntity
   8
LEVEL002
   6
CONTINUOUS
  62
3
 100
AcDbCircle
  10
 50.686360979540
  20
 216.80564899667
  30
0.0
  40
 19.432892804231
 100
AcDbArc
  50
 255.93109632252
  51
 259.08854364282
   0
ARC
   5
541
 100
AcDbEntity
   8
LEVEL002
   6
CONTINUOUS
  62
3
 100
AcDbCircle
  10
 50.686360979534
  20
 216.80564899667
  30
0.0
  40
 19.432892804231
 100
AcDbArc
  50
 260.58451850351
  51
 263.63619689814
   0
ARC
   5
542
 100
AcDbEntity
   8
LEVEL002
   6
CONTINUOUS
  62
3
 100
AcDbCircle
  10
 50.686360979536
  20
 180.94005419893
  30
0.0
  40
 19.432892804231
 100
AcDbArc
  50
 103.79328221386
  51
 110.40101745057
   0
ARC
   5
543
 100
AcDbEntity
   8
LEVEL002
   6
CONTINUOUS
  62
3
 100
AcDbCircle
  10
 50.686360979536
  20
 180.94005419893
  30
0.0
  40
 19.432892804231
 100
AcDbArc
  50
 98.930867625169
  51
 102.52019006565
   0
ARC
   5
544
 100
AcDbEntity
   8
LEVEL002
   6
CONTINUOUS
  62
3
 100
AcDbCircle
  10
 50.686360979537
  20
 180.94005419893
  30
0.0
  40
 19.432892804231
 100
AcDbArc
  50
 94.157673159570
  51
 97.385838022039
   0
LINE
   5
545
 100
AcDbEntity
   8
LEVEL002
 100
AcDbLine
   6
CONTINUOUS
  62
3
  10
 70.408241059536
  20
 220.37285159760
  30
0.0
  11
 70.119565924824
  21
 220.87285159780
  31
0.0
   0
LINE
   5
546
 100
AcDbEntity
   8
LEVEL002
 100
AcDbLine
   6
CONTINUOUS
  62
3
  10
 70.119565924824
  20
 220.87285159780
  30
0.0
  11
 69.830890790112
  21
 220.37285159760
  31
0.0
   0
LINE
   5
547
 100
AcDbEntity
   8
LEVEL002
 100
AcDbLine
   6
CONTINUOUS
  62
3
  10
 69.618241059602
  20
 217.37285159780
  30
0.0
  11
 69.329565924890
  21
 216.87285159760
  31
0.0
   0
LINE
   5
548
 100
AcDbEntity
   8
LEVEL002
 100
AcDbLine
   6
CONTINUOUS
  62
3
  10
 69.329565924890
  20
 216.87285159760
  30
0.0
  11
 69.040890790178
  21
 217.37285159780
  31
0.0
   0
LINE
   5
549
 100
AcDbEntity
   8
LEVEL002
 100
AcDbLine
   6
CONTINUOUS
  62
3
  10
 68.828241059536
  20
 220.37285159760
  30
0.0
  11
 68.539565924824
  21
 220.87285159780
  31
0.0
   0
LINE
   5
54A
 100
AcDbEntity
   8
LEVEL002
 100
AcDbLine
   6
CONTINUOUS
  62
3
  10
 68.539565924824
  20
 220.87285159780
  30
0.0
  11
 68.250890790112
  21
 220.37285159760
  31
0.0
   0
LINE
   5
54B
 100
AcDbEntity
   8
LEVEL002
 100
AcDbLine
   6
CONTINUOUS
  62
3
  10
 68.038241059602
  20
 217.37285159780
  30
0.0
  11
 67.749565924890
  21
 216.87285159760
  31
0.0
   0
LINE
   5
54C
 100
AcDbEntity
   8
LEVEL002
 100
AcDbLine
   6
CONTINUOUS
  62
3
  10
 67.749565924890
  20
 216.87285159760
  30
0.0
  11
 67.460890790178
  21
 217.37285159780
  31
0.0
   0
LINE
   5
54D
 100
AcDbEntity
   8
LEVEL002
 100
AcDbLine
   6
CONTINUOUS
  62
3
  10
 70.119565924824
  20
 220.87285159780
  30
0.0
  11
 69.329565924890
  21
 216.87285159760
  31
0.0
   0
LINE
   5
54E
 100
AcDbEntity
   8
LEVEL002
 100
AcDbLine
   6
CONTINUOUS
  62
3
  10
 68.539565924824
  20
 220.87285159780
  30
0.0
  11
 67.749565924890
  21
 216.87285159760
  31
0.0
   0
LINE
   5
54F
 100
AcDbEntity
   8
LEVEL002
 100
AcDbLine
   6
CONTINUOUS
  62
3
  10
 70.408241059536
  20
 220.37285159760
  30
0.0
  11
 69.618241059602
  21
 217.37285159780
  31
0.0
   0
LINE
   5
550
 100
AcDbEntity
   8
LEVEL002
 100
AcDbLine
   6
CONTINUOUS
  62
3
  10
 69.830890790112
  20
 220.37285159760
  30
0.0
  11
 69.040890790178
  21
 217.37285159780
  31
0.0
   0
LINE
   5
551
 100
AcDbEntity
   8
LEVEL002
 100
AcDbLine
   6
CONTINUOUS
  62
3
  10
 68.828241059536
  20
 220.37285159760
  30
0.0
  11
 68.038241059602
  21
 217.37285159780
  31
0.0
   0
LINE
   5
552
 100
AcDbEntity
   8
LEVEL002
 100
AcDbLine
   6
CONTINUOUS
  62
3
  10
 67.460890790178
  20
 217.37285159780
  30
0.0
  11
 68.250890790112
  21
 220.37285159760
  31
0.0
   0
LINE
   5
553
 100
AcDbEntity
   8
LEVEL002
 100
AcDbLine
   6
CONTINUOUS
  62
3
  10
 66.959565924824
  20
 220.87285159780
  30
0.0
  11
 66.169565924890
  21
 216.87285159760
  31
0.0
   0
LINE
   5
554
 100
AcDbEntity
   8
LEVEL002
 100
AcDbLine
   6
CONTINUOUS
  62
3
  10
 65.379565924824
  20
 220.87285159780
  30
0.0
  11
 64.589565924890
  21
 216.87285159760
  31
0.0
   0
LINE
   5
555
 100
AcDbEntity
   8
LEVEL002
 100
AcDbLine
   6
CONTINUOUS
  62
3
  10
 67.248241059536
  20
 220.37285159760
  30
0.0
  11
 66.458241059602
  21
 217.37285159780
  31
0.0
   0
LINE
   5
556
 100
AcDbEntity
   8
LEVEL002
 100
AcDbLine
   6
CONTINUOUS
  62
3
  10
 66.670890790111
  20
 220.37285159760
  30
0.0
  11
 65.880890790178
  21
 217.37285159780
  31
0.0
   0
LINE
   5
557
 100
AcDbEntity
   8
LEVEL002
 100
AcDbLine
   6
CONTINUOUS
  62
3
  10
 65.668241059536
  20
 220.37285159760
  30
0.0
  11
 64.878241059602
  21
 217.37285159780
  31
0.0
   0
LINE
   5
558
 100
AcDbEntity
   8
LEVEL002
 100
AcDbLine
   6
CONTINUOUS
  62
3
  10
 64.300890790178
  20
 217.37285159780
  30
0.0
  11
 65.090890790111
  21
 220.37285159760
  31
0.0
   0
LINE
   5
559
 100
AcDbEntity
   8
LEVEL002
 100
AcDbLine
   6
CONTINUOUS
  62
3
  10
 67.248241059536
  20
 220.37285159760
  30
0.0
  11
 66.959565924824
  21
 220.87285159780
  31
0.0
   0
LINE
   5
55A
 100
AcDbEntity
   8
LEVEL002
 100
AcDbLine
   6
CONTINUOUS
  62
3
  10
 66.959565924824
  20
 220.87285159780
  30
0.0
  11
 66.670890790111
  21
 220.37285159760
  31
0.0
   0
LINE
   5
55B
 100
AcDbEntity
   8
LEVEL002
 100
AcDbLine
   6
CONTINUOUS
  62
3
  10
 65.668241059536
  20
 220.37285159760
  30
0.0
  11
 65.379565924824
  21
 220.87285159780
  31
0.0
   0
LINE
   5
55C
 100
AcDbEntity
   8
LEVEL002
 100
AcDbLine
   6
CONTINUOUS
  62
3
  10
 65.379565924824
  20
 220.87285159780
  30
0.0
  11
 65.090890790111
  21
 220.37285159760
  31
0.0
   0
LINE
   5
55D
 100
AcDbEntity
   8
LEVEL002
 100
AcDbLine
   6
CONTINUOUS
  62
3
  10
 66.458241059602
  20
 217.37285159780
  30
0.0
  11
 66.169565924890
  21
 216.87285159760
  31
0.0
   0
LINE
   5
55E
 100
AcDbEntity
   8
LEVEL002
 100
AcDbLine
   6
CONTINUOUS
  62
3
  10
 66.169565924890
  20
 216.87285159760
  30
0.0
  11
 65.880890790178
  21
 217.37285159780
  31
0.0
   0
LINE
   5
55F
 100
AcDbEntity
   8
LEVEL002
 100
AcDbLine
   6
CONTINUOUS
  62
3
  10
 64.878241059602
  20
 217.37285159780
  30
0.0
  11
 64.589565924890
  21
 216.87285159760
  31
0.0
   0
LINE
   5
560
 100
AcDbEntity
   8
LEVEL002
 100
AcDbLine
   6
CONTINUOUS
  62
3
  10
 64.589565924890
  20
 216.87285159760
  30
0.0
  11
 64.300890790178
  21
 217.37285159780
  31
0.0
   0
LINE
   5
561
 100
AcDbEntity
   8
LEVEL002
 100
AcDbLine
   6
CONTINUOUS
  62
3
  10
 63.799565924823
  20
 220.87285159780
  30
0.0
  11
 63.009565924890
  21
 216.87285159760
  31
0.0
   0
LINE
   5
562
 100
AcDbEntity
   8
LEVEL002
 100
AcDbLine
   6
CONTINUOUS
  62
3
  10
 62.219565924823
  20
 220.87285159780
  30
0.0
  11
 61.429565924890
  21
 216.87285159760
  31
0.0
   0
LINE
   5
563
 100
AcDbEntity
   8
LEVEL002
 100
AcDbLine
   6
CONTINUOUS
  62
3
  10
 64.088241059536
  20
 220.37285159760
  30
0.0
  11
 63.298241059602
  21
 217.37285159780
  31
0.0
   0
LINE
   5
564
 100
AcDbEntity
   8
LEVEL002
 100
AcDbLine
   6
CONTINUOUS
  62
3
  10
 63.510890790111
  20
 220.37285159760
  30
0.0
  11
 62.720890790178
  21
 217.37285159780
  31
0.0
   0
LINE
   5
565
 100
AcDbEntity
   8
LEVEL002
 100
AcDbLine
   6
CONTINUOUS
  62
3
  10
 62.508241059536
  20
 220.37285159760
  30
0.0
  11
 61.718241059602
  21
 217.37285159780
  31
0.0
   0
LINE
   5
566
 100
AcDbEntity
   8
LEVEL002
 100
AcDbLine
   6
CONTINUOUS
  62
3
  10
 61.140890790178
  20
 217.37285159780
  30
0.0
  11
 61.930890790111
  21
 220.37285159760
  31
0.0
   0
LINE
   5
567
 100
AcDbEntity
   8
LEVEL002
 100
AcDbLine
   6
CONTINUOUS
  62
3
  10
 64.088241059536
  20
 220.37285159760
  30
0.0
  11
 63.799565924823
  21
 220.87285159780
  31
0.0
   0
LINE
   5
568
 100
AcDbEntity
   8
LEVEL002
 100
AcDbLine
   6
CONTINUOUS
  62
3
  10
 63.799565924823
  20
 220.87285159780
  30
0.0
  11
 63.510890790111
  21
 220.37285159760
  31
0.0
   0
LINE
   5
569
 100
AcDbEntity
   8
LEVEL002
 100
AcDbLine
   6
CONTINUOUS
  62
3
  10
 62.508241059536
  20
 220.37285159760
  30
0.0
  11
 62.219565924823
  21
 220.87285159780
  31
0.0
   0
LINE
   5
56A
 100
AcDbEntity
   8
LEVEL002
 100
AcDbLine
   6
CONTINUOUS
  62
3
  10
 62.219565924823
  20
 220.87285159780
  30
0.0
  11
 61.930890790111
  21
 220.37285159760
  31
0.0
   0
LINE
   5
56B
 100
AcDbEntity
   8
LEVEL002
 100
AcDbLine
   6
CONTINUOUS
  62
3
  10
 63.298241059602
  20
 217.37285159780
  30
0.0
  11
 63.009565924890
  21
 216.87285159760
  31
0.0
   0
LINE
   5
56C
 100
AcDbEntity
   8
LEVEL002
 100
AcDbLine
   6
CONTINUOUS
  62
3
  10
 63.009565924890
  20
 216.87285159760
  30
0.0
  11
 62.720890790178
  21
 217.37285159780
  31
0.0
   0
LINE
   5
56D
 100
AcDbEntity
   8
LEVEL002
 100
AcDbLine
   6
CONTINUOUS
  62
3
  10
 61.718241059602
  20
 217.37285159780
  30
0.0
  11
 61.429565924890
  21
 216.87285159760
  31
0.0
   0
LINE
   5
56E
 100
AcDbEntity
   8
LEVEL002
 100
AcDbLine
   6
CONTINUOUS
  62
3
  10
 61.429565924890
  20
 216.87285159760
  30
0.0
  11
 61.140890790178
  21
 217.37285159780
  31
0.0
   0
LINE
   5
56F
 100
AcDbEntity
   8
LEVEL002
 100
AcDbLine
   6
CONTINUOUS
  62
3
  10
 60.639565924823
  20
 220.87285159780
  30
0.0
  11
 59.849565924890
  21
 216.87285159760
  31
0.0
   0
LINE
   5
570
 100
AcDbEntity
   8
LEVEL002
 100
AcDbLine
   6
CONTINUOUS
  62
3
  10
 59.059565924823
  20
 220.87285159780
  30
0.0
  11
 58.269565924890
  21
 216.87285159760
  31
0.0
   0
LINE
   5
571
 100
AcDbEntity
   8
LEVEL002
 100
AcDbLine
   6
CONTINUOUS
  62
3
  10
 60.928241059535
  20
 220.37285159760
  30
0.0
  11
 60.138241059602
  21
 217.37285159780
  31
0.0
   0
LINE
   5
572
 100
AcDbEntity
   8
LEVEL002
 100
AcDbLine
   6
CONTINUOUS
  62
3
  10
 60.350890790111
  20
 220.37285159760
  30
0.0
  11
 59.560890790178
  21
 217.37285159780
  31
0.0
   0
LINE
   5
573
 100
AcDbEntity
   8
LEVEL002
 100
AcDbLine
   6
CONTINUOUS
  62
3
  10
 59.348241059535
  20
 220.37285159760
  30
0.0
  11
 58.558241059602
  21
 217.37285159780
  31
0.0
   0
LINE
   5
574
 100
AcDbEntity
   8
LEVEL002
 100
AcDbLine
   6
CONTINUOUS
  62
3
  10
 57.980890790177
  20
 217.37285159780
  30
0.0
  11
 58.770890790111
  21
 220.37285159760
  31
0.0
   0
LINE
   5
575
 100
AcDbEntity
   8
LEVEL002
 100
AcDbLine
   6
CONTINUOUS
  62
3
  10
 60.928241059535
  20
 220.37285159760
  30
0.0
  11
 60.639565924823
  21
 220.87285159780
  31
0.0
   0
LINE
   5
576
 100
AcDbEntity
   8
LEVEL002
 100
AcDbLine
   6
CONTINUOUS
  62
3
  10
 60.639565924823
  20
 220.87285159780
  30
0.0
  11
 60.350890790111
  21
 220.37285159760
  31
0.0
   0
LINE
   5
577
 100
AcDbEntity
   8
LEVEL002
 100
AcDbLine
   6
CONTINUOUS
  62
3
  10
 59.348241059535
  20
 220.37285159760
  30
0.0
  11
 59.059565924823
  21
 220.87285159780
  31
0.0
   0
LINE
   5
578
 100
AcDbEntity
   8
LEVEL002
 100
AcDbLine
   6
CONTINUOUS
  62
3
  10
 59.059565924823
  20
 220.87285159780
  30
0.0
  11
 58.770890790111
  21
 220.37285159760
  31
0.0
   0
LINE
   5
579
 100
AcDbEntity
   8
LEVEL002
 100
AcDbLine
   6
CONTINUOUS
  62
3
  10
 60.138241059602
  20
 217.37285159780
  30
0.0
  11
 59.849565924890
  21
 216.87285159760
  31
0.0
   0
LINE
   5
57A
 100
AcDbEntity
   8
LEVEL002
 100
AcDbLine
   6
CONTINUOUS
  62
3
  10
 59.849565924890
  20
 216.87285159760
  30
0.0
  11
 59.560890790178
  21
 217.37285159780
  31
0.0
   0
LINE
   5
57B
 100
AcDbEntity
   8
LEVEL002
 100
AcDbLine
   6
CONTINUOUS
  62
3
  10
 58.558241059602
  20
 217.37285159780
  30
0.0
  11
 58.269565924890
  21
 216.87285159760
  31
0.0
   0
LINE
   5
57C
 100
AcDbEntity
   8
LEVEL002
 100
AcDbLine
   6
CONTINUOUS
  62
3
  10
 58.269565924890
  20
 216.87285159760
  30
0.0
  11
 57.980890790177
  21
 217.37285159780
  31
0.0
   0
LINE
   5
57D
 100
AcDbEntity
   8
LEVEL002
 100
AcDbLine
   6
CONTINUOUS
  62
3
  10
 57.479565924823
  20
 220.87285159780
  30
0.0
  11
 56.689565924890
  21
 216.87285159760
  31
0.0
   0
LINE
   5
57E
 100
AcDbEntity
   8
LEVEL002
 100
AcDbLine
   6
CONTINUOUS
  62
3
  10
 55.899565924823
  20
 220.87285159780
  30
0.0
  11
 55.109565924889
  21
 216.87285159760
  31
0.0
   0
LINE
   5
57F
 100
AcDbEntity
   8
LEVEL002
 100
AcDbLine
   6
CONTINUOUS
  62
3
  10
 57.768241059535
  20
 220.37285159760
  30
0.0
  11
 56.978241059602
  21
 217.37285159780
  31
0.0
   0
LINE
   5
580
 100
AcDbEntity
   8
LEVEL002
 100
AcDbLine
   6
CONTINUOUS
  62
3
  10
 57.190890790111
  20
 220.37285159760
  30
0.0
  11
 56.400890790177
  21
 217.37285159780
  31
0.0
   0
LINE
   5
581
 100
AcDbEntity
   8
LEVEL002
 100
AcDbLine
   6
CONTINUOUS
  62
3
  10
 56.188241059535
  20
 220.37285159760
  30
0.0
  11
 55.398241059602
  21
 217.37285159780
  31
0.0
   0
LINE
   5
582
 100
AcDbEntity
   8
LEVEL002
 100
AcDbLine
   6
CONTINUOUS
  62
3
  10
 54.820890790177
  20
 217.37285159780
  30
0.0
  11
 55.610890790111
  21
 220.37285159760
  31
0.0
   0
LINE
   5
583
 100
AcDbEntity
   8
LEVEL002
 100
AcDbLine
   6
CONTINUOUS
  62
3
  10
 57.768241059535
  20
 220.37285159760
  30
0.0
  11
 57.479565924823
  21
 220.87285159780
  31
0.0
   0
LINE
   5
584
 100
AcDbEntity
   8
LEVEL002
 100
AcDbLine
   6
CONTINUOUS
  62
3
  10
 57.479565924823
  20
 220.87285159780
  30
0.0
  11
 57.190890790111
  21
 220.37285159760
  31
0.0
   0
LINE
   5
585
 100
AcDbEntity
   8
LEVEL002
 100
AcDbLine
   6
CONTINUOUS
  62
3
  10
 56.188241059535
  20
 220.37285159760
  30
0.0
  11
 55.899565924823
  21
 220.87285159780
  31
0.0
   0
LINE
   5
586
 100
AcDbEntity
   8
LEVEL002
 100
AcDbLine
   6
CONTINUOUS
  62
3
  10
 55.899565924823
  20
 220.87285159780
  30
0.0
  11
 55.610890790111
  21
 220.37285159760
  31
0.0
   0
LINE
   5
587
 100
AcDbEntity
   8
LEVEL002
 100
AcDbLine
   6
CONTINUOUS
  62
3
  10
 56.978241059602
  20
 217.37285159780
  30
0.0
  11
 56.689565924890
  21
 216.87285159760
  31
0.0
   0
LINE
   5
588
 100
AcDbEntity
   8
LEVEL002
 100
AcDbLine
   6
CONTINUOUS
  62
3
  10
 56.689565924890
  20
 216.87285159760
  30
0.0
  11
 56.400890790177
  21
 217.37285159780
  31
0.0
   0
LINE
   5
589
 100
AcDbEntity
   8
LEVEL002
 100
AcDbLine
   6
CONTINUOUS
  62
3
  10
 55.398241059602
  20
 217.37285159780
  30
0.0
  11
 55.109565924889
  21
 216.87285159760
  31
0.0
   0
LINE
   5
58A
 100
AcDbEntity
   8
LEVEL002
 100
AcDbLine
   6
CONTINUOUS
  62
3
  10
 55.109565924889
  20
 216.87285159760
  30
0.0
  11
 54.820890790177
  21
 217.37285159780
  31
0.0
   0
LINE
   5
58B
 100
AcDbEntity
   8
LEVEL002
 100
AcDbLine
   6
CONTINUOUS
  62
3
  10
 54.319565924823
  20
 220.87285159780
  30
0.0
  11
 53.529565924890
  21
 216.87285159760
  31
0.0
   0
LINE
   5
58C
 100
AcDbEntity
   8
LEVEL002
 100
AcDbLine
   6
CONTINUOUS
  62
3
  10
 52.739565924823
  20
 220.87285159780
  30
0.0
  11
 51.949565924890
  21
 216.87285159760
  31
0.0
   0
LINE
   5
58D
 100
AcDbEntity
   8
LEVEL002
 100
AcDbLine
   6
CONTINUOUS
  62
3
  10
 54.608241059535
  20
 220.37285159760
  30
0.0
  11
 53.818241059602
  21
 217.37285159780
  31
0.0
   0
LINE
   5
58E
 100
AcDbEntity
   8
LEVEL002
 100
AcDbLine
   6
CONTINUOUS
  62
3
  10
 54.030890790111
  20
 220.37285159760
  30
0.0
  11
 53.240890790177
  21
 217.37285159780
  31
0.0
   0
LINE
   5
58F
 100
AcDbEntity
   8
LEVEL002
 100
AcDbLine
   6
CONTINUOUS
  62
3
  10
 53.028241059535
  20
 220.37285159760
  30
0.0
  11
 52.238241059602
  21
 217.37285159780
  31
0.0
   0
LINE
   5
590
 100
AcDbEntity
   8
LEVEL002
 100
AcDbLine
   6
CONTINUOUS
  62
3
  10
 51.660890790177
  20
 217.37285159780
  30
0.0
  11
 52.450890790111
  21
 220.37285159760
  31
0.0
   0
LINE
   5
591
 100
AcDbEntity
   8
LEVEL002
 100
AcDbLine
   6
CONTINUOUS
  62
3
  10
 54.608241059535
  20
 220.37285159760
  30
0.0
  11
 54.319565924823
  21
 220.87285159780
  31
0.0
   0
LINE
   5
592
 100
AcDbEntity
   8
LEVEL002
 100
AcDbLine
   6
CONTINUOUS
  62
3
  10
 54.319565924823
  20
 220.87285159780
  30
0.0
  11
 54.030890790111
  21
 220.37285159760
  31
0.0
   0
LINE
   5
593
 100
AcDbEntity
   8
LEVEL002
 100
AcDbLine
   6
CONTINUOUS
  62
3
  10
 53.028241059535
  20
 220.37285159760
  30
0.0
  11
 52.739565924823
  21
 220.87285159780
  31
0.0
   0
LINE
   5
594
 100
AcDbEntity
   8
LEVEL002
 100
AcDbLine
   6
CONTINUOUS
  62
3
  10
 52.739565924823
  20
 220.87285159780
  30
0.0
  11
 52.450890790111
  21
 220.37285159760
  31
0.0
   0
LINE
   5
595
 100
AcDbEntity
   8
LEVEL002
 100
AcDbLine
   6
CONTINUOUS
  62
3
  10
 53.818241059602
  20
 217.37285159780
  30
0.0
  11
 53.529565924890
  21
 216.87285159760
  31
0.0
   0
LINE
   5
596
 100
AcDbEntity
   8
LEVEL002
 100
AcDbLine
   6
CONTINUOUS
  62
3
  10
 53.529565924890
  20
 216.87285159760
  30
0.0
  11
 53.240890790177
  21
 217.37285159780
  31
0.0
   0
LINE
   5
597
 100
AcDbEntity
   8
LEVEL002
 100
AcDbLine
   6
CONTINUOUS
  62
3
  10
 52.238241059602
  20
 217.37285159780
  30
0.0
  11
 51.949565924890
  21
 216.87285159760
  31
0.0
   0
LINE
   5
598
 100
AcDbEntity
   8
LEVEL002
 100
AcDbLine
   6
CONTINUOUS
  62
3
  10
 51.949565924890
  20
 216.87285159760
  30
0.0
  11
 51.660890790177
  21
 217.37285159780
  31
0.0
   0
LINE
   5
599
 100
AcDbEntity
   8
LEVEL002
 100
AcDbLine
   6
CONTINUOUS
  62
3
  10
 51.159565924823
  20
 220.87285159780
  30
0.0
  11
 50.369565924890
  21
 216.87285159760
  31
0.0
   0
LINE
   5
59A
 100
AcDbEntity
   8
LEVEL002
 100
AcDbLine
   6
CONTINUOUS
  62
3
  10
 49.579565924823
  20
 220.87285159780
  30
0.0
  11
 48.789565924890
  21
 216.87285159760
  31
0.0
   0
LINE
   5
59B
 100
AcDbEntity
   8
LEVEL002
 100
AcDbLine
   6
CONTINUOUS
  62
3
  10
 51.448241059535
  20
 220.37285159760
  30
0.0
  11
 50.658241059602
  21
 217.37285159780
  31
0.0
   0
LINE
   5
59C
 100
AcDbEntity
   8
LEVEL002
 100
AcDbLine
   6
CONTINUOUS
  62
3
  10
 50.870890790111
  20
 220.37285159760
  30
0.0
  11
 50.080890790177
  21
 217.37285159780
  31
0.0
   0
LINE
   5
59D
 100
AcDbEntity
   8
LEVEL002
 100
AcDbLine
   6
CONTINUOUS
  62
3
  10
 49.868241059535
  20
 220.37285159760
  30
0.0
  11
 49.078241059602
  21
 217.37285159780
  31
0.0
   0
LINE
   5
59E
 100
AcDbEntity
   8
LEVEL002
 100
AcDbLine
   6
CONTINUOUS
  62
3
  10
 48.500890790177
  20
 217.37285159780
  30
0.0
  11
 49.290890790111
  21
 220.37285159760
  31
0.0
   0
LINE
   5
59F
 100
AcDbEntity
   8
LEVEL002
 100
AcDbLine
   6
CONTINUOUS
  62
3
  10
 51.448241059535
  20
 220.37285159760
  30
0.0
  11
 51.159565924823
  21
 220.87285159780
  31
0.0
   0
LINE
   5
5A0
 100
AcDbEntity
   8
LEVEL002
 100
AcDbLine
   6
CONTINUOUS
  62
3
  10
 51.159565924823
  20
 220.87285159780
  30
0.0
  11
 50.870890790111
  21
 220.37285159760
  31
0.0
   0
LINE
   5
5A1
 100
AcDbEntity
   8
LEVEL002
 100
AcDbLine
   6
CONTINUOUS
  62
3
  10
 49.868241059535
  20
 220.37285159760
  30
0.0
  11
 49.579565924823
  21
 220.87285159780
  31
0.0
   0
LINE
   5
5A2
 100
AcDbEntity
   8
LEVEL002
 100
AcDbLine
   6
CONTINUOUS
  62
3
  10
 49.579565924823
  20
 220.87285159780
  30
0.0
  11
 49.290890790111
  21
 220.37285159760
  31
0.0
   0
LINE
   5
5A3
 100
AcDbEntity
   8
LEVEL002
 100
AcDbLine
   6
CONTINUOUS
  62
3
  10
 50.658241059602
  20
 217.37285159780
  30
0.0
  11
 50.369565924890
  21
 216.87285159760
  31
0.0
   0
LINE
   5
5A4
 100
AcDbEntity
   8
LEVEL002
 100
AcDbLine
   6
CONTINUOUS
  62
3
  10
 50.369565924890
  20
 216.87285159760
  30
0.0
  11
 50.080890790177
  21
 217.37285159780
  31
0.0
   0
LINE
   5
5A5
 100
AcDbEntity
   8
LEVEL002
 100
AcDbLine
   6
CONTINUOUS
  62
3
  10
 49.078241059602
  20
 217.37285159780
  30
0.0
  11
 48.789565924890
  21
 216.87285159760
  31
0.0
   0
LINE
   5
5A6
 100
AcDbEntity
   8
LEVEL002
 100
AcDbLine
   6
CONTINUOUS
  62
3
  10
 48.789565924890
  20
 216.87285159760
  30
0.0
  11
 48.500890790177
  21
 217.37285159780
  31
0.0
   0
ARC
   5
5A7
 100
AcDbEntity
   8
LEVEL002
   6
CONTINUOUS
  62
3
 100
AcDbCircle
  10
 44.016850914379
  20
 218.87285159780
  30
0.0
  40
 0.30000000000000
 100
AcDbArc
  50
 110.40101745115
  51
 249.59898254866
   0
ARC
   5
5A8
 100
AcDbEntity
   8
LEVEL002
   6
CONTINUOUS
  62
3
 100
AcDbCircle
  10
 50.686360979533
  20
 200.94005419893
  30
0.0
  40
 19.432892804231
 100
AcDbArc
  50
 90.179537622755
  51
 92.426315426398
   0
LINE
   5
5A9
 100
AcDbEntity
   8
LEVEL002
 100
AcDbLine
   6
CONTINUOUS
  62
3
  10
 50.870890790229
  20
 220.37285159780
  30
0.0
  11
 50.625467669461
  21
 220.37285159780
  31
0.0
   0
LINE
   5
5AA
 100
AcDbEntity
   8
LEVEL002
 100
AcDbLine
   6
CONTINUOUS
  62
3
  10
 52.450890790228
  20
 220.37285159780
  30
0.0
  11
 51.448241059418
  21
 220.37285159780
  31
0.0
   0
LINE
   5
5AB
 100
AcDbEntity
   8
LEVEL002
 100
AcDbLine
   6
CONTINUOUS
  62
3
  10
 54.030890790228
  20
 220.37285159780
  30
0.0
  11
 53.028241059418
  21
 220.37285159780
  31
0.0
   0
LINE
   5
5AC
 100
AcDbEntity
   8
LEVEL002
 100
AcDbLine
   6
CONTINUOUS
  62
3
  10
 53.240890790177
  20
 217.37285159780
  30
0.0
  11
 52.238241059602
  21
 217.37285159780
  31
0.0
   0
LINE
   5
5AD
 100
AcDbEntity
   8
LEVEL002
 100
AcDbLine
   6
CONTINUOUS
  62
3
  10
 51.660890790177
  20
 217.37285159780
  30
0.0
  11
 50.625467669461
  21
 217.37285159780
  31
0.0
   0
ARC
   5
5AE
 100
AcDbEntity
   8
LEVEL002
   6
CONTINUOUS
  62
3
 100
AcDbCircle
  10
 50.686360979531
  20
 236.80564899667
  30
0.0
  40
 19.432892804231
 100
AcDbArc
  50
 265.30395202728
  51
 268.22174338021
   0
LINE
   5
5AF
 100
AcDbEntity
   8
LEVEL002
 100
AcDbLine
   6
CONTINUOUS
  62
3
  10
 55.610890790228
  20
 220.37285159780
  30
0.0
  11
 54.608241059418
  21
 220.37285159780
  31
0.0
   0
LINE
   5
5B0
 100
AcDbEntity
   8
LEVEL002
 100
AcDbLine
   6
CONTINUOUS
  62
3
  10
 57.190890790228
  20
 220.37285159780
  30
0.0
  11
 56.188241059418
  21
 220.37285159780
  31
0.0
   0
LINE
   5
5B1
 100
AcDbEntity
   8
LEVEL002
 100
AcDbLine
   6
CONTINUOUS
  62
3
  10
 58.770890790228
  20
 220.37285159780
  30
0.0
  11
 57.768241059418
  21
 220.37285159780
  31
0.0
   0
LINE
   5
5B2
 100
AcDbEntity
   8
LEVEL002
 100
AcDbLine
   6
CONTINUOUS
  62
3
  10
 54.820890790177
  20
 217.37285159780
  30
0.0
  11
 53.818241059602
  21
 217.37285159780
  31
0.0
   0
LINE
   5
5B3
 100
AcDbEntity
   8
LEVEL002
 100
AcDbLine
   6
CONTINUOUS
  62
3
  10
 56.400890790177
  20
 217.37285159780
  30
0.0
  11
 55.398241059602
  21
 217.37285159780
  31
0.0
   0
LINE
   5
5B4
 100
AcDbEntity
   8
LEVEL002
 100
AcDbLine
   6
CONTINUOUS
  62
3
  10
 57.980890790177
  20
 217.37285159780
  30
0.0
  11
 56.978241059602
  21
 217.37285159780
  31
0.0
   0
LINE
   5
5B5
 100
AcDbEntity
   8
LEVEL002
 100
AcDbLine
   6
CONTINUOUS
  62
3
  10
 59.560890790178
  20
 217.37285159780
  30
0.0
  11
 58.558241059602
  21
 217.37285159780
  31
0.0
   0
LINE
   5
5B6
 100
AcDbEntity
   8
LEVEL002
 100
AcDbLine
   6
CONTINUOUS
  62
3
  10
 61.140890790178
  20
 217.37285159780
  30
0.0
  11
 60.138241059602
  21
 217.37285159780
  31
0.0
   0
LINE
   5
5B7
 100
AcDbEntity
   8
LEVEL002
 100
AcDbLine
   6
CONTINUOUS
  62
3
  10
 62.720890790178
  20
 217.37285159780
  30
0.0
  11
 61.718241059602
  21
 217.37285159780
  31
0.0
   0
LINE
   5
5B8
 100
AcDbEntity
   8
LEVEL002
 100
AcDbLine
   6
CONTINUOUS
  62
3
  10
 60.350890790229
  20
 220.37285159780
  30
0.0
  11
 59.348241059418
  21
 220.37285159780
  31
0.0
   0
LINE
   5
5B9
 100
AcDbEntity
   8
LEVEL002
 100
AcDbLine
   6
CONTINUOUS
  62
3
  10
 61.930890790229
  20
 220.37285159780
  30
0.0
  11
 60.928241059418
  21
 220.37285159780
  31
0.0
   0
LINE
   5
5BA
 100
AcDbEntity
   8
LEVEL002
 100
AcDbLine
   6
CONTINUOUS
  62
3
  10
 63.510890790229
  20
 220.37285159780
  30
0.0
  11
 62.508241059418
  21
 220.37285159780
  31
0.0
   0
LINE
   5
5BB
 100
AcDbEntity
   8
LEVEL002
 100
AcDbLine
   6
CONTINUOUS
  62
3
  10
 65.090890790229
  20
 220.37285159780
  30
0.0
  11
 64.088241059418
  21
 220.37285159780
  31
0.0
   0
LINE
   5
5BC
 100
AcDbEntity
   8
LEVEL002
 100
AcDbLine
   6
CONTINUOUS
  62
3
  10
 66.670890790229
  20
 220.37285159780
  30
0.0
  11
 65.668241059418
  21
 220.37285159780
  31
0.0
   0
LINE
   5
5BD
 100
AcDbEntity
   8
LEVEL002
 100
AcDbLine
   6
CONTINUOUS
  62
3
  10
 64.300890790178
  20
 217.37285159780
  30
0.0
  11
 63.298241059602
  21
 217.37285159780
  31
0.0
   0
LINE
   5
5BE
 100
AcDbEntity
   8
LEVEL002
 100
AcDbLine
   6
CONTINUOUS
  62
3
  10
 65.880890790178
  20
 217.37285159780
  30
0.0
  11
 64.878241059602
  21
 217.37285159780
  31
0.0
   0
LINE
   5
5BF
 100
AcDbEntity
   8
LEVEL002
 100
AcDbLine
   6
CONTINUOUS
  62
3
  10
 67.460890790178
  20
 217.37285159780
  30
0.0
  11
 66.458241059602
  21
 217.37285159780
  31
0.0
   0
LINE
   5
5C0
 100
AcDbEntity
   8
LEVEL002
 100
AcDbLine
   6
CONTINUOUS
  62
3
  10
 69.040890790178
  20
 217.37285159780
  30
0.0
  11
 68.038241059602
  21
 217.37285159780
  31
0.0
   0
LINE
   5
5C1
 100
AcDbEntity
   8
LEVEL002
 100
AcDbLine
   6
CONTINUOUS
  62
3
  10
 68.250890790165
  20
 220.37285159780
  30
0.0
  11
 67.248241059418
  21
 220.37285159780
  31
0.0
   0
LINE
   5
5C2
 100
AcDbEntity
   8
LEVEL002
 100
AcDbLine
   6
CONTINUOUS
  62
3
  10
 69.830890790165
  20
 220.37285159780
  30
0.0
  11
 68.828241059589
  21
 220.37285159780
  31
0.0
   0
LINE
   5
5C3
 100
AcDbEntity
   8
LEVEL002
 100
AcDbLine
   6
CONTINUOUS
  62
3
  10
 46.580449559614
  20
 219.72580602846
  30
0.0
  11
 46.291774424901
  21
 220.22580602866
  31
0.0
   0
LINE
   5
5C4
 100
AcDbEntity
   8
LEVEL002
 100
AcDbLine
   6
CONTINUOUS
  62
3
  10
 46.291774424901
  20
 220.22580602866
  30
0.0
  11
 46.003099290189
  21
 219.72580602846
  31
0.0
   0
LINE
   5
5C5
 100
AcDbEntity
   8
LEVEL002
 100
AcDbLine
   6
CONTINUOUS
  62
3
  10
 48.239042093301
  20
 220.12374290805
  30
0.0
  11
 47.950366958589
  21
 220.62374290826
  31
0.0
   0
LINE
   5
5C6
 100
AcDbEntity
   8
LEVEL002
 100
AcDbLine
   6
CONTINUOUS
  62
3
  10
 47.950366958589
  20
 220.62374290826
  30
0.0
  11
 47.661691823877
  21
 220.12374290805
  31
0.0
   0
LINE
   5
5C7
 100
AcDbEntity
   8
LEVEL002
 100
AcDbLine
   6
CONTINUOUS
  62
3
  10
 46.070210286397
  20
 218.14231603742
  30
0.0
  11
 45.781535151685
  21
 217.64231603721
  31
0.0
   0
LINE
   5
5C8
 100
AcDbEntity
   8
LEVEL002
 100
AcDbLine
   6
CONTINUOUS
  62
3
  10
 45.781535151685
  20
 217.64231603721
  30
0.0
  11
 45.492860016973
  21
 218.14231603742
  31
0.0
   0
LINE
   5
5C9
 100
AcDbEntity
   8
LEVEL002
 100
AcDbLine
   6
CONTINUOUS
  62
3
  10
 46.291774424901
  20
 220.22580602866
  30
0.0
  11
 45.781535151685
  21
 217.64231603721
  31
0.0
   0
LINE
   5
5CA
 100
AcDbEntity
   8
LEVEL002
 100
AcDbLine
   6
CONTINUOUS
  62
3
  10
 46.580449559614
  20
 219.72580602846
  30
0.0
  11
 46.070210286397
  21
 218.14231603742
  31
0.0
   0
LINE
   5
5CB
 100
AcDbEntity
   8
LEVEL002
 100
AcDbLine
   6
CONTINUOUS
  62
3
  10
 45.492860016973
  20
 218.14231603742
  30
0.0
  11
 46.003099290189
  21
 219.72580602846
  31
0.0
   0
LINE
   5
5CC
 100
AcDbEntity
   8
LEVEL002
 100
AcDbLine
   6
CONTINUOUS
  62
3
  10
 47.572099530000
  20
 217.74681853661
  30
0.0
  11
 47.283424395288
  21
 217.24681853640
  31
0.0
   0
LINE
   5
5CD
 100
AcDbEntity
   8
LEVEL002
 100
AcDbLine
   6
CONTINUOUS
  62
3
  10
 47.283424395288
  20
 217.24681853640
  30
0.0
  11
 46.994749260576
  21
 217.74681853661
  31
0.0
   0
LINE
   5
5CE
 100
AcDbEntity
   8
LEVEL002
 100
AcDbLine
   6
CONTINUOUS
  62
3
  10
 47.950366958589
  20
 220.62374290826
  30
0.0
  11
 47.283424395288
  21
 217.24681853640
  31
0.0
   0
LINE
   5
5CF
 100
AcDbEntity
   8
LEVEL002
 100
AcDbLine
   6
CONTINUOUS
  62
3
  10
 48.239042093301
  20
 220.12374290805
  30
0.0
  11
 47.572099530000
  21
 217.74681853661
  31
0.0
   0
LINE
   5
5D0
 100
AcDbEntity
   8
LEVEL002
 100
AcDbLine
   6
CONTINUOUS
  62
3
  10
 47.661691823877
  20
 220.12374290805
  30
0.0
  11
 46.994749260576
  21
 217.74681853661
  31
0.0
   0
ARC
   5
5D1
 100
AcDbEntity
   8
LEVEL002
   6
CONTINUOUS
  62
3
 100
AcDbCircle
  10
 50.686360979535
  20
 236.80564899667
  30
0.0
  40
 19.432892804231
 100
AcDbArc
  50
 249.59898254943
  51
 254.63087816947
   0
ARC
   5
5D2
 100
AcDbEntity
   8
LEVEL002
   6
CONTINUOUS
  62
3
 100
AcDbCircle
  10
 50.686360979535
  20
 236.80564899667
  30
0.0
  40
 19.432892804231
 100
AcDbArc
  50
 255.93109632253
  51
 259.08854364283
   0
ARC
   5
5D3
 100
AcDbEntity
   8
LEVEL002
   6
CONTINUOUS
  62
3
 100
AcDbCircle
  10
 50.686360979534
  20
 236.80564899667
  30
0.0
  40
 19.432892804231
 100
AcDbArc
  50
 260.58451850351
  51
 263.63619689814
   0
ARC
   5
5D4
 100
AcDbEntity
   8
LEVEL002
   6
CONTINUOUS
  62
3
 100
AcDbCircle
  10
 50.686360979535
  20
 200.94005419893
  30
0.0
  40
 19.432892804231
 100
AcDbArc
  50
 103.79328221386
  51
 110.40101745057
   0
ARC
   5
5D5
 100
AcDbEntity
   8
LEVEL002
   6
CONTINUOUS
  62
3
 100
AcDbCircle
  10
 50.686360979539
  20
 200.94005419893
  30
0.0
  40
 19.432892804231
 100
AcDbArc
  50
 98.930867625177
  51
 102.52019006566
   0
ARC
   5
5D6
 100
AcDbEntity
   8
LEVEL002
   6
CONTINUOUS
  62
3
 100
AcDbCircle
  10
 50.686360979534
  20
 200.94005419893
  30
0.0
  40
 19.432892804231
 100
AcDbArc
  50
 94.157673159563
  51
 97.385838022032
   0
LINE
   5
5D7
 100
AcDbEntity
   8
LEVEL002
 100
AcDbLine
   6
CONTINUOUS
  62
3
  10
 70.399565924824
  20
 197.37285159780
  30
0.0
  11
 69.618241059602
  21
 197.37285159780
  31
0.0
   0
LINE
   5
5D8
 100
AcDbEntity
   8
LEVEL002
 100
AcDbLine
   6
CONTINUOUS
  62
3
  10
 70.399565924824
  20
 217.37285159780
  30
0.0
  11
 69.618241059602
  21
 217.37285159780
  31
0.0
   0
LINE
   5
5D9
 100
AcDbEntity
   8
LEVEL002
 100
AcDbLine
   6
CONTINUOUS
  62
7
  10
 100.00098436634
  20
 214.75541492060
  30
0.0
  11
 98.399565924624
  21
 215.08713731210
  31
0.0
   0
LINE
   5
5DA
 100
AcDbEntity
   8
LEVEL002
 100
AcDbLine
   6
CONTINUOUS
  62
7
  10
 100.00098436634
  20
 193.99028827500
  30
0.0
  11
 98.399565924624
  21
 193.65856588350
  31
0.0
   0
LINE
   5
5DB
 100
AcDbEntity
   8
LEVEL002
 100
AcDbLine
   6
CONTINUOUS
  62
7
  10
 100.39956592468
  20
 194.87285159780
  30
0.0
  11
 217.92849845358
  21
 194.87285159780
  31
0.0
   0
LINE
   5
5DC
 100
AcDbEntity
   8
LEVEL002
 100
AcDbLine
   6
CONTINUOUS
  62
7
  10
 217.92849845358
  20
 213.87285159780
  30
0.0
  11
 100.39956592468
  21
 213.87285159780
  31
0.0
   0
LINE
   5
5DD
 100
AcDbEntity
   8
LEVEL002
 100
AcDbLine
   6
DOT
  62
1
  10
 217.01205309670
  20
 213.17285159780
  30
0.0
  11
 100.39956592468
  21
 213.17285159780
  31
0.0
   0
LINE
   5
5DE
 100
AcDbEntity
   8
LEVEL002
 100
AcDbLine
   6
DOT
  62
1
  10
 218.57789120834
  20
 195.57285159780
  30
0.0
  11
 100.39956592468
  21
 195.57285159780
  31
0.0
   0
LINE
   5
5DF
 100
AcDbEntity
   8
LEVEL002
 100
AcDbLine
   6
DOT
  62
1
  10
 73.199565924824
  20
 216.77285159780
  30
0.0
  11
 71.399565924824
  21
 216.77285159780
  31
0.0
   0
ARC
   5
5E0
 100
AcDbEntity
   8
LEVEL002
   6
DOT
  62
1
 100
AcDbCircle
  10
 73.699565924819
  20
 214.12285159780
  30
0.0
  40
 0.50000000000000
 100
AcDbArc
  50
 180.00000000000
  51
 270.00000000053
   0
LINE
   5
5E1
 100
AcDbEntity
   8
LEVEL002
 100
AcDbLine
   6
DOT
  62
1
  10
 73.699565924824
  20
 213.62285159780
  30
0.0
  11
 75.999565924824
  21
 213.62285159780
  31
0.0
   0
LINE
   5
5E2
 100
AcDbEntity
   8
LEVEL002
 100
AcDbLine
   6
DOT
  62
1
  10
 75.999565924824
  20
 214.37285159780
  30
0.0
  11
 75.999565924824
  21
 194.37285159780
  31
0.0
   0
LINE
   5
5E3
 100
AcDbEntity
   8
LEVEL002
 100
AcDbLine
   6
DOT
  62
1
  10
 78.499565924685
  20
 216.37285159780
  30
0.0
  11
 77.999565924824
  21
 216.37285159780
  31
0.0
   0
ARC
   5
5E4
 100
AcDbEntity
   8
LEVEL002
   6
DOT
  62
1
 100
AcDbCircle
  10
 77.999565924824
  20
 214.37285159780
  30
0.0
  40
 2.0000000000000
 100
AcDbArc
  50
 90.000000000000
  51
 179.99999999998
   0
LINE
   5
5E5
 100
AcDbEntity
   8
LEVEL002
 100
AcDbLine
   6
DOT
  62
1
  10
 78.499565924685
  20
 216.37285159780
  30
0.0
  11
 81.499565924685
  21
 216.37285159780
  31
0.0
   0
LINE
   5
5E6
 100
AcDbEntity
   8
LEVEL002
 100
AcDbLine
   6
DOT
  62
1
  10
 93.123981676825
  20
 216.12864118284
  30
0.0
  11
 81.499565924685
  21
 216.37285159780
  31
0.0
   0
LINE
   5
5E7
 100
AcDbEntity
   8
LEVEL002
 100
AcDbLine
   6
DOT
  62
1
  10
 73.488010343804
  20
 214.17285159780
  30
0.0
  11
 73.199565924760
  21
 214.17285159780
  31
0.0
   0
LINE
   5
5E8
 100
AcDbEntity
   8
LEVEL002
 100
AcDbLine
   6
DOT
  62
1
  10
 73.199565924760
  20
 214.17285159780
  30
0.0
  11
 73.199565924760
  21
 223.57285159780
  31
0.0
   0
ARC
   5
5E9
 100
AcDbEntity
   8
LEVEL002
   6
DOT
  62
1
 100
AcDbCircle
  10
 69.599565924760
  20
 218.87285159780
  30
0.0
  40
 6.1000000000000
 100
AcDbArc
  50
 309.60192708111
  51
 353.88309885987
   0
LINE
   5
5EA
 100
AcDbEntity
   8
LEVEL002
 100
AcDbLine
   6
DOT
  62
1
  10
 73.488010343804
  20
 223.57285159780
  30
0.0
  11
 73.488010343804
  21
 214.17285159780
  31
0.0
   0
LINE
   5
5EB
 100
AcDbEntity
   8
LEVEL002
 100
AcDbLine
   6
DOT
  62
1
  10
 75.199565924760
  20
 219.52285159777
  30
0.0
  11
 75.199565924760
  21
 218.22285159777
  31
0.0
   0
LINE
   5
5EC
 100
AcDbEntity
   8
LEVEL002
 100
AcDbLine
   6
DOT
  62
1
  10
 75.199565924760
  20
 218.22285159777
  30
0.0
  11
 75.664835910502
  21
 218.22285159777
  31
0.0
   0
LINE
   5
5ED
 100
AcDbEntity
   8
LEVEL002
 100
AcDbLine
   6
DOT
  62
1
  10
 75.999565924824
  20
 226.01542200195
  30
0.0
  11
 75.999565924824
  21
 215.51675110818
  31
0.0
   0
ARC
   5
5EE
 100
AcDbEntity
   8
LEVEL002
   6
DOT
  62
1
 100
AcDbCircle
  10
 74.999565924823
  20
 226.01542200195
  30
0.0
  40
 1.0000000000000
 100
AcDbArc
  50
0.0
  51
 76.999999999924
   0
LINE
   5
5EF
 100
AcDbEntity
   8
LEVEL002
 100
AcDbLine
   6
DOT
  62
1
  10
 73.199565924824
  20
 220.97285159780
  30
0.0
  11
 71.399565924824
  21
 220.97285159780
  31
0.0
   0
LINE
   5
5F0
 100
AcDbEntity
   8
LEVEL002
 100
AcDbLine
   6
DOT
  62
1
  10
 75.999565924824
  20
 224.12285159780
  30
0.0
  11
 73.699565924824
  21
 224.12285159780
  31
0.0
   0
ARC
   5
5F1
 100
AcDbEntity
   8
LEVEL002
   6
DOT
  62
1
 100
AcDbCircle
  10
 73.699565924824
  20
 223.62285159780
  30
0.0
  40
 0.50000000000000
 100
AcDbArc
  50
 90.000000000000
  51
 179.99999999977
   0
LINE
   5
5F2
 100
AcDbEntity
   8
LEVEL002
 100
AcDbLine
   6
DOT
  62
1
  10
 73.199565924760
  20
 223.57285159780
  30
0.0
  11
 73.488010343804
  21
 223.57285159780
  31
0.0
   0
LINE
   5
5F3
 100
AcDbEntity
   8
LEVEL002
 100
AcDbLine
   6
DOT
  62
1
  10
 75.664835910510
  20
 219.52285159777
  30
0.0
  11
 75.199565924760
  21
 219.52285159777
  31
0.0
   0
ARC
   5
5F4
 100
AcDbEntity
   8
LEVEL002
   6
DOT
  62
1
 100
AcDbCircle
  10
 69.599565924759
  20
 218.87285159780
  30
0.0
  40
 6.1000000000000
 100
AcDbArc
  50
 6.1169011394446
  51
 50.398072918886
   0
ARC
   5
5F5
 100
AcDbEntity
   8
LEVEL002
   6
DOT
  62
1
 100
AcDbCircle
  10
 93.060970370321
  20
 213.12930299330
  30
0.0
  40
 3.0000000000000
 100
AcDbArc
  50
 78.297098519772
  51
 88.796484190684
   0
LINE
   5
5F6
 100
AcDbEntity
   8
LEVEL002
 100
AcDbLine
   6
DOT
  62
1
  10
 98.399565924624
  20
 215.08713731210
  30
0.0
  11
 93.669481020266
  21
 216.06694061372
  31
0.0
   0
LINE
   5
5F7
 100
AcDbEntity
   8
LEVEL002
 100
AcDbLine
   6
DOT
  62
1
  10
 97.408292460122
  20
 192.18602047177
  30
0.0
  11
 76.990839389325
  21
 192.36420088534
  31
0.0
   0
ARC
   5
5F8
 100
AcDbEntity
   8
LEVEL002
   6
DOT
  62
1
 100
AcDbCircle
  10
 93.060970370319
  20
 195.61640020231
  30
0.0
  40
 3.0000000000000
 100
AcDbArc
  50
 271.20351580936
  51
 281.70290148028
   0
LINE
   5
5F9
 100
AcDbEntity
   8
LEVEL002
 100
AcDbLine
   6
DOT
  62
1
  10
 98.399565924624
  20
 193.65856588350
  30
0.0
  11
 93.669481020266
  21
 192.67876258189
  31
0.0
   0
ARC
   5
5FA
 100
AcDbEntity
   8
LEVEL002
   6
DOT
  62
1
 100
AcDbCircle
  10
 97.399565924620
  20
 191.18605854870
  30
0.0
  40
 1.0000000000000
 100
AcDbArc
  50
0.0
  51
 89.499999999787
   0
LINE
   5
5FB
 100
AcDbEntity
   8
LEVEL002
 100
AcDbLine
   6
DOT
  62
1
  10
 73.699565924824
  20
 193.62285159780
  30
0.0
  11
 75.999565924824
  21
 193.62285159780
  31
0.0
   0
ARC
   5
5FC
 100
AcDbEntity
   8
LEVEL002
   6
DOT
  62
1
 100
AcDbCircle
  10
 73.699565924826
  20
 194.12285159780
  30
0.0
  40
 0.50000000000000
 100
AcDbArc
  50
 180.00000000000
  51
 269.99999999969
   0
ARC
   5
5FD
 100
AcDbEntity
   8
LEVEL002
   6
DOT
  62
1
 100
AcDbCircle
  10
 76.999565924824
  20
 193.36416280840
  30
0.0
  40
 1.0000000000000
 100
AcDbArc
  50
 180.00000000000
  51
 269.49999999999
   0
ARC
   5
5FE
 100
AcDbEntity
   8
LEVEL002
   6
DOT
  62
1
 100
AcDbCircle
  10
 77.999565924824
  20
 194.37285159780
  30
0.0
  40
 2.0000000000000
 100
AcDbArc
  50
 180.00000000000
  51
 269.99999999999
   0
LINE
   5
5FF
 100
AcDbEntity
   8
LEVEL002
 100
AcDbLine
   6
DOT
  62
1
  10
 93.123981676825
  20
 192.61706201276
  30
0.0
  11
 81.499565924685
  21
 192.37285159780
  31
0.0
   0
LINE
   5
600
 100
AcDbEntity
   8
LEVEL002
 100
AcDbLine
   6
DOT
  62
1
  10
 78.499565924685
  20
 192.37285159780
  30
0.0
  11
 81.499565924685
  21
 192.37285159780
  31
0.0
   0
LINE
   5
601
 100
AcDbEntity
   8
LEVEL002
 100
AcDbLine
   6
DOT
  62
1
  10
 78.499565924685
  20
 192.37285159780
  30
0.0
  11
 77.999565924824
  21
 192.37285159780
  31
0.0
   0
LINE
   5
602
 100
AcDbEntity
   8
LEVEL002
 100
AcDbLine
   6
DOT
  62
1
  10
 73.488010343804
  20
 194.17285159780
  30
0.0
  11
 73.199565924760
  21
 194.17285159780
  31
0.0
   0
LINE
   5
603
 100
AcDbEntity
   8
LEVEL002
 100
AcDbLine
   6
DOT
  62
1
  10
 73.488010343804
  20
 203.57285159780
  30
0.0
  11
 73.488010343804
  21
 194.17285159780
  31
0.0
   0
ARC
   5
604
 100
AcDbEntity
   8
LEVEL002
   6
DOT
  62
1
 100
AcDbCircle
  10
 69.599565924760
  20
 198.87285159780
  30
0.0
  40
 6.1000000000000
 100
AcDbArc
  50
 309.60192708111
  51
 353.88309885987
   0
LINE
   5
605
 100
AcDbEntity
   8
LEVEL002
 100
AcDbLine
   6
DOT
  62
1
  10
 73.199565924824
  20
 200.97285159780
  30
0.0
  11
 71.399565924824
  21
 200.97285159780
  31
0.0
   0
LINE
   5
606
 100
AcDbEntity
   8
LEVEL002
 100
AcDbLine
   6
DOT
  62
1
  10
 73.199565924824
  20
 196.77285159780
  30
0.0
  11
 71.399565924824
  21
 196.77285159780
  31
0.0
   0
LINE
   5
607
 100
AcDbEntity
   8
LEVEL002
 100
AcDbLine
   6
DOT
  62
1
  10
 75.999565924824
  20
 204.12285159780
  30
0.0
  11
 73.699565924824
  21
 204.12285159780
  31
0.0
   0
ARC
   5
608
 100
AcDbEntity
   8
LEVEL002
   6
DOT
  62
1
 100
AcDbCircle
  10
 73.699565924824
  20
 203.62285159780
  30
0.0
  40
 0.50000000000000
 100
AcDbArc
  50
 90.000000000000
  51
 179.99999999977
   0
LINE
   5
609
 100
AcDbEntity
   8
LEVEL002
 100
AcDbLine
   6
DOT
  62
1
  10
 73.199565924760
  20
 194.17285159780
  30
0.0
  11
 73.199565924760
  21
 203.57285159780
  31
0.0
   0
LINE
   5
60A
 100
AcDbEntity
   8
LEVEL002
 100
AcDbLine
   6
DOT
  62
1
  10
 73.199565924760
  20
 203.57285159780
  30
0.0
  11
 73.488010343804
  21
 203.57285159780
  31
0.0
   0
ARC
   5
60B
 100
AcDbEntity
   8
LEVEL002
   6
DOT
  62
1
 100
AcDbCircle
  10
 69.599565924759
  20
 198.87285159780
  30
0.0
  40
 6.1000000000000
 100
AcDbArc
  50
 6.1169011394455
  51
 50.398072918887
   0
LINE
   5
60C
 100
AcDbEntity
   8
LEVEL002
 100
AcDbLine
   6
DOT
  62
1
  10
 75.664835910510
  20
 199.52285159777
  30
0.0
  11
 75.199565924760
  21
 199.52285159777
  31
0.0
   0
LINE
   5
60D
 100
AcDbEntity
   8
LEVEL002
 100
AcDbLine
   6
DOT
  62
1
  10
 75.199565924760
  20
 199.52285159777
  30
0.0
  11
 75.199565924760
  21
 198.22285159777
  31
0.0
   0
LINE
   5
60E
 100
AcDbEntity
   8
LEVEL002
 100
AcDbLine
   6
DOT
  62
1
  10
 75.199565924760
  20
 198.22285159777
  30
0.0
  11
 75.664835910502
  21
 198.22285159777
  31
0.0
   0
LINE
   5
60F
 100
AcDbEntity
   8
LEVEL001
 100
AcDbLine
   6
DOT
  62
1
  10
 100.39956592468
  20
 213.87285159780
  30
0.0
  11
 78.399565924824
  21
 213.87285159780
  31
0.0
   0
LINE
   5
610
 100
AcDbEntity
   8
LEVEL001
 100
AcDbLine
   6
DOT
  62
1
  10
 100.39956592468
  20
 194.87285159780
  30
0.0
  11
 78.399565924824
  21
 194.87285159780
  31
0.0
   0
LINE
   5
611
 100
AcDbEntity
   8
LEVEL001
 100
AcDbLine
   6
DOT
  62
1
  10
 78.399565924824
  20
 213.87285159780
  30
0.0
  11
 78.399565924824
  21
 194.87285159780
  31
0.0
   0
LINE
   5
612
 100
AcDbEntity
   8
LEVEL001
 100
AcDbLine
   6
DASHDOT
  62
3
  10
 64.654419346331
  20
 204.37285159780
  30
0.0
  11
 249.30425938771
  21
 204.37285159780
  31
0.0
   0
LINE
   5
613
 100
AcDbEntity
   8
LEVEL001
 100
AcDbLine
   6
DASHDOT
  62
3
  10
 259.02592366318
  20
 204.37285159780
  30
0.0
  11
 363.18200269741
  21
 204.37285159780
  31
0.0
   0
DIMENSION
   5
614
 100
AcDbEntity
   8
LEVEL001
   6
CONTINUOUS
  62
2
 100
AcDbDimension
   2
*D7
  10
 257.13209296016
  20
 194.87285159780
  30
0.0
  11
 257.13209296016
  21
 204.37285159780
  31
0.0
  70
0
   3
GMM002
 100
AcDbAlignedDimension
  13
 256.75332681956
  23
 213.87285159780
  33
0.0
  14
 257.88962524137
  24
 194.87285159780
  34
0.0
  50
 270.00000000000
 100
AcDbRotatedDimension
   0
DIMENSION
   5
615
 100
AcDbEntity
   8
LEVEL001
   6
CONTINUOUS
  62
2
 100
AcDbDimension
   2
*D8
  10
 345.55451570976
  20
 242.32728553194
  30
0.0
  11
 211.97704081729
  21
 242.32728553194
  31
0.0
  70
0
   1
\A1;W-16=L(パイプ長さ)
   3
GMM003
 100
AcDbAlignedDimension
  13
 78.399565924824
  23
 213.87285159780
  33
0.0
  14
 345.55451570976
  24
 213.87285159780
  34
0.0
 100
AcDbRotatedDimension
   0
DIMENSION
   5
616
 100
AcDbEntity
   8
LEVEL001
   6
CONTINUOUS
  62
2
 100
AcDbDimension
   2
*D9
  10
 353.55451570962
  20
 252.59643329168
  30
0.0
  11
 211.97704081722
  21
 252.59643329168
  31
0.0
  70
0
   1
\A1;W(浴室壁内寸法)
   3
GMM004
 100
AcDbAlignedDimension
  13
 70.399565924824
  23
 227.87285159780
  33
0.0
  14
 353.55451570962
  24
 227.89379608049
  34
0.0
 100
AcDbRotatedDimension
   0
ARC
   5
617
 100
AcDbEntity
   8
LEVEL002
   6
CONTINUOUS
  62
7
 100
AcDbCircle
  10
 154.73649795002
  20
 68.858659701617
  30
0.0
  40
 20.500000000000
 100
AcDbArc
  50
 180.00000000000
  51
0.0
   0
LINE
   5
618
 100
AcDbEntity
   8
LEVEL002
 100
AcDbLine
   6
CONTINUOUS
  62
7
  10
 175.23649795002
  20
 68.858659701617
  30
0.0
  11
 175.23649795002
  21
 89.858659701617
  31
0.0
   0
ARC
   5
619
 100
AcDbEntity
   8
LEVEL002
   6
CONTINUOUS
  62
7
 100
AcDbCircle
  10
 174.23649795002
  20
 89.858659701617
  30
0.0
  40
 1.0000000000000
 100
AcDbArc
  50
0.0
  51
 89.999999999990
   0
LINE
   5
61A
 100
AcDbEntity
   8
LEVEL002
 100
AcDbLine
   6
CONTINUOUS
  62
7
  10
 174.23649795002
  20
 90.858659701617
  30
0.0
  11
 135.23649795002
  21
 90.858659701617
  31
0.0
   0
LINE
   5
61B
 100
AcDbEntity
   8
LEVEL002
 100
AcDbLine
   6
CONTINUOUS
  62
7
  10
 134.23649795002
  20
 89.858659701617
  30
0.0
  11
 134.23649795002
  21
 68.858659701617
  31
0.0
   0
ARC
   5
61C
 100
AcDbEntity
   8
LEVEL002
   6
CONTINUOUS
  62
7
 100
AcDbCircle
  10
 135.23649795002
  20
 89.858659701617
  30
0.0
  40
 1.0000000000000
 100
AcDbArc
  50
 90.000000000000
  51
 180.00000000000
   0
CIRCLE
   5
61D
 100
AcDbEntity
   8
LEVEL002
 100
AcDbCircle
   6
CONTINUOUS
  62
7
  10
 154.73649795002
  20
 61.858659701617
  30
0.0
  40
 2.1000000000000
   0
CIRCLE
   5
61E
 100
AcDbEntity
   8
LEVEL002
 100
AcDbCircle
   6
CONTINUOUS
  62
7
  10
 154.73649795002
  20
 81.858659701617
  30
0.0
  40
 2.1000000000000
   0
LINE
   5
61F
 100
AcDbEntity
   8
LEVEL001
 100
AcDbLine
   6
DASHDOT
  62
3
  10
 161.81906348262
  20
 81.858659701617
  30
0.0
  11
 147.65393241742
  21
 81.858659701617
  31
0.0
   0
LINE
   5
620
 100
AcDbEntity
   8
LEVEL001
 100
AcDbLine
   6
DASHDOT
  62
3
  10
 162.00844655292
  20
 61.858659701617
  30
0.0
  11
 147.46454934712
  21
 61.858659701617
  31
0.0
   0
LINE
   5
621
 100
AcDbEntity
   8
LEVEL001
 100
AcDbLine
   6
DASHDOT
  62
3
  10
 154.73649795002
  20
 95.093421167124
  30
0.0
  11
 154.73649795002
  21
 43.598409800356
  31
0.0
   0
LINE
   5
622
 100
AcDbEntity
   8
LEVEL002
 100
AcDbLine
   6
CONTINUOUS
  62
7
  10
 175.87566581229
  20
 114.37077068757
  30
0.0
  11
 175.87566581229
  21
 115.37077068757
  31
0.0
   0
LINE
   5
623
 100
AcDbEntity
   8
LEVEL002
 100
AcDbLine
   6
CONTINUOUS
  62
7
  10
 175.87566581229
  20
 115.37077068757
  30
0.0
  11
 155.37566581229
  21
 115.37077068757
  31
0.0
   0
LINE
   5
624
 100
AcDbEntity
   8
LEVEL002
 100
AcDbLine
   6
CONTINUOUS
  62
7
  10
 155.37566581229
  20
 114.37077068757
  30
0.0
  11
 175.87566581229
  21
 114.37077068757
  31
0.0
   0
LINE
   5
625
 100
AcDbEntity
   8
LEVEL002
 100
AcDbLine
   6
CONTINUOUS
  62
7
  10
 134.87566581228
  20
 115.37077068757
  30
0.0
  11
 155.37566581229
  21
 115.37077068757
  31
0.0
   0
LINE
   5
626
 100
AcDbEntity
   8
LEVEL002
 100
AcDbLine
   6
CONTINUOUS
  62
7
  10
 155.37566581229
  20
 114.37077068757
  30
0.0
  11
 134.87566581228
  21
 114.37077068757
  31
0.0
   0
LINE
   5
627
 100
AcDbEntity
   8
LEVEL002
 100
AcDbLine
   6
CONTINUOUS
  62
7
  10
 134.87566581228
  20
 114.37077068757
  30
0.0
  11
 134.87566581228
  21
 115.37077068757
  31
0.0
   0
LINE
   5
628
 100
AcDbEntity
   8
LEVEL002
 100
AcDbLine
   6
CONTINUOUS
  62
7
  10
 134.87566581228
  20
 115.37077068757
  30
0.0
  11
 155.37566581229
  21
 115.37077068757
  31
0.0
   0
LINE
   5
629
 100
AcDbEntity
   8
LEVEL001
 100
AcDbLine
   6
DASHDOT
  62
3
  10
 154.73649795002
  20
 120.34820528078
  30
0.0
  11
 154.73649795002
  21
 110.41072100911
  31
0.0
   0
LINE
   5
62A
 100
AcDbEntity
   8
LEVEL001
 100
AcDbLine
   6
DOT
  62
1
  10
 156.83649795002
  20
 114.37077068757
  30
0.0
  11
 156.83649795002
  21
 115.37077068757
  31
0.0
   0
LINE
   5
62B
 100
AcDbEntity
   8
LEVEL001
 100
AcDbLine
   6
DOT
  62
1
  10
 152.63649795002
  20
 114.37077068757
  30
0.0
  11
 152.63649795002
  21
 115.37077068757
  31
0.0
   0
DIMENSION
   5
62C
 100
AcDbEntity
   8
LEVEL001
   6
CONTINUOUS
  62
2
 100
AcDbDimension
   2
*D10
  10
 175.87566581229
  20
 126.22486867240
  30
0.0
  11
 155.37566581228
  21
 126.22486867240
  31
0.0
  70
0
   3
GMM001
 100
AcDbAlignedDimension
  13
 134.87566581228
  23
 115.37077068757
  33
0.0
  14
 175.87566581229
  24
 115.37077068757
  34
0.0
 100
AcDbRotatedDimension
   0
DIMENSION
   5
62D
 100
AcDbEntity
   8
LEVEL001
   6
CONTINUOUS
  62
2
 100
AcDbDimension
   2
*D11
  10
 187.28101803253
  20
 114.37077068757
  30
0.0
  11
 187.28101803253
  21
 120.17349665601
  31
0.0
  70
128
   3
GMM005
 100
AcDbAlignedDimension
  13
 175.87566581229
  23
 115.37077068757
  33
0.0
  14
 175.87566581229
  24
 114.37077068757
  34
0.0
  50
 270.00000000000
 100
AcDbRotatedDimension
   0
DIMENSION
   5
62E
 100
AcDbEntity
   8
LEVEL001
   6
CONTINUOUS
  62
2
 100
AcDbDimension
   2
*D12
  10
 187.28101803253
  20
 90.858659701617
  30
0.0
  11
 187.28101803253
  21
 86.358659701617
  31
0.0
  70
0
   3
GMM001
 100
AcDbAlignedDimension
  13
 161.81906348262
  23
 81.858659701617
  33
0.0
  14
 174.23649795002
  24
 90.858659701617
  34
0.0
  50
 90.000000000000
 100
AcDbRotatedDimension
   0
DIMENSION
   5
62F
 100
AcDbEntity
   8
LEVEL001
   6
CONTINUOUS
  62
2
 100
AcDbDimension
   2
*D13
  10
 187.28101803253
  20
 81.858659701617
  30
0.0
  11
 187.28101803253
  21
 71.858659701617
  31
0.0
  70
0
   3
GMM001
 100
AcDbAlignedDimension
  13
 162.00844655292
  23
 61.858659701617
  33
0.0
  14
 161.81906348262
  24
 81.858659701617
  34
0.0
  50
 90.000000000000
 100
AcDbRotatedDimension
   0
DIMENSION
   5
630
 100
AcDbEntity
   8
LEVEL001
   6
CONTINUOUS
  62
2
 100
AcDbDimension
   2
*D14
  10
 187.28101803253
  20
 61.858659701617
  30
0.0
  11
 187.28101803253
  21
 55.108659701617
  31
0.0
  70
0
   3
GMM001
 100
AcDbAlignedDimension
  13
 154.73649795002
  23
 48.358659701617
  33
0.0
  14
 162.00844655292
  24
 61.858659701617
  34
0.0
  50
 90.000000000000
 100
AcDbRotatedDimension
   0
DIMENSION
   5
631
 100
AcDbEntity
   8
LEVEL001
   6
CONTINUOUS
  62
2
 100
AcDbDimension
   2
*D15
  10
 196.88632550488
  20
 48.358659701617
  30
0.0
  11
 196.88632550488
  21
 69.608659701617
  31
0.0
  70
0
   3
GMM001
 100
AcDbAlignedDimension
  13
 189.28101803253
  23
 90.858659701617
  33
0.0
  14
 189.28101803253
  24
 48.358659701617
  34
0.0
  50
 270.00000000000
 100
AcDbRotatedDimension
   0
TEXT
   5
632
 100
AcDbEntity
   8
LEVEL002
  62
7
 100
AcDbText
  10
 144.76678318289
  20
 31.037483429547
  30
0.0
  40
 5.0000000000000
   1
パッキン
   7
STANDARD
 100
AcDbText
   0
LINE
   5
633
 100
AcDbEntity
   8
LEVEL001
 100
AcDbLine
   6
CONTINUOUS
  62
7
  10
 142.86852879845
  20
 29.089223205878
  30
0.0
  11
 166.05216085722
  21
 29.089223205878
  31
0.0
   0
LINE
   5
634
 100
AcDbEntity
   8
LEVEL002
 100
AcDbLine
   6
CONTINUOUS
  62
7
  10
 250.72542572513
  20
 118.70826495959
  30
0.0
  11
 251.22542572499
  21
 118.70826495959
  31
0.0
   0
LINE
   5
635
 100
AcDbEntity
   8
LEVEL002
 100
AcDbLine
   6
CONTINUOUS
  62
7
  10
 250.72542572513
  20
 94.708264959594
  30
0.0
  11
 251.22542572499
  21
 94.708264959594
  31
0.0
   0
LINE
   5
636
 100
AcDbEntity
   8
LEVEL002
 100
AcDbLine
   6
CONTINUOUS
  62
7
  10
 250.52542572513
  20
 97.208264959594
  30
0.0
  11
 228.82542572513
  21
 97.208264959594
  31
0.0
   0
ARC
   5
637
 100
AcDbEntity
   8
LEVEL002
   6
CONTINUOUS
  62
7
 100
AcDbCircle
  10
 250.52542572513
  20
 97.508264959593
  30
0.0
  40
 0.30000000000000
 100
AcDbArc
  50
 269.99999999999
  51
 0.23069623289548E-9
   0
ARC
   5
638
 100
AcDbEntity
   8
LEVEL002
   6
CONTINUOUS
  62
7
 100
AcDbCircle
  10
 236.16402127950
  20
 115.46471635509
  30
0.0
  40
 3.0000000000000
 100
AcDbArc
  50
 91.203515809287
  51
 101.70290148020
   0
LINE
   5
639
 100
AcDbEntity
   8
LEVEL002
 100
AcDbLine
   6
CONTINUOUS
  62
7
  10
 229.22400728347
  20
 117.09082828239
  30
0.0
  11
 235.55551062955
  21
 118.40235397551
  31
0.0
   0
ARC
   5
63A
 100
AcDbEntity
   8
LEVEL002
   6
CONTINUOUS
  62
7
 100
AcDbCircle
  10
 229.32542572513
  20
 116.60122201232
  30
0.0
  40
 0.50000000000000
 100
AcDbArc
  50
 101.70290148019
  51
 179.99999999989
   0
LINE
   5
63B
 100
AcDbEntity
   8
LEVEL002
 100
AcDbLine
   6
CONTINUOUS
  62
7
  10
 228.82542572513
  20
 116.60122201232
  30
0.0
  11
 228.82542572513
  21
 116.20826495959
  31
0.0
   0
LINE
   5
63C
 100
AcDbEntity
   8
LEVEL002
 100
AcDbLine
   6
CONTINUOUS
  62
7
  10
 236.10100997299
  20
 118.46405454463
  30
0.0
  11
 247.72542572513
  21
 118.70826495959
  31
0.0
   0
LINE
   5
63D
 100
AcDbEntity
   8
LEVEL002
 100
AcDbLine
   6
CONTINUOUS
  62
7
  10
 236.10100997299
  20
 94.952475374554
  30
0.0
  11
 247.72542572513
  21
 94.708264959594
  31
0.0
   0
ARC
   5
63E
 100
AcDbEntity
   8
LEVEL002
   6
CONTINUOUS
  62
7
 100
AcDbCircle
  10
 236.16402127949
  20
 97.951813564095
  30
0.0
  40
 3.0000000000000
 100
AcDbArc
  50
 258.29709851989
  51
 268.79648419081
   0
LINE
   5
63F
 100
AcDbEntity
   8
LEVEL002
 100
AcDbLine
   6
CONTINUOUS
  62
7
  10
 228.82542572513
  20
 96.815307906864
  30
0.0
  11
 228.82542572513
  21
 97.208264959594
  31
0.0
   0
ARC
   5
640
 100
AcDbEntity
   8
LEVEL002
   6
CONTINUOUS
  62
7
 100
AcDbCircle
  10
 229.32542572513
  20
 96.815307906865
  30
0.0
  40
 0.50000000000000
 100
AcDbArc
  50
 180.00000000001
  51
 258.29709851988
   0
LINE
   5
641
 100
AcDbEntity
   8
LEVEL002
 100
AcDbLine
   6
CONTINUOUS
  62
7
  10
 229.22400728347
  20
 96.325701636794
  30
0.0
  11
 235.55551062955
  21
 95.014175943674
  31
0.0
   0
LINE
   5
642
 100
AcDbEntity
   8
LEVEL002
 100
AcDbLine
   6
CONTINUOUS
  62
7
  10
 251.22542572499
  20
 118.70826495959
  30
0.0
  11
 247.72542572513
  21
 118.70826495959
  31
0.0
   0
ARC
   5
643
 100
AcDbEntity
   8
LEVEL002
   6
CONTINUOUS
  62
7
 100
AcDbCircle
  10
 251.22542572499
  20
 116.70826495960
  30
0.0
  40
 2.0000000000000
 100
AcDbArc
  50
0.0
  51
 90.000000000000
   0
POINT
   5
644
 100
AcDbEntity
   8
LEVEL002
 100
AcDbPoint
  62
7
  10
 253.22542572499
  20
 118.70826495959
  30
0.0
   0
LINE
   5
645
 100
AcDbEntity
   8
LEVEL002
 100
AcDbLine
   6
CONTINUOUS
  62
7
  10
 253.22542572499
  20
 116.70826495959
  30
0.0
  11
 253.22542572499
  21
 96.708264959594
  31
0.0
   0
ARC
   5
646
 100
AcDbEntity
   8
LEVEL002
   6
CONTINUOUS
  62
7
 100
AcDbCircle
  10
 251.22542572499
  20
 96.708264959594
  30
0.0
  40
 2.0000000000000
 100
AcDbArc
  50
 270.00000000007
  51
0.0
   0
POINT
   5
647
 100
AcDbEntity
   8
LEVEL002
 100
AcDbPoint
  62
7
  10
 253.22542572499
  20
 94.708264959594
  30
0.0
   0
LINE
   5
648
 100
AcDbEntity
   8
LEVEL002
 100
AcDbLine
   6
CONTINUOUS
  62
7
  10
 251.22542572499
  20
 94.708264959594
  30
0.0
  11
 247.72542572513
  21
 94.708264959594
  31
0.0
   0
LINE
   5
649
 100
AcDbEntity
   8
LEVEL001
 100
AcDbLine
   6
DASHDOT
  62
3
  10
 222.07683775045
  20
 106.70826495959
  30
0.0
  11
 259.19591952950
  21
 106.70826495959
  31
0.0
   0
INSERT
   5
64A
 100
AcDbEntity
   8
LEVEL001
 100
AcDbBlockReference
   2
HATCH008
  10
0.0
  20
0.0
  30
0.0
   0
LINE
   5
64B
 100
AcDbEntity
   8
LEVEL002
 100
AcDbLine
   6
CONTINUOUS
  62
7
  10
 250.82542572513
  20
 106.70826495959
  30
0.0
  11
 250.82542572513
  21
 97.508264959594
  31
0.0
   0
LINE
   5
64C
 100
AcDbEntity
   8
LEVEL002
 100
AcDbLine
   6
DOT
  62
1
  10
 228.82542572513
  20
 116.20826495959
  30
0.0
  11
 250.52542572513
  21
 116.20826495959
  31
0.0
   0
ARC
   5
64D
 100
AcDbEntity
   8
LEVEL002
   6
DOT
  62
1
 100
AcDbCircle
  10
 250.52542572513
  20
 115.90826495959
  30
0.0
  40
 0.30000000000000
 100
AcDbArc
  50
 0.81422199845324E-11
  51
 89.999999999913
   0
LINE
   5
64E
 100
AcDbEntity
   8
LEVEL002
 100
AcDbLine
   6
DOT
  62
1
  10
 250.82542572513
  20
 115.90826495959
  30
0.0
  11
 250.82542572513
  21
 106.70826495959
  31
0.0
   0
LINE
   5
64F
 100
AcDbEntity
   8
LEVEL002
 100
AcDbLine
   6
CONTINUOUS
  62
7
  10
 228.82542572513
  20
 116.20826495959
  30
0.0
  11
 228.82542572513
  21
 106.70826495959
  31
0.0
   0
LINE
   5
650
 100
AcDbEntity
   8
LEVEL002
 100
AcDbLine
   6
CONTINUOUS
  62
15
  10
 228.82542572513
  20
 106.70826495959
  30
0.0
  11
 228.82542572513
  21
 97.208264959594
  31
0.0
   0
DIMENSION
   5
651
 100
AcDbEntity
   8
LEVEL001
   6
CONTINUOUS
  62
2
 100
AcDbDimension
   2
*D16
  10
 250.82542572513
  20
 82.601383841559
  30
0.0
  11
 239.82542572513
  21
 82.601383841559
  31
0.0
  70
0
   3
GMM001
 100
AcDbAlignedDimension
  13
 228.82542572513
  23
 97.208264959594
  33
0.0
  14
 250.82542572513
  24
 97.508264959594
  34
0.0
 100
AcDbRotatedDimension
   0
DIMENSION
   5
652
 100
AcDbEntity
   8
LEVEL001
   6
CONTINUOUS
  62
2
 100
AcDbDimension
   2
*D17
  10
 250.82542572513
  20
 82.601383841559
  30
0.0
  11
 259.43240803018
  21
 82.601383841559
  31
0.0
  70
128
   3
GMM005
 100
AcDbAlignedDimension
  13
 253.22542572499
  23
 94.708264959594
  33
0.0
  14
 250.82542572513
  24
 82.601383841559
  34
0.0
  50
 180.00000000000
 100
AcDbRotatedDimension
   0
DIMENSION
   5
653
 100
AcDbEntity
   8
LEVEL001
   6
CONTINUOUS
  62
2
 100
AcDbDimension
   2
*D18
  10
 253.22542572499
  20
 73.489953903730
  30
0.0
  11
 241.02542572506
  21
 73.489953903730
  31
0.0
  70
0
   3
GMM001
 100
AcDbAlignedDimension
  13
 228.82542572513
  23
 80.601383841559
  33
0.0
  14
 253.22542572499
  24
 80.601383841559
  34
0.0
 100
AcDbRotatedDimension
   0
DIMENSION
   5
654
 100
AcDbEntity
   8
LEVEL001
   6
CONTINUOUS
  62
2
 100
AcDbDimension
   2
*D19
  10
 269.59853689835
  20
 118.70826495959
  30
0.0
  11
 269.59853689835
  21
 106.70826495959
  31
0.0
  70
0
   3
GMM002
 100
AcDbAlignedDimension
  13
 253.22542572499
  23
 94.708264959594
  33
0.0
  14
 253.22542572499
  24
 118.70826495959
  34
0.0
  50
 90.000000000000
 100
AcDbRotatedDimension
   0
DIMENSION
   5
655
 100
AcDbEntity
   8
LEVEL001
   6
CONTINUOUS
  62
2
 100
AcDbDimension
   2
*D20
  10
 217.41297974866
  20
 116.20826495959
  30
0.0
  11
 217.41297974866
  21
 106.70826495959
  31
0.0
  70
0
   3
GMM002
 100
AcDbAlignedDimension
  13
 228.82542572513
  23
 97.208264959594
  33
0.0
  14
 228.82542572513
  24
 116.20826495959
  34
0.0
  50
 90.000000000000
 100
AcDbRotatedDimension
   0
TEXT
   5
656
 100
AcDbEntity
   8
LEVEL002
  62
7
 100
AcDbText
  10
 230.01266370103
  20
 60.439205093823
  30
0.0
  40
 5.0000000000000
   1
キャップ
   7
STANDARD
 100
AcDbText
   0
LINE
   5
657
 100
AcDbEntity
   8
LEVEL001
 100
AcDbLine
   6
CONTINUOUS
  62
7
  10
 229.43507118086
  20
 58.490944870155
  30
0.0
  11
 251.78227347641
  21
 58.490944870155
  31
0.0
   0
LINE
   5
658
 100
AcDbEntity
   8
LEVEL001
 100
AcDbLine
   6
CONTINUOUS
  62
8
  10
 353.56025824964
  20
 102.51602509148
  30
0.0
  11
 353.56025824964
  21
 42.516025091481
  31
0.0
   0
LINE
   5
659
 100
AcDbEntity
   8
LEVEL001
 100
AcDbLine
   6
CONTINUOUS
  62
8
  10
 397.40639851042
  20
 102.51602509148
  30
0.0
  11
 397.40639851042
  21
 42.516025091481
  31
0.0
   0
LINE
   5
65A
 100
AcDbEntity
   8
LEVEL001
 100
AcDbLine
   6
CONTINUOUS
  62
8
  10
 289.69437658031
  20
 90.516025091481
  30
0.0
  11
 397.40639851042
  21
 90.516025091481
  31
0.0
   0
LINE
   5
65B
 100
AcDbEntity
   8
LEVEL001
 100
AcDbLine
   6
CONTINUOUS
  62
8
  10
 289.69437658031
  20
 84.516025091481
  30
0.0
  11
 397.40639851042
  21
 84.516025091481
  31
0.0
   0
LINE
   5
65C
 100
AcDbEntity
   8
LEVEL001
 100
AcDbLine
   6
CONTINUOUS
  62
8
  10
 289.69437658031
  20
 78.516025091481
  30
0.0
  11
 397.40639851042
  21
 78.516025091481
  31
0.0
   0
LINE
   5
65D
 100
AcDbEntity
   8
LEVEL001
 100
AcDbLine
   6
CONTINUOUS
  62
8
  10
 289.69437658031
  20
 72.516025091481
  30
0.0
  11
 397.40639851042
  21
 72.516025091481
  31
0.0
   0
LINE
   5
65E
 100
AcDbEntity
   8
LEVEL001
 100
AcDbLine
   6
CONTINUOUS
  62
8
  10
 289.69437658031
  20
 66.516025091481
  30
0.0
  11
 397.40639851042
  21
 66.516025091481
  31
0.0
   0
LINE
   5
65F
 100
AcDbEntity
   8
LEVEL001
 100
AcDbLine
   6
CONTINUOUS
  62
8
  10
 289.69437658031
  20
 60.516025091481
  30
0.0
  11
 397.40639851042
  21
 60.516025091481
  31
0.0
   0
LINE
   5
660
 100
AcDbEntity
   8
LEVEL001
 100
AcDbLine
   6
CONTINUOUS
  62
8
  10
 289.69437658031
  20
 54.516025091481
  30
0.0
  11
 397.40639851042
  21
 54.516025091481
  31
0.0
   0
LINE
   5
661
 100
AcDbEntity
   8
LEVEL001
 100
AcDbLine
   6
CONTINUOUS
  62
8
  10
 289.69437658031
  20
 48.516025091481
  30
0.0
  11
 397.40639851042
  21
 48.516025091481
  31
0.0
   0
LINE
   5
662
 100
AcDbEntity
   8
LEVEL001
 100
AcDbLine
   6
CONTINUOUS
  62
8
  10
 289.69437658031
  20
 42.516025091481
  30
0.0
  11
 397.40639851042
  21
 42.516025091481
  31
0.0
   0
LINE
   5
663
 100
AcDbEntity
   8
LEVEL001
 100
AcDbLine
   6
CONTINUOUS
  62
8
  10
 289.69437658031
  20
 102.51602509148
  30
0.0
  11
 397.40639851042
  21
 102.51602509148
  31
0.0
   0
TEXT
   5
664
 100
AcDbEntity
   8
LEVEL001
  62
8
 100
AcDbText
  10
 289.69437658031
  20
 103.39981275289
  30
0.0
  40
 4.0000000000000
   1
表１
   7
STANDARD
 100
AcDbText
   0
LINE
   5
665
 100
AcDbEntity
   8
LEVEL001
 100
AcDbLine
   6
CONTINUOUS
  62
8
  10
 289.69437658031
  20
 102.51602509148
  30
0.0
  11
 289.69437658031
  21
 42.516025091481
  31
0.0
   0
LINE
   5
666
 100
AcDbEntity
   8
LEVEL001
 100
AcDbLine
   6
CONTINUOUS
  62
8
  10
 321.69437658031
  20
 96.516025091481
  30
0.0
  11
 321.69437658031
  21
 42.516025091481
  31
0.0
   0
TEXT
   5
667
 100
AcDbEntity
   8
LEVEL001
  62
2
 100
AcDbText
  10
 315.16377407171
  20
 97.516025091481
  30
0.0
  40
 4.0000000000000
   1
品　番
   7
STANDARD
 100
AcDbText
   0
TEXT
   5
668
 100
AcDbEntity
   8
LEVEL001
  62
2
 100
AcDbText
  10
 292.76023424870
  20
 91.516025091481
  30
0.0
  40
 4.0000000000000
   1
材着ﾎﾜｲﾄｸﾞﾚｰ
   7
STANDARD
 100
AcDbText
   0
TEXT
   5
669
 100
AcDbEntity
   8
LEVEL001
  62
2
 100
AcDbText
  10
 293.56831971918
  20
 85.101741527363
  30
0.0
  40
 4.0000000000000
   1
６１０－６２１
  41
 0.87500000000000
   7
STANDARD
 100
AcDbText
   0
TEXT
   5
66A
 100
AcDbEntity
   8
LEVEL001
  62
2
 100
AcDbText
  10
 293.56831971918
  20
 79.101741527363
  30
0.0
  40
 4.0000000000000
   1
６１０－６２２
  41
 0.87500000000000
   7
STANDARD
 100
AcDbText
   0
TEXT
   5
66B
 100
AcDbEntity
   8
LEVEL001
  62
2
 100
AcDbText
  10
 293.56831971918
  20
 73.101741527363
  30
0.0
  40
 4.0000000000000
   1
６１０－６２３
  41
 0.87500000000000
   7
STANDARD
 100
AcDbText
   0
TEXT
   5
66C
 100
AcDbEntity
   8
LEVEL001
  62
2
 100
AcDbText
  10
 293.56831971918
  20
 67.101741527363
  30
0.0
  40
 4.0000000000000
   1
６１０－６２４
  41
 0.87500000000000
   7
STANDARD
 100
AcDbText
   0
TEXT
   5
66D
 100
AcDbEntity
   8
LEVEL001
  62
2
 100
AcDbText
  10
 293.56831971918
  20
 61.101741527363
  30
0.0
  40
 4.0000000000000
   1
６１０－６２５
  41
 0.87500000000000
   7
STANDARD
 100
AcDbText
   0
TEXT
   5
66E
 100
AcDbEntity
   8
LEVEL001
  62
2
 100
AcDbText
  10
 293.56831971918
  20
 55.101741527363
  30
0.0
  40
 4.0000000000000
   1
６１０－６２６
  41
 0.87500000000000
   7
STANDARD
 100
AcDbText
   0
TEXT
   5
66F
 100
AcDbEntity
   8
LEVEL001
  62
2
 100
AcDbText
  10
 293.56831971918
  20
 49.101741527363
  30
0.0
  40
 4.0000000000000
   1
６１０－６２７
  41
 0.87500000000000
   7
STANDARD
 100
AcDbText
   0
TEXT
   5
670
 100
AcDbEntity
   8
LEVEL001
  62
2
 100
AcDbText
  10
 293.56831971918
  20
 43.101741527363
  30
0.0
  40
 4.0000000000000
   1
６１０－６２８
  41
 0.87500000000000
   7
STANDARD
 100
AcDbText
   0
TEXT
   5
671
 100
AcDbEntity
   8
LEVEL001
  62
2
 100
AcDbText
  10
 328.70536699206
  20
 91.516025091481
  30
0.0
  40
 4.0000000000000
   1
クローム
   7
STANDARD
 100
AcDbText
   0
LINE
   5
672
 100
AcDbEntity
   8
LEVEL001
 100
AcDbLine
   6
CONTINUOUS
  62
8
  10
 289.69437658031
  20
 96.516025091481
  30
0.0
  11
 353.69437658031
  21
 96.516025091481
  31
0.0
   0
TEXT
   5
673
 100
AcDbEntity
   8
LEVEL001
  62
2
 100
AcDbText
  10
 356.49301468249
  20
 94.475317126879
  30
0.0
  40
 4.0000000000000
   1
浴室壁内寸法(ｍｍ)
   7
STANDARD
 100
AcDbText
   0
TEXT
   5
674
 100
AcDbEntity
   8
LEVEL001
  62
2
 100
AcDbText
  10
 325.03026662183
  20
 85.101741527363
  30
0.0
  40
 4.0000000000000
   1
６１０－６３１
  41
 0.87500000000000
   7
STANDARD
 100
AcDbText
   0
TEXT
   5
675
 100
AcDbEntity
   8
LEVEL001
  62
2
 100
AcDbText
  10
 325.03026662183
  20
 79.101741527363
  30
0.0
  40
 4.0000000000000
   1
６１０－６３２
  41
 0.87500000000000
   7
STANDARD
 100
AcDbText
   0
TEXT
   5
676
 100
AcDbEntity
   8
LEVEL001
  62
2
 100
AcDbText
  10
 325.03026662183
  20
 73.101741527363
  30
0.0
  40
 4.0000000000000
   1
６１０－６３３
  41
 0.87500000000000
   7
STANDARD
 100
AcDbText
   0
TEXT
   5
677
 100
AcDbEntity
   8
LEVEL001
  62
2
 100
AcDbText
  10
 325.03026662183
  20
 67.101741527363
  30
0.0
  40
 4.0000000000000
   1
６１０－６３４
  41
 0.87500000000000
   7
STANDARD
 100
AcDbText
   0
TEXT
   5
678
 100
AcDbEntity
   8
LEVEL001
  62
2
 100
AcDbText
  10
 325.03026662183
  20
 61.101741527363
  30
0.0
  40
 4.0000000000000
   1
６１０－６３５
  41
 0.87500000000000
   7
STANDARD
 100
AcDbText
   0
TEXT
   5
679
 100
AcDbEntity
   8
LEVEL001
  62
2
 100
AcDbText
  10
 325.03026662183
  20
 55.101741527363
  30
0.0
  40
 4.0000000000000
   1
６１０－６３６
  41
 0.87500000000000
   7
STANDARD
 100
AcDbText
   0
TEXT
   5
67A
 100
AcDbEntity
   8
LEVEL001
  62
2
 100
AcDbText
  10
 325.03026662183
  20
 49.101741527363
  30
0.0
  40
 4.0000000000000
   1
６１０－６３７
  41
 0.87500000000000
   7
STANDARD
 100
AcDbText
   0
TEXT
   5
67B
 100
AcDbEntity
   8
LEVEL001
  62
2
 100
AcDbText
  10
 325.03026662183
  20
 43.101741527363
  30
0.0
  40
 4.0000000000000
   1
６１０－６３８
  41
 0.87500000000000
   7
STANDARD
 100
AcDbText
   0
TEXT
   5
67C
 100
AcDbEntity
   8
LEVEL001
  62
7
 100
AcDbText
  10
 286.07373186081
  20
 25.229512893864
  30
0.0
  40
 6.0000000000000
   1
ＹＨランドリーパイプ
  41
 0.83333333333333
   7
STANDARD
 100
AcDbText
   0
ENDSEC
  0
SECTION
  2
OBJECTS
  0
DICTIONARY
  5
C
100
AcDbDictionary
  3
ACAD_GROUP
350
D
  3
ACAD_MLINESTYLE
350
1B
  0
DICTIONARY
  5
D
102
{ACAD_REACTORS
330
C
102
}
100
AcDbDictionary
  0
DICTIONARY
  5
1B
102
{ACAD_REACTORS
330
C
102
}
100
AcDbDictionary
  3
STANDARD
350
1C
  0
MLINESTYLE
  5
1C
102
{ACAD_REACTORS
330
1B
102
}
100
AcDbMlineStyle
  2
STANDARD
 70
     0
  3

 62
   256
 51
90.0
 52
90.0
 71
     2
 49
0.5
 62
   256
  6
BYLAYER
 49
-0.5
 62
   256
  6
BYLAYER
  0
ENDSEC
   0
EOF
