   0
SECTION
   2
HEADER
   9
$ACADVER
   1
AC1014
   9
$LIMMIN
  10
-1.0000000000000
  20
-4.0000000000000
   9
$LIMMAX
  10
 419.00000000000
  20
 293.00000000000
   9
$EXTMIN
  10
-1.0000000000000
  20
-4.0000000000000
  30
0.0
   9
$EXTMAX
  10
 419.00000000000
  20
 293.00000000000
  30
0.0
   9
$LTSCALE
  40
 8.4000000000000
   9
$HANDSEED
   5
62B
   0
ENDSEC
   0
SECTION
   2
TABLES
  0
TABLE
  2
VPORT
  5
8
100
AcDbSymbolTable
 70
     1
  0
VPORT
  5
62A
100
AcDbSymbolTableRecord
100
AcDbViewportTableRecord
  2
*ACTIVE
 70
     0
 10
0.0
 20
0.0
 11
1.0
 21
1.0
  12
 209.00000000000
  22
 144.50000000000
 13
0.0
 23
0.0
 14
1.0
 24
1.0
 15
0.0
 25
0.0
 16
0.0
 26
0.0
 36
1.0
 17
0.0
 27
0.0
 37
0.0
  40
 420.00000000000
  41
 1.4787878787879
 42
50.0
 43
0.0
 44
0.0
 50
0.0
 51
0.0
 71
     0
 72
   100
 73
     1
 74
     1
 75
     0
 76
     0
 77
     0
 78
     0
  0
ENDTAB
  0
TABLE
  2
LTYPE
  5
5
100
AcDbSymbolTable
 70
    25
  0
LTYPE
  5
12
100
AcDbSymbolTableRecord
100
AcDbLinetypeTableRecord
  2
BYBLOCK
 70
     0
  3

 72
    65
 73
     0
 40
0.0
  0
LTYPE
  5
13
100
AcDbSymbolTableRecord
100
AcDbLinetypeTableRecord
  2
BYLAYER
 70
     0
  3

 72
    65
 73
     0
 40
0.0
  0
LTYPE
  5
14
100
AcDbSymbolTableRecord
100
AcDbLinetypeTableRecord
  2
CONTINUOUS
 70
     0
  3
Solid line
 72
    65
 73
     0
 40
0.0
  0
LTYPE
  5
20
100
AcDbSymbolTableRecord
100
AcDbLinetypeTableRecord
  2
BORDER
 70
     0
  3
__ __ . __ __ . __ __ . __ __ . __ __ . __ __ .
 72
    65
 73
     6
 40
1.75
 49
0.5
 74
     0
 49
-0.25
 74
     0
 49
0.5
 74
     0
 49
-0.25
 74
     0
 49
0.0
 74
     0
 49
-0.25
 74
     0
  0
LTYPE
  5
21
100
AcDbSymbolTableRecord
100
AcDbLinetypeTableRecord
  2
BORDER2
 70
     0
  3
__.__.__.__.__.__.__.__.__.__.__.__.__.__.__.__
 72
    65
 73
     6
 40
0.875
 49
0.25
 74
     0
 49
-0.125
 74
     0
 49
0.25
 74
     0
 49
-0.125
 74
     0
 49
0.0
 74
     0
 49
-0.125
 74
     0
  0
LTYPE
  5
22
100
AcDbSymbolTableRecord
100
AcDbLinetypeTableRecord
  2
BORDERX2
 70
     0
  3
____  ____  .  ____  ____  .  ____  ____  .  __
 72
    65
 73
     6
 40
3.5
 49
1.0
 74
     0
 49
-0.5
 74
     0
 49
1.0
 74
     0
 49
-0.5
 74
     0
 49
0.0
 74
     0
 49
-0.5
 74
     0
  0
LTYPE
  5
23
100
AcDbSymbolTableRecord
100
AcDbLinetypeTableRecord
  2
CENTER
 70
     0
  3
____ _ ____ _ ____ _ ____ _ ____ _ ____ _ ____ 
 72
    65
 73
     4
 40
2.0
 49
1.25
 74
     0
 49
-0.25
 74
     0
 49
0.25
 74
     0
 49
-0.25
 74
     0
  0
LTYPE
  5
24
100
AcDbSymbolTableRecord
100
AcDbLinetypeTableRecord
  2
CENTER2
 70
     0
  3
___ _ ___ _ ___ _ ___ _ ___ _ ___ _ ___ _ ___ _
 72
    65
 73
     4
 40
1.125
 49
0.75
 74
     0
 49
-0.125
 74
     0
 49
0.125
 74
     0
 49
-0.125
 74
     0
  0
LTYPE
  5
25
100
AcDbSymbolTableRecord
100
AcDbLinetypeTableRecord
  2
CENTERX2
 70
     0
  3
________  __  ________  __  ________  __  _____
 72
    65
 73
     4
 40
4.0
 49
2.5
 74
     0
 49
-0.5
 74
     0
 49
0.5
 74
     0
 49
-0.5
 74
     0
  0
LTYPE
  5
26
100
AcDbSymbolTableRecord
100
AcDbLinetypeTableRecord
  2
DASHDOT
 70
     0
  3
__ . __ . __ . __ . __ . __ . __ . __ . __ . __
 72
    65
 73
     4
 40
1.0
 49
0.5
 74
     0
 49
-0.25
 74
     0
 49
0.0
 74
     0
 49
-0.25
 74
     0
  0
LTYPE
  5
27
100
AcDbSymbolTableRecord
100
AcDbLinetypeTableRecord
  2
DASHDOT2
 70
     0
  3
_._._._._._._._._._._._._._._._._._._._._._._._
 72
    65
 73
     4
 40
0.5
 49
0.25
 74
     0
 49
-0.125
 74
     0
 49
0.0
 74
     0
 49
-0.125
 74
     0
  0
LTYPE
  5
28
100
AcDbSymbolTableRecord
100
AcDbLinetypeTableRecord
  2
DASHDOTX2
 70
     0
  3
____  .  ____  .  ____  .  ____  .  ____  .  __
 72
    65
 73
     4
 40
2.0
 49
1.0
 74
     0
 49
-0.5
 74
     0
 49
0.0
 74
     0
 49
-0.5
 74
     0
  0
LTYPE
  5
29
100
AcDbSymbolTableRecord
100
AcDbLinetypeTableRecord
  2
DASHED
 70
     0
  3
__ __ __ __ __ __ __ __ __ __ __ __ __ __ __ __
 72
    65
 73
     2
 40
0.75
 49
0.5
 74
     0
 49
-0.25
 74
     0
  0
LTYPE
  5
2A
100
AcDbSymbolTableRecord
100
AcDbLinetypeTableRecord
  2
DASHED2
 70
     0
  3
_ _ _ _ _ _ _ _ _ _ _ _ _ _ _ _ _ _ _ _ _ _ _ _
 72
    65
 73
     2
 40
0.375
 49
0.25
 74
     0
 49
-0.125
 74
     0
  0
LTYPE
  5
2B
100
AcDbSymbolTableRecord
100
AcDbLinetypeTableRecord
  2
DASHEDX2
 70
     0
  3
____  ____  ____  ____  ____  ____  ____  ____ 
 72
    65
 73
     2
 40
1.5
 49
1.0
 74
     0
 49
-0.5
 74
     0
  0
LTYPE
  5
2C
100
AcDbSymbolTableRecord
100
AcDbLinetypeTableRecord
  2
DIVIDE
 70
     0
  3
____ . . ____ . . ____ . . ____ . . ____ . . __
 72
    65
 73
     6
 40
1.25
 49
0.5
 74
     0
 49
-0.25
 74
     0
 49
0.0
 74
     0
 49
-0.25
 74
     0
 49
0.0
 74
     0
 49
-0.25
 74
     0
  0
LTYPE
  5
2D
100
AcDbSymbolTableRecord
100
AcDbLinetypeTableRecord
  2
DIVIDE2
 70
     0
  3
__..__..__..__..__..__..__..__..__..__..__..__.
 72
    65
 73
     6
 40
0.625
 49
0.25
 74
     0
 49
-0.125
 74
     0
 49
0.0
 74
     0
 49
-0.125
 74
     0
 49
0.0
 74
     0
 49
-0.125
 74
     0
  0
LTYPE
  5
2E
100
AcDbSymbolTableRecord
100
AcDbLinetypeTableRecord
  2
DIVIDEX2
 70
     0
  3
________  .  .  ________  .  .  ________  .  . 
 72
    65
 73
     6
 40
2.5
 49
1.0
 74
     0
 49
-0.5
 74
     0
 49
0.0
 74
     0
 49
-0.5
 74
     0
 49
0.0
 74
     0
 49
-0.5
 74
     0
  0
LTYPE
  5
2F
100
AcDbSymbolTableRecord
100
AcDbLinetypeTableRecord
  2
DOT
 70
     0
  3
. . . . . . . . . . . . . . . . . . . . . . . .
 72
    65
 73
     2
 40
0.25
 49
0.0
 74
     0
 49
-0.25
 74
     0
  0
LTYPE
  5
30
100
AcDbSymbolTableRecord
100
AcDbLinetypeTableRecord
  2
DOT2
 70
     0
  3
...............................................
 72
    65
 73
     2
 40
0.125
 49
0.0
 74
     0
 49
-0.125
 74
     0
  0
LTYPE
  5
31
100
AcDbSymbolTableRecord
100
AcDbLinetypeTableRecord
  2
DOTX2
 70
     0
  3
.  .  .  .  .  .  .  .  .  .  .  .  .  .  .  . 
 72
    65
 73
     2
 40
0.5
 49
0.0
 74
     0
 49
-0.5
 74
     0
  0
LTYPE
  5
32
100
AcDbSymbolTableRecord
100
AcDbLinetypeTableRecord
  2
HIDDEN
 70
     0
  3
__ __ __ __ __ __ __ __ __ __ __ __ __ __ __ __
 72
    65
 73
     2
 40
0.375
 49
0.25
 74
     0
 49
-0.125
 74
     0
  0
LTYPE
  5
33
100
AcDbSymbolTableRecord
100
AcDbLinetypeTableRecord
  2
HIDDEN2
 70
     0
  3
_ _ _ _ _ _ _ _ _ _ _ _ _ _ _ _ _ _ _ _ _ _ _ _
 72
    65
 73
     2
 40
0.1875
 49
0.125
 74
     0
 49
-0.0625
 74
     0
  0
LTYPE
  5
34
100
AcDbSymbolTableRecord
100
AcDbLinetypeTableRecord
  2
HIDDENX2
 70
     0
  3
____ ____ ____ ____ ____ ____ ____ ____ ____ __
 72
    65
 73
     2
 40
0.75
 49
0.5
 74
     0
 49
-0.25
 74
     0
  0
LTYPE
  5
35
100
AcDbSymbolTableRecord
100
AcDbLinetypeTableRecord
  2
PHANTOM
 70
     0
  3
______  __  __  ______  __  __  ______  __  __ 
 72
    65
 73
     6
 40
2.5
 49
1.25
 74
     0
 49
-0.25
 74
     0
 49
0.25
 74
     0
 49
-0.25
 74
     0
 49
0.25
 74
     0
 49
-0.25
 74
     0
  0
LTYPE
  5
36
100
AcDbSymbolTableRecord
100
AcDbLinetypeTableRecord
  2
PHANTOM2
 70
     0
  3
___ _ _ ___ _ _ ___ _ _ ___ _ _ ___ _ _ ___ _ _
 72
    65
 73
     6
 40
1.25
 49
0.625
 74
     0
 49
-0.125
 74
     0
 49
0.125
 74
     0
 49
-0.125
 74
     0
 49
0.125
 74
     0
 49
-0.125
 74
     0
  0
LTYPE
  5
37
100
AcDbSymbolTableRecord
100
AcDbLinetypeTableRecord
  2
PHANTOMX2
 70
     0
  3
____________    ____    ____    ____________   
 72
    65
 73
     6
 40
5.0
 49
2.5
 74
     0
 49
-0.5
 74
     0
 49
0.5
 74
     0
 49
-0.5
 74
     0
 49
0.5
 74
     0
 49
-0.5
 74
     0
  0
ENDTAB
   0
TABLE
   2
LAYER
   5
2
 100
AcDbSymbolTable
  70
2
   0
LAYER
   5
E
 100
AcDbSymbolTableRecord
 100
AcDbLayerTableRecord
   2
0
  70
0
  62
7
   6
CONTINUOUS
   0
LAYER
   5
39
 100
AcDbSymbolTableRecord
 100
AcDbLayerTableRecord
   2
LAY-1
  70
0
  62
7
   6
CONTINUOUS
   0
ENDTAB
  0
TABLE
  2
STYLE
  5
3
100
AcDbSymbolTable
  70
4
  0
STYLE
  5
F
100
AcDbSymbolTableRecord
100
AcDbTextStyleTableRecord
  2
STANDARD
 70
     0
 40
0.0
 41
1.0
 50
0.0
 71
     0
 42
0.2
  3
TXT
  4
BIGFONT
  0
STYLE
  5
38
100
AcDbSymbolTableRecord
100
AcDbTextStyleTableRecord
  2
STANDARD1
 70
     4
 40
0.0
 41
1.0
 50
0.0
 71
     0
 42
0.2
  3
TXT
  4
BIGFONT
   0
STYLE
   5
3A
 100
AcDbSymbolTableRecord
 100
AcDbTextStyleTableRecord
   2
GMM001
  70
0
  40
0.0
  41
 1.0000000000000
  50
0.0
  71
     0
  42
1.0
   3
txt.shx
   4
bigfont.shx
   0
STYLE
   5
3B
 100
AcDbSymbolTableRecord
 100
AcDbTextStyleTableRecord
   2
GMM002
  70
0
  40
0.0
  41
 0.75000000000000
  50
0.0
  71
     0
  42
1.0
   3
txt.shx
   4
bigfont.shx
   0
ENDTAB
  0
TABLE
  2
VIEW
  5
6
100
AcDbSymbolTable
 70
     0
  0
ENDTAB
  0
TABLE
  2
UCS
  5
7
100
AcDbSymbolTable
 70
     0
  0
ENDTAB
  0
TABLE
  2
APPID
  5
9
100
AcDbSymbolTable
 70
     1
  0
APPID
  5
10
100
AcDbSymbolTableRecord
100
AcDbRegAppTableRecord
  2
ACAD
 70
     0
  0
ENDTAB
   0
TABLE
   2
DIMSTYLE
   5
A
 100
AcDbSymbolTable
  70
13
  0
DIMSTYLE
105
1D
100
AcDbSymbolTableRecord
100
AcDbDimStyleTableRecord
  2
STANDARD
 70
     0
  3

  4

  5

  6

  7

 40
1.0
 41
0.18
 42
0.0625
 43
0.38
 44
0.18
 45
0.0
 46
0.0
 47
0.0
 48
0.0
140
0.18
141
0.09
142
0.0
143
25.4
144
1.0
145
0.0
146
1.0
147
0.09
 71
     0
 72
     0
 73
     1
 74
     1
 75
     0
 76
     0
 77
     0
 78
     0
170
     0
171
     2
172
     0
173
     0
174
     0
175
     0
176
     0
177
     0
178
     0
270
     2
271
     4
272
     4
273
     2
274
     2
340
F
275
     0
280
     0
281
     0
282
     0
283
     1
284
     0
285
     0
286
     0
287
     3
288
     0
   0
DIMSTYLE
 105
3C
 100
AcDbSymbolTableRecord
 100
AcDbDimStyleTableRecord
   2
GMM001
  70
0
   3

   4

   5

   6
_OPEN30
   7
_NONE
  40
 1.0000000000000
  41
 2.0000000000000
  42
 0.50000000000000
  43
 8.0000000000000
  44
 1.0000000000000
  45
0.0
  46
 2.5000000000000
  47
0.0
  48
0.0
 140
 4.0000000000000
 141
 1.0000000000000
 142
0.0
 143
 0.39400000000000E-1
 144
 1.0000000000000
 145
0.0
 146
 0.62500000000000
 147
 1.7142857142857
  71
0
  72
0
  73
0
  74
0
  75
0
  76
1
  77
1
  78
8
 170
0
 171
2
 172
1
 173
1
 174
0
 175
0
 176
2
 177
2
 178
2
 270
2
 271
6
 272
0
 273
2
 274
2
 340
3A
 275
1
 280
0
 281
0
 282
0
 283
1
 284
0
 285
0
 286
0
 287
3
 288
0
   0
DIMSTYLE
 105
3D
 100
AcDbSymbolTableRecord
 100
AcDbDimStyleTableRecord
   2
GMM002
  70
0
   3

   4

   5

   6
_OPEN30
   7
_OPEN30
  40
 1.0000000000000
  41
 2.0000000000000
  42
 0.50000000000000
  43
 8.0000000000000
  44
 1.0000000000000
  45
0.0
  46
 2.5000000000000
  47
0.0
  48
0.0
 140
 4.0000000000000
 141
 1.0000000000000
 142
0.0
 143
 0.39400000000000E-1
 144
 1.0000000000000
 145
0.0
 146
 0.62500000000000
 147
 1.7142857142857
  71
0
  72
0
  73
0
  74
0
  75
0
  76
1
  77
1
  78
8
 170
0
 171
2
 172
1
 173
1
 174
0
 175
0
 176
2
 177
2
 178
2
 270
2
 271
6
 272
0
 273
2
 274
2
 340
3A
 275
1
 280
0
 281
0
 282
0
 283
1
 284
0
 285
0
 286
0
 287
3
 288
0
   0
DIMSTYLE
 105
3E
 100
AcDbSymbolTableRecord
 100
AcDbDimStyleTableRecord
   2
GMM003
  70
0
   3

   4

   5

   6
_NONE
   7
_OPEN30
  40
 1.0000000000000
  41
 2.0000000000000
  42
 0.50000000000000
  43
 8.0000000000000
  44
 1.0000000000000
  45
0.0
  46
 2.5000000000000
  47
0.0
  48
0.0
 140
 4.0000000000000
 141
 1.0000000000000
 142
0.0
 143
 0.39400000000000E-1
 144
 1.0000000000000
 145
0.0
 146
 0.62500000000000
 147
 1.7142857142857
  71
0
  72
0
  73
0
  74
0
  75
0
  76
0
  77
1
  78
8
 170
0
 171
2
 172
1
 173
1
 174
0
 175
0
 176
2
 177
2
 178
2
 270
2
 271
6
 272
0
 273
2
 274
2
 340
3A
 275
1
 280
0
 281
0
 282
0
 283
1
 284
0
 285
0
 286
0
 287
3
 288
0
   0
DIMSTYLE
 105
3F
 100
AcDbSymbolTableRecord
 100
AcDbDimStyleTableRecord
   2
GMM004
  70
0
   3

   4

   5

   6
_OPEN30
   7
_OPEN30
  40
 1.0000000000000
  41
 2.0000000000000
  42
 0.50000000000000
  43
 8.0000000000000
  44
 1.0000000000000
  45
0.0
  46
 2.5000000000000
  47
0.0
  48
0.0
 140
 4.0000000000000
 141
 1.0000000000000
 142
0.0
 143
 0.39400000000000E-1
 144
 1.0000000000000
 145
0.0
 146
 0.62500000000000
 147
0.0
  71
0
  72
0
  73
0
  74
0
  75
1
  76
1
  77
0
  78
8
 170
0
 171
2
 172
1
 173
1
 174
0
 175
0
 176
2
 177
2
 178
2
 270
2
 271
6
 272
0
 273
2
 274
2
 340
3A
 275
1
 280
0
 281
0
 282
0
 283
1
 284
0
 285
0
 286
0
 287
5
 288
1
   0
DIMSTYLE
 105
40
 100
AcDbSymbolTableRecord
 100
AcDbDimStyleTableRecord
   2
GMM005
  70
0
   3

   4

   5

   6
_OPEN30
   7
_OPEN30
  40
 1.0000000000000
  41
 2.0000000000000
  42
 0.50000000000000
  43
 8.0000000000000
  44
 1.0000000000000
  45
0.0
  46
 2.5000000000000
  47
0.0
  48
0.0
 140
 4.0000000000000
 141
 1.0000000000000
 142
0.0
 143
 0.39400000000000E-1
 144
 1.0000000000000
 145
0.0
 146
 0.62500000000000
 147
0.0
  71
0
  72
0
  73
0
  74
0
  75
1
  76
1
  77
0
  78
8
 170
0
 171
2
 172
1
 173
1
 174
0
 175
0
 176
2
 177
2
 178
2
 270
2
 271
6
 272
0
 273
2
 274
2
 340
3A
 275
1
 280
0
 281
0
 282
0
 283
1
 284
0
 285
0
 286
0
 287
3
 288
0
   0
DIMSTYLE
 105
41
 100
AcDbSymbolTableRecord
 100
AcDbDimStyleTableRecord
   2
GMM006
  70
0
   3
%%c<>
   4

   5

   6
_OPEN30
   7
_OPEN30
  40
 1.0000000000000
  41
 2.0000000000000
  42
 0.50000000000000
  43
 8.0000000000000
  44
 1.0000000000000
  45
0.0
  46
 2.5000000000000
  47
0.0
  48
0.0
 140
 4.0000000000000
 141
 1.0000000000000
 142
0.0
 143
 0.39400000000000E-1
 144
 1.0000000000000
 145
0.0
 146
 0.62500000000000
 147
 1.7142857142857
  71
0
  72
0
  73
0
  74
0
  75
0
  76
0
  77
1
  78
8
 170
0
 171
2
 172
1
 173
1
 174
0
 175
0
 176
2
 177
2
 178
2
 270
2
 271
6
 272
0
 273
2
 274
2
 340
3A
 275
1
 280
0
 281
0
 282
0
 283
1
 284
0
 285
0
 286
0
 287
3
 288
0
   0
DIMSTYLE
 105
42
 100
AcDbSymbolTableRecord
 100
AcDbDimStyleTableRecord
   2
GMM007
  70
0
   3
%%c<> 
   4

   5

   6
_OPEN30
   7
_OPEN30
  40
 1.0000000000000
  41
 3.0000000000000
  42
0.0
  43
 8.0000000000000
  44
 2.0000000000000
  45
0.0
  46
 12.161688179971
  47
0.0
  48
0.0
 140
 4.0000000000000
 141
 1.0000000000000
 142
0.0
 143
 0.39400000000000E-1
 144
 1.0000000000000
 145
0.0
 146
 0.62500000000000
 147
0.0
  71
0
  72
0
  73
1
  74
1
  75
1
  76
1
  77
1
  78
8
 170
0
 171
2
 172
1
 173
1
 174
0
 175
0
 176
2
 177
2
 178
2
 270
2
 271
6
 272
0
 273
2
 274
2
 340
3A
 275
1
 280
0
 281
0
 282
0
 283
1
 284
0
 285
0
 286
0
 287
3
 288
1
   0
DIMSTYLE
 105
43
 100
AcDbSymbolTableRecord
 100
AcDbDimStyleTableRecord
   2
GMM008
  70
0
   3

   4

   5

   6
_OPEN30
   7
_OPEN30
  40
 1.0000000000000
  41
 2.0000000000000
  42
 0.50000000000000
  43
 8.0000000000000
  44
 1.0000000000000
  45
0.0
  46
 2.5000000000000
  47
0.0
  48
0.0
 140
 4.0000000000000
 141
 1.0000000000000
 142
0.0
 143
 0.39400000000000E-1
 144
 1.0000000000000
 145
0.0
 146
 0.62500000000000
 147
 1.7142857142857
  71
0
  72
0
  73
0
  74
0
  75
0
  76
0
  77
1
  78
8
 170
0
 171
2
 172
1
 173
1
 174
0
 175
0
 176
2
 177
2
 178
2
 270
2
 271
6
 272
0
 273
2
 274
2
 340
3A
 275
1
 280
0
 281
0
 282
0
 283
1
 284
0
 285
0
 286
0
 287
3
 288
0
   0
DIMSTYLE
 105
44
 100
AcDbSymbolTableRecord
 100
AcDbDimStyleTableRecord
   2
GMM009
  70
0
   3

   4

   5

   6
_OPEN30
   7
_OPEN30
  40
 1.0000000000000
  41
 2.0000000000000
  42
 0.50000000000000
  43
 8.0000000000000
  44
 1.0000000000000
  45
0.0
  46
 2.5000000000000
  47
0.0
  48
0.0
 140
 4.0000000000000
 141
 1.0000000000000
 142
0.0
 143
 0.39400000000000E-1
 144
 1.0000000000000
 145
0.0
 146
 0.62500000000000
 147
 1.7142857142857
  71
0
  72
0
  73
0
  74
0
  75
0
  76
0
  77
1
  78
8
 170
0
 171
2
 172
1
 173
1
 174
0
 175
0
 176
2
 177
2
 178
2
 270
2
 271
6
 272
0
 273
2
 274
2
 340
3A
 275
1
 280
0
 281
0
 282
0
 283
1
 284
0
 285
0
 286
0
 287
3
 288
1
   0
DIMSTYLE
 105
45
 100
AcDbSymbolTableRecord
 100
AcDbDimStyleTableRecord
   2
GMM010
  70
0
   3
%%c<>
   4

   5

   6
_OPEN30
   7
_OPEN30
  40
 1.0000000000000
  41
 3.0000000000000
  42
 1.0000000000000
  43
 8.0000000000000
  44
 1.0000000000000
  45
0.0
  46
0.0
  47
0.0
  48
0.0
 140
 4.0000000000000
 141
 1.0000000000000
 142
0.0
 143
 0.39400000000000E-1
 144
 1.0000000000000
 145
0.0
 146
 0.62500000000000
 147
 1.7142857142857
  71
0
  72
0
  73
0
  74
0
  75
0
  76
0
  77
3
  78
8
 170
0
 171
2
 172
1
 173
1
 174
0
 175
0
 176
6
 177
6
 178
6
 270
2
 271
6
 272
0
 273
2
 274
2
 340
3B
 275
1
 280
0
 281
0
 282
0
 283
1
 284
0
 285
0
 286
0
 287
3
 288
0
   0
DIMSTYLE
 105
46
 100
AcDbSymbolTableRecord
 100
AcDbDimStyleTableRecord
   2
GMM011
  70
0
   3

   4

   5

   6
_OPEN30
   7
_OPEN30
  40
 1.0000000000000
  41
 2.0000000000000
  42
 0.50000000000000
  43
 8.0000000000000
  44
 1.0000000000000
  45
0.0
  46
 2.5000000000000
  47
0.0
  48
0.0
 140
 4.0000000000000
 141
 1.0000000000000
 142
0.0
 143
 0.39400000000000E-1
 144
 1.0000000000000
 145
0.0
 146
 0.62500000000000
 147
0.0
  71
0
  72
0
  73
0
  74
0
  75
1
  76
1
  77
0
  78
8
 170
0
 171
2
 172
1
 173
1
 174
0
 175
0
 176
2
 177
2
 178
2
 270
2
 271
6
 272
0
 273
2
 274
2
 340
3A
 275
1
 280
0
 281
0
 282
0
 283
1
 284
0
 285
0
 286
0
 287
3
 288
0
   0
ENDTAB
  0
TABLE
  2
BLOCK_RECORD
  5
1
100
AcDbSymbolTable
 70
     0
  0
BLOCK_RECORD
  5
18
100
AcDbSymbolTableRecord
100
AcDbBlockTableRecord
  2
*MODEL_SPACE
  0
BLOCK_RECORD
  5
15
100
AcDbSymbolTableRecord
100
AcDbBlockTableRecord
  2
*PAPER_SPACE
   0
BLOCK_RECORD
   5
47
 100
AcDbSymbolTableRecord
 100
AcDbBlockTableRecord
   2
BLOCK001
   0
BLOCK_RECORD
   5
48
 100
AcDbSymbolTableRecord
 100
AcDbBlockTableRecord
   2
BLOCK002
   0
BLOCK_RECORD
   5
49
 100
AcDbSymbolTableRecord
 100
AcDbBlockTableRecord
   2
BLOCK003
   0
BLOCK_RECORD
   5
4A
 100
AcDbSymbolTableRecord
 100
AcDbBlockTableRecord
   2
BLOCK004
   0
BLOCK_RECORD
   5
4B
 100
AcDbSymbolTableRecord
 100
AcDbBlockTableRecord
   2
*D1
   0
BLOCK_RECORD
   5
4C
 100
AcDbSymbolTableRecord
 100
AcDbBlockTableRecord
   2
*D2
   0
BLOCK_RECORD
   5
4D
 100
AcDbSymbolTableRecord
 100
AcDbBlockTableRecord
   2
*D3
   0
BLOCK_RECORD
   5
4E
 100
AcDbSymbolTableRecord
 100
AcDbBlockTableRecord
   2
*D4
   0
BLOCK_RECORD
   5
4F
 100
AcDbSymbolTableRecord
 100
AcDbBlockTableRecord
   2
*D5
   0
BLOCK_RECORD
   5
50
 100
AcDbSymbolTableRecord
 100
AcDbBlockTableRecord
   2
*D6
   0
BLOCK_RECORD
   5
51
 100
AcDbSymbolTableRecord
 100
AcDbBlockTableRecord
   2
BLOCK005
   0
BLOCK_RECORD
   5
52
 100
AcDbSymbolTableRecord
 100
AcDbBlockTableRecord
   2
BLOCK006
   0
BLOCK_RECORD
   5
53
 100
AcDbSymbolTableRecord
 100
AcDbBlockTableRecord
   2
*D9
   0
BLOCK_RECORD
   5
54
 100
AcDbSymbolTableRecord
 100
AcDbBlockTableRecord
   2
*D10
   0
BLOCK_RECORD
   5
55
 100
AcDbSymbolTableRecord
 100
AcDbBlockTableRecord
   2
*D11
   0
BLOCK_RECORD
   5
56
 100
AcDbSymbolTableRecord
 100
AcDbBlockTableRecord
   2
*D14
   0
BLOCK_RECORD
   5
57
 100
AcDbSymbolTableRecord
 100
AcDbBlockTableRecord
   2
*D15
   0
BLOCK_RECORD
   5
58
 100
AcDbSymbolTableRecord
 100
AcDbBlockTableRecord
   2
*D17
   0
BLOCK_RECORD
   5
59
 100
AcDbSymbolTableRecord
 100
AcDbBlockTableRecord
   2
*D18
   0
BLOCK_RECORD
   5
5A
 100
AcDbSymbolTableRecord
 100
AcDbBlockTableRecord
   2
*D19
   0
BLOCK_RECORD
   5
5B
 100
AcDbSymbolTableRecord
 100
AcDbBlockTableRecord
   2
*D20
   0
BLOCK_RECORD
   5
5C
 100
AcDbSymbolTableRecord
 100
AcDbBlockTableRecord
   2
*D21
   0
BLOCK_RECORD
   5
5D
 100
AcDbSymbolTableRecord
 100
AcDbBlockTableRecord
   2
*D22
   0
BLOCK_RECORD
   5
5E
 100
AcDbSymbolTableRecord
 100
AcDbBlockTableRecord
   2
*D23
   0
BLOCK_RECORD
   5
5F
 100
AcDbSymbolTableRecord
 100
AcDbBlockTableRecord
   2
_ARCHTICK
   0
BLOCK_RECORD
   5
60
 100
AcDbSymbolTableRecord
 100
AcDbBlockTableRecord
   2
_BOXBLANK
   0
BLOCK_RECORD
   5
61
 100
AcDbSymbolTableRecord
 100
AcDbBlockTableRecord
   2
_BOXFILLED
   0
BLOCK_RECORD
   5
62
 100
AcDbSymbolTableRecord
 100
AcDbBlockTableRecord
   2
_CLOSED
   0
BLOCK_RECORD
   5
63
 100
AcDbSymbolTableRecord
 100
AcDbBlockTableRecord
   2
_CLOSEDBLANK
   0
BLOCK_RECORD
   5
64
 100
AcDbSymbolTableRecord
 100
AcDbBlockTableRecord
   2
_DATUMBLANK
   0
BLOCK_RECORD
   5
65
 100
AcDbSymbolTableRecord
 100
AcDbBlockTableRecord
   2
_DATUMFILLED
   0
BLOCK_RECORD
   5
66
 100
AcDbSymbolTableRecord
 100
AcDbBlockTableRecord
   2
_DOT
   0
BLOCK_RECORD
   5
67
 100
AcDbSymbolTableRecord
 100
AcDbBlockTableRecord
   2
_DOTBLANK
   0
BLOCK_RECORD
   5
68
 100
AcDbSymbolTableRecord
 100
AcDbBlockTableRecord
   2
_DOTSMALL
   0
BLOCK_RECORD
   5
69
 100
AcDbSymbolTableRecord
 100
AcDbBlockTableRecord
   2
_INTEGRAL
   0
BLOCK_RECORD
   5
6A
 100
AcDbSymbolTableRecord
 100
AcDbBlockTableRecord
   2
_NONE
   0
BLOCK_RECORD
   5
6B
 100
AcDbSymbolTableRecord
 100
AcDbBlockTableRecord
   2
_OBLIQUE
   0
BLOCK_RECORD
   5
6C
 100
AcDbSymbolTableRecord
 100
AcDbBlockTableRecord
   2
_OPEN
   0
BLOCK_RECORD
   5
6D
 100
AcDbSymbolTableRecord
 100
AcDbBlockTableRecord
   2
_OPEN30
   0
BLOCK_RECORD
   5
6E
 100
AcDbSymbolTableRecord
 100
AcDbBlockTableRecord
   2
_OPEN90
   0
BLOCK_RECORD
   5
6F
 100
AcDbSymbolTableRecord
 100
AcDbBlockTableRecord
   2
_ORIGIN
   0
ENDTAB
   0
ENDSEC
  0
SECTION
  2
BLOCKS
  0
BLOCK
  5
19
100
AcDbEntity
  8
0
100
AcDbBlockBegin
  2
*MODEL_SPACE
 70
     0
 10
0.0
 20
0.0
 30
0.0
  3
*MODEL_SPACE
  1

  0
ENDBLK
  5
1A
100
AcDbEntity
  8
0
100
AcDbBlockEnd
  0
BLOCK
  5
16
100
AcDbEntity
 67
     1
  8
0
100
AcDbBlockBegin
  2
*PAPER_SPACE
 70
     0
 10
0.0
 20
0.0
 30
0.0
  3
*PAPER_SPACE
  1

  0
ENDBLK
  5
17
100
AcDbEntity
 67
     1
  8
0
100
AcDbBlockEnd
   0
BLOCK
   5
70
 100
AcDbEntity
   8
0
 100
AcDbBlockBegin
   2
_ARCHTICK
  70
0
  10
0.0
  20
0.0
  30
0.0
   3
_ARCHTICK
   0
POLYLINE
   5
71
 100
AcDbEntity
   8
0
   6
BYBLOCK
  62
0
 100
AcDb2dPolyline
  66
1
  10
0.0
  20
0.0
  30
0.0
  70
1
  40
 0.15000000000000
  41
 0.15000000000000
   0
VERTEX
   5
72
 100
AcDbEntity
   8
0
   6
BYBLOCK
  62
0
 100
AcDbVertex
 100
AcDb2dVertex
  10
-0.50000000000000
  20
-0.50000000000000
  30
0.0
  40
 0.15000000000000
  41
 0.15000000000000
   0
VERTEX
   5
73
 100
AcDbEntity
   8
0
   6
BYBLOCK
  62
0
 100
AcDbVertex
 100
AcDb2dVertex
  10
 0.50000000000000
  20
 0.50000000000000
  30
0.0
  40
 0.15000000000000
  41
 0.15000000000000
   0
SEQEND
   5
74
 100
AcDbEntity
   8
0
   6
BYBLOCK
  62
0
   0
ENDBLK
   5
75
 100
AcDbEntity
   8
0
 100
AcDbBlockEnd
   0
BLOCK
   5
76
 100
AcDbEntity
   8
0
 100
AcDbBlockBegin
   2
_OBLIQUE
  70
0
  10
0.0
  20
0.0
  30
0.0
   3
_OBLIQUE
   0
LINE
   5
77
 100
AcDbEntity
   8
0
 100
AcDbLine
   6
BYBLOCK
  62
0
  10
-0.50000000000000
  20
-0.50000000000000
  30
0.0
  11
 0.50000000000000
  21
 0.50000000000000
  31
0.0
   0
ENDBLK
   5
78
 100
AcDbEntity
   8
0
 100
AcDbBlockEnd
   0
BLOCK
   5
79
 100
AcDbEntity
   8
0
 100
AcDbBlockBegin
   2
_BOXBLANK
  70
0
  10
0.0
  20
0.0
  30
0.0
   3
_BOXBLANK
   0
LINE
   5
7A
 100
AcDbEntity
   8
0
 100
AcDbLine
   6
BYBLOCK
  62
0
  10
-0.50000000000000
  20
-0.50000000000000
  30
0.0
  11
 0.50000000000000
  21
-0.50000000000000
  31
0.0
   0
LINE
   5
7B
 100
AcDbEntity
   8
0
 100
AcDbLine
   6
BYBLOCK
  62
0
  10
 0.50000000000000
  20
-0.50000000000000
  30
0.0
  11
 0.50000000000000
  21
 0.50000000000000
  31
0.0
   0
LINE
   5
7C
 100
AcDbEntity
   8
0
 100
AcDbLine
   6
BYBLOCK
  62
0
  10
 0.50000000000000
  20
 0.50000000000000
  30
0.0
  11
-0.50000000000000
  21
 0.50000000000000
  31
0.0
   0
LINE
   5
7D
 100
AcDbEntity
   8
0
 100
AcDbLine
   6
BYBLOCK
  62
0
  10
-0.50000000000000
  20
 0.50000000000000
  30
0.0
  11
-0.50000000000000
  21
-0.50000000000000
  31
0.0
   0
LINE
   5
7E
 100
AcDbEntity
   8
0
 100
AcDbLine
   6
BYBLOCK
  62
0
  10
-0.50000000000000
  20
0.0
  30
0.0
  11
-1.0000000000000
  21
0.0
  31
0.0
   0
ENDBLK
   5
7F
 100
AcDbEntity
   8
0
 100
AcDbBlockEnd
   0
BLOCK
   5
80
 100
AcDbEntity
   8
0
 100
AcDbBlockBegin
   2
_BOXFILLED
  70
0
  10
0.0
  20
0.0
  30
0.0
   3
_BOXFILLED
   0
SOLID
   5
81
 100
AcDbEntity
   8
0
 100
AcDbTrace
   6
BYBLOCK
  62
0
  10
-0.50000000000000
  20
 0.50000000000000
  30
0.0
  11
 0.50000000000000
  21
 0.50000000000000
  31
0.0
  12
-0.50000000000000
  22
-0.50000000000000
  32
0.0
  13
 0.50000000000000
  23
-0.50000000000000
  33
0.0
   0
LINE
   5
82
 100
AcDbEntity
   8
0
 100
AcDbLine
   6
BYBLOCK
  62
0
  10
-0.50000000000000
  20
0.0
  30
0.0
  11
-1.0000000000000
  21
0.0
  31
0.0
   0
ENDBLK
   5
83
 100
AcDbEntity
   8
0
 100
AcDbBlockEnd
   0
BLOCK
   5
84
 100
AcDbEntity
   8
0
 100
AcDbBlockBegin
   2
_CLOSED
  70
0
  10
0.0
  20
0.0
  30
0.0
   3
_CLOSED
   0
LINE
   5
85
 100
AcDbEntity
   8
0
 100
AcDbLine
   6
BYBLOCK
  62
0
  10
-1.0000000000000
  20
 0.16666666666667
  30
0.0
  11
0.0
  21
0.0
  31
0.0
   0
LINE
   5
86
 100
AcDbEntity
   8
0
 100
AcDbLine
   6
BYBLOCK
  62
0
  10
0.0
  20
0.0
  30
0.0
  11
-1.0000000000000
  21
-0.16666666666667
  31
0.0
   0
LINE
   5
87
 100
AcDbEntity
   8
0
 100
AcDbLine
   6
BYBLOCK
  62
0
  10
-1.0000000000000
  20
 0.16666666666667
  30
0.0
  11
-1.0000000000000
  21
-0.16666666666667
  31
0.0
   0
LINE
   5
88
 100
AcDbEntity
   8
0
 100
AcDbLine
   6
BYBLOCK
  62
0
  10
0.0
  20
0.0
  30
0.0
  11
-1.0000000000000
  21
0.0
  31
0.0
   0
ENDBLK
   5
89
 100
AcDbEntity
   8
0
 100
AcDbBlockEnd
   0
BLOCK
   5
8A
 100
AcDbEntity
   8
0
 100
AcDbBlockBegin
   2
_OPEN
  70
0
  10
0.0
  20
0.0
  30
0.0
   3
_OPEN
   0
LINE
   5
8B
 100
AcDbEntity
   8
0
 100
AcDbLine
   6
BYBLOCK
  62
0
  10
-1.0000000000000
  20
 0.16666666666667
  30
0.0
  11
0.0
  21
0.0
  31
0.0
   0
LINE
   5
8C
 100
AcDbEntity
   8
0
 100
AcDbLine
   6
BYBLOCK
  62
0
  10
0.0
  20
0.0
  30
0.0
  11
-1.0000000000000
  21
-0.16666666666667
  31
0.0
   0
LINE
   5
8D
 100
AcDbEntity
   8
0
 100
AcDbLine
   6
BYBLOCK
  62
0
  10
0.0
  20
0.0
  30
0.0
  11
-1.0000000000000
  21
0.0
  31
0.0
   0
ENDBLK
   5
8E
 100
AcDbEntity
   8
0
 100
AcDbBlockEnd
   0
BLOCK
   5
8F
 100
AcDbEntity
   8
0
 100
AcDbBlockBegin
   2
_OPEN30
  70
0
  10
0.0
  20
0.0
  30
0.0
   3
_OPEN30
   0
LINE
   5
90
 100
AcDbEntity
   8
0
 100
AcDbLine
   6
BYBLOCK
  62
0
  10
-1.0000000000000
  20
 0.26794919243110
  30
0.0
  11
0.0
  21
0.0
  31
0.0
   0
LINE
   5
91
 100
AcDbEntity
   8
0
 100
AcDbLine
   6
BYBLOCK
  62
0
  10
0.0
  20
0.0
  30
0.0
  11
-1.0000000000000
  21
-0.26794919243110
  31
0.0
   0
LINE
   5
92
 100
AcDbEntity
   8
0
 100
AcDbLine
   6
BYBLOCK
  62
0
  10
0.0
  20
0.0
  30
0.0
  11
-1.0000000000000
  21
0.0
  31
0.0
   0
ENDBLK
   5
93
 100
AcDbEntity
   8
0
 100
AcDbBlockEnd
   0
BLOCK
   5
94
 100
AcDbEntity
   8
0
 100
AcDbBlockBegin
   2
_OPEN90
  70
0
  10
0.0
  20
0.0
  30
0.0
   3
_OPEN90
   0
LINE
   5
95
 100
AcDbEntity
   8
0
 100
AcDbLine
   6
BYBLOCK
  62
0
  10
-0.50000000000000
  20
 0.50000000000000
  30
0.0
  11
0.0
  21
0.0
  31
0.0
   0
LINE
   5
96
 100
AcDbEntity
   8
0
 100
AcDbLine
   6
BYBLOCK
  62
0
  10
0.0
  20
0.0
  30
0.0
  11
-0.50000000000000
  21
-0.50000000000000
  31
0.0
   0
LINE
   5
97
 100
AcDbEntity
   8
0
 100
AcDbLine
   6
BYBLOCK
  62
0
  10
0.0
  20
0.0
  30
0.0
  11
-1.0000000000000
  21
0.0
  31
0.0
   0
ENDBLK
   5
98
 100
AcDbEntity
   8
0
 100
AcDbBlockEnd
   0
BLOCK
   5
99
 100
AcDbEntity
   8
0
 100
AcDbBlockBegin
   2
_CLOSEDBLANK
  70
0
  10
0.0
  20
0.0
  30
0.0
   3
_CLOSEDBLANK
   0
LINE
   5
9A
 100
AcDbEntity
   8
0
 100
AcDbLine
   6
BYBLOCK
  62
0
  10
-1.0000000000000
  20
 0.16666666666667
  30
0.0
  11
0.0
  21
0.0
  31
0.0
   0
LINE
   5
9B
 100
AcDbEntity
   8
0
 100
AcDbLine
   6
BYBLOCK
  62
0
  10
0.0
  20
0.0
  30
0.0
  11
-1.0000000000000
  21
-0.16666666666667
  31
0.0
   0
LINE
   5
9C
 100
AcDbEntity
   8
0
 100
AcDbLine
   6
BYBLOCK
  62
0
  10
-1.0000000000000
  20
 0.16666666666667
  30
0.0
  11
-1.0000000000000
  21
-0.16666666666667
  31
0.0
   0
ENDBLK
   5
9D
 100
AcDbEntity
   8
0
 100
AcDbBlockEnd
   0
BLOCK
   5
9E
 100
AcDbEntity
   8
0
 100
AcDbBlockBegin
   2
_DOT
  70
0
  10
0.0
  20
0.0
  30
0.0
   3
_DOT
   0
POLYLINE
   5
9F
 100
AcDbEntity
   8
0
   6
BYBLOCK
  62
0
 100
AcDb2dPolyline
  66
1
  10
0.0
  20
0.0
  30
0.0
  70
1
  40
 0.50000000000000
  41
 0.50000000000000
   0
VERTEX
   5
A0
 100
AcDbEntity
   8
0
   6
BYBLOCK
  62
0
 100
AcDbVertex
 100
AcDb2dVertex
  10
-0.25000000000000
  20
0.0
  30
0.0
  42
 1.0000000000000
  40
 0.50000000000000
  41
 0.50000000000000
   0
VERTEX
   5
A1
 100
AcDbEntity
   8
0
   6
BYBLOCK
  62
0
 100
AcDbVertex
 100
AcDb2dVertex
  10
 0.25000000000000
  20
0.0
  30
0.0
  42
 1.0000000000000
  40
 0.50000000000000
  41
 0.50000000000000
   0
SEQEND
   5
A2
 100
AcDbEntity
   8
0
   6
BYBLOCK
  62
0
   0
LINE
   5
A3
 100
AcDbEntity
   8
0
 100
AcDbLine
   6
BYBLOCK
  62
0
  10
-0.50000000000000
  20
0.0
  30
0.0
  11
-1.0000000000000
  21
0.0
  31
0.0
   0
ENDBLK
   5
A4
 100
AcDbEntity
   8
0
 100
AcDbBlockEnd
   0
BLOCK
   5
A5
 100
AcDbEntity
   8
0
 100
AcDbBlockBegin
   2
_DOTSMALL
  70
0
  10
0.0
  20
0.0
  30
0.0
   3
_DOTSMALL
   0
POLYLINE
   5
A6
 100
AcDbEntity
   8
0
   6
BYBLOCK
  62
0
 100
AcDb2dPolyline
  66
1
  10
0.0
  20
0.0
  30
0.0
  70
1
  40
 0.50000000000000
  41
 0.50000000000000
   0
VERTEX
   5
A7
 100
AcDbEntity
   8
0
   6
BYBLOCK
  62
0
 100
AcDbVertex
 100
AcDb2dVertex
  10
-0.62500000000000E-1
  20
0.0
  30
0.0
  42
 1.0000000000000
  40
 0.50000000000000
  41
 0.50000000000000
   0
VERTEX
   5
A8
 100
AcDbEntity
   8
0
   6
BYBLOCK
  62
0
 100
AcDbVertex
 100
AcDb2dVertex
  10
 0.62500000000000E-1
  20
0.0
  30
0.0
  42
 1.0000000000000
  40
 0.50000000000000
  41
 0.50000000000000
   0
SEQEND
   5
A9
 100
AcDbEntity
   8
0
   6
BYBLOCK
  62
0
   0
ENDBLK
   5
AA
 100
AcDbEntity
   8
0
 100
AcDbBlockEnd
   0
BLOCK
   5
AB
 100
AcDbEntity
   8
0
 100
AcDbBlockBegin
   2
_DATUMBLANK
  70
0
  10
0.0
  20
0.0
  30
0.0
   3
_DATUMBLANK
   0
LINE
   5
AC
 100
AcDbEntity
   8
0
 100
AcDbLine
   6
BYBLOCK
  62
0
  10
0.0
  20
 0.57735027000000
  30
0.0
  11
-1.0000000000000
  21
0.0
  31
0.0
   0
LINE
   5
AD
 100
AcDbEntity
   8
0
 100
AcDbLine
   6
BYBLOCK
  62
0
  10
-1.0000000000000
  20
0.0
  30
0.0
  11
0.0
  21
-0.57735027000000
  31
0.0
   0
LINE
   5
AE
 100
AcDbEntity
   8
0
 100
AcDbLine
   6
BYBLOCK
  62
0
  10
0.0
  20
-0.57735027000000
  30
0.0
  11
0.0
  21
 0.57735027000000
  31
0.0
   0
ENDBLK
   5
AF
 100
AcDbEntity
   8
0
 100
AcDbBlockEnd
   0
BLOCK
   5
B0
 100
AcDbEntity
   8
0
 100
AcDbBlockBegin
   2
_DATUMFILLED
  70
0
  10
0.0
  20
0.0
  30
0.0
   3
_DATUMFILLED
   0
SOLID
   5
B1
 100
AcDbEntity
   8
0
 100
AcDbTrace
   6
BYBLOCK
  62
0
  10
0.0
  20
 0.57735027000000
  30
0.0
  11
-1.0000000000000
  21
0.0
  31
0.0
  12
0.0
  22
-0.57735027000000
  32
0.0
  13
0.0
  23
-0.57735027000000
  33
0.0
   0
ENDBLK
   5
B2
 100
AcDbEntity
   8
0
 100
AcDbBlockEnd
   0
BLOCK
   5
B3
 100
AcDbEntity
   8
0
 100
AcDbBlockBegin
   2
_ORIGIN
  70
0
  10
0.0
  20
0.0
  30
0.0
   3
_ORIGIN
   0
CIRCLE
   5
B4
 100
AcDbEntity
   8
0
 100
AcDbCircle
   6
BYBLOCK
  62
0
  10
0.0
  20
0.0
  30
0.0
  40
 0.50000000000000
   0
LINE
   5
B5
 100
AcDbEntity
   8
0
 100
AcDbLine
   6
BYBLOCK
  62
0
  10
0.0
  20
0.0
  30
0.0
  11
-1.0000000000000
  21
0.0
  31
0.0
   0
ENDBLK
   5
B6
 100
AcDbEntity
   8
0
 100
AcDbBlockEnd
   0
BLOCK
   5
B7
 100
AcDbEntity
   8
0
 100
AcDbBlockBegin
   2
_NONE
  70
0
  10
0.0
  20
0.0
  30
0.0
   3
_NONE
   0
CIRCLE
   5
B8
 100
AcDbEntity
   8
0
 100
AcDbCircle
   6
BYBLOCK
  62
0
  10
0.0
  20
0.0
  30
0.0
  40
 0.25000000000000
   0
ENDBLK
   5
B9
 100
AcDbEntity
   8
0
 100
AcDbBlockEnd
   0
BLOCK
   5
BA
 100
AcDbEntity
   8
0
 100
AcDbBlockBegin
   2
_DOTBLANK
  70
0
  10
0.0
  20
0.0
  30
0.0
   3
_DOTBLANK
   0
CIRCLE
   5
BB
 100
AcDbEntity
   8
0
 100
AcDbCircle
   6
BYBLOCK
  62
0
  10
0.0
  20
0.0
  30
0.0
  40
 0.50000000000000
   0
LINE
   5
BC
 100
AcDbEntity
   8
0
 100
AcDbLine
   6
BYBLOCK
  62
0
  10
-0.50000000000000
  20
0.0
  30
0.0
  11
-1.0000000000000
  21
0.0
  31
0.0
   0
ENDBLK
   5
BD
 100
AcDbEntity
   8
0
 100
AcDbBlockEnd
   0
BLOCK
   5
BE
 100
AcDbEntity
   8
0
 100
AcDbBlockBegin
   2
_INTEGRAL
  70
0
  10
0.0
  20
0.0
  30
0.0
   3
_INTEGRAL
   0
ARC
   5
BF
 100
AcDbEntity
   8
0
   6
BYBLOCK
  62
0
 100
AcDbCircle
  10
 0.44488800000000
  20
-0.91335000000000E-1
  30
0.0
  40
 0.45416700000000
 100
AcDbArc
  50
 102.00000000000
  51
 168.00000000000
   0
ARC
   5
C0
 100
AcDbEntity
   8
0
   6
BYBLOCK
  62
0
 100
AcDbCircle
  10
-0.44488800000000
  20
 0.91335000000000E-1
  30
0.0
  40
 0.45416700000000
 100
AcDbArc
  50
 282.00000000000
  51
 348.00000000000
   0
ENDBLK
   5
C1
 100
AcDbEntity
   8
0
 100
AcDbBlockEnd
   0
BLOCK
   5
C2
 100
AcDbEntity
   8
0
 100
AcDbBlockBegin
   2
BLOCK001
  70
64
  10
0.0
  20
0.0
  30
0.0
   3
BLOCK001
   0
LWPOLYLINE
   5
C3
 100
AcDbEntity
   8
0
   6
CONTINUOUS
  62
8
 100
AcDbPolyline
  90
22
  70
1
  10
 308.57933271356
  20
 18.501906399220
  10
 311.87601195884
  20
 23.726906399220
  10
 315.22001195884
  20
 23.726906399220
  10
 311.92333271356
  20
 18.501906399220
  10
 312.56465346828
  20
 16.191906399220
  10
 335.37201195884
  20
 16.191906399220
  10
 335.37201195884
  20
 15.839906399220
  10
 312.66237853566
  20
 15.839906399220
  10
 313.54801195884
  20
 12.649906399220
  10
 309.78601195884
  20
 12.649906399220
  10
 309.12823567852
  20
 15.839906399220
  10
 308.17752139281
  20
 15.839906399220
  10
 307.69601195884
  20
 12.649906399220
  10
 304.35201195884
  20
 12.649906399220
  10
 304.83352139281
  20
 15.839906399220
  10
 303.25201195884
  20
 15.839906399220
  10
 303.25201195884
  20
 16.191906399220
  10
 304.88665346828
  20
 16.191906399220
  10
 306.02401195884
  20
 23.726906399220
  10
 309.36801195884
  20
 23.726906399220
  10
 308.23065346828
  20
 16.191906399220
  10
 309.05565346828
  20
 16.191906399220
   0
ENDBLK
   5
C4
 100
AcDbEntity
   8
0
 100
AcDbBlockEnd
   0
BLOCK
   5
C5
 100
AcDbEntity
   8
0
 100
AcDbBlockBegin
   2
BLOCK002
  70
64
  10
0.0
  20
0.0
  30
0.0
   3
BLOCK002
   0
LINE
   5
C6
 100
AcDbEntity
   8
0
 100
AcDbLine
   6
CONTINUOUS
  62
1
  10
 84.466758141817
  20
 209.95016561459
  30
0.0
  11
 96.598286378352
  21
 222.08169385112
  31
0.0
   0
LINE
   5
C7
 100
AcDbEntity
   8
0
 100
AcDbLine
   6
CONTINUOUS
  62
1
  10
 84.466758141817
  20
 212.77859273933
  30
0.0
  11
 93.769859253606
  21
 222.08169385112
  31
0.0
   0
LINE
   5
C8
 100
AcDbEntity
   8
0
 100
AcDbLine
   6
CONTINUOUS
  62
1
  10
 84.466758141817
  20
 215.60701986408
  30
0.0
  11
 90.941432128860
  21
 222.08169385112
  31
0.0
   0
LINE
   5
C9
 100
AcDbEntity
   8
0
 100
AcDbLine
   6
CONTINUOUS
  62
1
  10
 84.466758141817
  20
 218.43544698883
  30
0.0
  11
 88.113005004114
  21
 222.08169385112
  31
0.0
   0
LINE
   5
CA
 100
AcDbEntity
   8
0
 100
AcDbLine
   6
CONTINUOUS
  62
1
  10
 84.466758141817
  20
 221.26387411357
  30
0.0
  11
 85.284577879367
  21
 222.08169385112
  31
0.0
   0
LINE
   5
CB
 100
AcDbEntity
   8
0
 100
AcDbLine
   6
CONTINUOUS
  62
1
  10
 84.466758141817
  20
 207.12173848984
  30
0.0
  11
 99.426713503098
  21
 222.08169385112
  31
0.0
   0
LINE
   5
CC
 100
AcDbEntity
   8
0
 100
AcDbLine
   6
CONTINUOUS
  62
1
  10
 87.710984750560
  20
 182.08169385112
  30
0.0
  11
 95.607042005305
  21
 189.97775110587
  31
0.0
   0
LINE
   5
CD
 100
AcDbEntity
   8
0
 100
AcDbLine
   6
CONTINUOUS
  62
1
  10
 116.57070088707
  20
 210.94140998763
  30
0.0
  11
 124.46675814182
  21
 218.83746724238
  31
0.0
   0
LINE
   5
CE
 100
AcDbEntity
   8
0
 100
AcDbLine
   6
CONTINUOUS
  62
1
  10
 84.882557625814
  20
 182.08169385112
  30
0.0
  11
 94.070093880648
  21
 191.26923010596
  31
0.0
   0
LINE
   5
CF
 100
AcDbEntity
   8
0
 100
AcDbLine
   6
CONTINUOUS
  62
1
  10
 115.27922188698
  20
 212.47835811229
  30
0.0
  11
 124.46675814182
  21
 221.66589436712
  31
0.0
   0
LINE
   5
D0
 100
AcDbEntity
   8
0
 100
AcDbLine
   6
CONTINUOUS
  62
1
  10
 84.466758141817
  20
 184.49432149187
  30
0.0
  11
 92.722664338601
  21
 192.75022768866
  31
0.0
   0
LINE
   5
D1
 100
AcDbEntity
   8
0
 100
AcDbLine
   6
CONTINUOUS
  62
1
  10
 113.79822430428
  20
 213.82578765434
  30
0.0
  11
 122.05413050107
  21
 222.08169385112
  31
0.0
   0
LINE
   5
D2
 100
AcDbEntity
   8
0
 100
AcDbLine
   6
CONTINUOUS
  62
1
  10
 84.466758141817
  20
 187.32274861662
  30
0.0
  11
 91.568447134363
  21
 194.42443760916
  31
0.0
   0
LINE
   5
D3
 100
AcDbEntity
   8
0
 100
AcDbLine
   6
CONTINUOUS
  62
1
  10
 112.12401438378
  20
 214.98000485858
  30
0.0
  11
 119.22570337632
  21
 222.08169385112
  31
0.0
   0
LINE
   5
D4
 100
AcDbEntity
   8
0
 100
AcDbLine
   6
CONTINUOUS
  62
1
  10
 84.466758141817
  20
 190.15117574136
  30
0.0
  11
 90.622793705218
  21
 196.30721130476
  31
0.0
   0
LINE
   5
D5
 100
AcDbEntity
   8
0
 100
AcDbLine
   6
CONTINUOUS
  62
1
  10
 110.24124068817
  20
 215.92565828772
  30
0.0
  11
 116.39727625158
  21
 222.08169385112
  31
0.0
   0
LINE
   5
D6
 100
AcDbEntity
   8
0
 100
AcDbLine
   6
CONTINUOUS
  62
1
  10
 84.466758141817
  20
 192.97960286611
  30
0.0
  11
 89.917864361159
  21
 198.43070908545
  31
0.0
   0
LINE
   5
D7
 100
AcDbEntity
   8
0
 100
AcDbLine
   6
CONTINUOUS
  62
1
  10
 108.11774290749
  20
 216.63058763178
  30
0.0
  11
 113.56884912683
  21
 222.08169385112
  31
0.0
   0
LINE
   5
D8
 100
AcDbEntity
   8
0
 100
AcDbLine
   6
CONTINUOUS
  62
1
  10
 84.466758141817
  20
 195.80802999086
  30
0.0
  11
 89.516753604903
  21
 200.85802545394
  31
0.0
   0
LINE
   5
D9
 100
AcDbEntity
   8
0
 100
AcDbLine
   6
CONTINUOUS
  62
1
  10
 105.69042653900
  20
 217.03169838804
  30
0.0
  11
 110.74042200208
  21
 222.08169385112
  31
0.0
   0
LINE
   5
DA
 100
AcDbEntity
   8
0
 100
AcDbLine
   6
CONTINUOUS
  62
1
  10
 84.466758141817
  20
 198.63645711560
  30
0.0
  11
 89.557261212460
  21
 203.72696018624
  31
0.0
   0
LINE
   5
DB
 100
AcDbEntity
   8
0
 100
AcDbLine
   6
CONTINUOUS
  62
1
  10
 102.82149180669
  20
 216.99119078048
  30
0.0
  11
 107.91199487734
  21
 222.08169385112
  31
0.0
   0
LINE
   5
DC
 100
AcDbEntity
   8
0
 100
AcDbLine
   6
CONTINUOUS
  62
1
  10
 84.466758141817
  20
 201.46488424035
  30
0.0
  11
 90.465524611595
  21
 207.46365071013
  31
0.0
   0
LINE
   5
DD
 100
AcDbEntity
   8
0
 100
AcDbLine
   6
CONTINUOUS
  62
1
  10
 99.084801282813
  20
 216.08292738134
  30
0.0
  11
 105.08356775259
  21
 222.08169385112
  31
0.0
   0
LINE
   5
DE
 100
AcDbEntity
   8
0
 100
AcDbLine
   6
CONTINUOUS
  62
1
  10
 84.466758141817
  20
 204.29331136509
  30
0.0
  11
 102.25514062784
  21
 222.08169385112
  31
0.0
   0
LINE
   5
DF
 100
AcDbEntity
   8
0
 100
AcDbLine
   6
CONTINUOUS
  62
1
  10
 113.16682887328
  20
 182.08169385112
  30
0.0
  11
 124.46675814182
  21
 193.38162311966
  31
0.0
   0
LINE
   5
E0
 100
AcDbEntity
   8
0
 100
AcDbLine
   6
CONTINUOUS
  62
1
  10
 110.33840174853
  20
 182.08169385112
  30
0.0
  11
 124.46675814182
  21
 196.21005024441
  31
0.0
   0
LINE
   5
E1
 100
AcDbEntity
   8
0
 100
AcDbLine
   6
CONTINUOUS
  62
1
  10
 107.50997462378
  20
 182.08169385112
  30
0.0
  11
 124.46675814182
  21
 199.03847736916
  31
0.0
   0
LINE
   5
E2
 100
AcDbEntity
   8
0
 100
AcDbLine
   6
CONTINUOUS
  62
1
  10
 104.68154749904
  20
 182.08169385112
  30
0.0
  11
 111.35847671566
  21
 188.75862306774
  31
0.0
   0
LINE
   5
E3
 100
AcDbEntity
   8
0
 100
AcDbLine
   6
CONTINUOUS
  62
1
  10
 117.78982892520
  20
 195.18997527728
  30
0.0
  11
 124.46675814182
  21
 201.86690449390
  31
0.0
   0
LINE
   5
E4
 100
AcDbEntity
   8
0
 100
AcDbLine
   6
CONTINUOUS
  62
1
  10
 101.85312037429
  20
 182.08169385112
  30
0.0
  11
 107.08304843459
  21
 187.31162191142
  31
0.0
   0
LINE
   5
E5
 100
AcDbEntity
   8
0
 100
AcDbLine
   6
CONTINUOUS
  62
1
  10
 119.23683008152
  20
 199.46540355835
  30
0.0
  11
 124.46675814182
  21
 204.69533161865
  31
0.0
   0
LINE
   5
E6
 100
AcDbEntity
   8
0
 100
AcDbLine
   6
CONTINUOUS
  62
1
  10
 99.024693249545
  20
 182.08169385112
  30
0.0
  11
 104.03102341045
  21
 187.08802401202
  31
0.0
   0
LINE
   5
E7
 100
AcDbEntity
   8
0
 100
AcDbLine
   6
CONTINUOUS
  62
1
  10
 119.46042798091
  20
 202.51742858249
  30
0.0
  11
 124.46675814182
  21
 207.52375874339
  31
0.0
   0
LINE
   5
E8
 100
AcDbEntity
   8
0
 100
AcDbLine
   6
CONTINUOUS
  62
1
  10
 96.196266124799
  20
 182.08169385112
  30
0.0
  11
 101.49382801249
  21
 187.37925573882
  31
0.0
   0
LINE
   5
E9
 100
AcDbEntity
   8
0
 100
AcDbLine
   6
CONTINUOUS
  62
1
  10
 119.16919625412
  20
 205.05462398045
  30
0.0
  11
 124.46675814182
  21
 210.35218586814
  31
0.0
   0
LINE
   5
EA
 100
AcDbEntity
   8
0
 100
AcDbLine
   6
CONTINUOUS
  62
1
  10
 93.367839000053
  20
 182.08169385112
  30
0.0
  11
 99.289594281293
  21
 188.00344913236
  31
0.0
   0
LINE
   5
EB
 100
AcDbEntity
   8
0
 100
AcDbLine
   6
CONTINUOUS
  62
1
  10
 118.54500286058
  20
 207.25885771165
  30
0.0
  11
 124.46675814182
  21
 213.18061299289
  31
0.0
   0
LINE
   5
EC
 100
AcDbEntity
   8
0
 100
AcDbLine
   6
CONTINUOUS
  62
1
  10
 90.539411875306
  20
 182.08169385112
  30
0.0
  11
 97.340372813567
  21
 188.88265478938
  31
0.0
   0
LINE
   5
ED
 100
AcDbEntity
   8
0
 100
AcDbLine
   6
CONTINUOUS
  62
1
  10
 117.66579720356
  20
 209.20807917937
  30
0.0
  11
 124.46675814182
  21
 216.00904011763
  31
0.0
   0
LINE
   5
EE
 100
AcDbEntity
   8
0
 100
AcDbLine
   6
CONTINUOUS
  62
1
  10
 115.99525599802
  20
 182.08169385112
  30
0.0
  11
 124.46675814182
  21
 190.55319599492
  31
0.0
   0
LINE
   5
EF
 100
AcDbEntity
   8
0
 100
AcDbLine
   6
CONTINUOUS
  62
1
  10
 121.65211024751
  20
 182.08169385112
  30
0.0
  11
 124.46675814182
  21
 184.89634174542
  31
0.0
   0
LINE
   5
F0
 100
AcDbEntity
   8
0
 100
AcDbLine
   6
CONTINUOUS
  62
1
  10
 118.82368312277
  20
 182.08169385112
  30
0.0
  11
 124.46675814182
  21
 187.72476887017
  31
0.0
   0
ENDBLK
   5
F1
 100
AcDbEntity
   8
0
 100
AcDbBlockEnd
   0
BLOCK
   5
F2
 100
AcDbEntity
   8
0
 100
AcDbBlockBegin
   2
BLOCK003
  70
64
  10
0.0
  20
0.0
  30
0.0
   3
BLOCK003
   0
LINE
   5
F3
 100
AcDbEntity
   8
0
 100
AcDbLine
   6
CONTINUOUS
  62
1
  10
 29.699301259529
  20
 233.57167029588
  30
0.0
  11
 41.149866654375
  21
 240.18265730897
  31
0.0
   0
LINE
   5
F4
 100
AcDbEntity
   8
0
 100
AcDbLine
   6
CONTINUOUS
  62
1
  10
 29.699301259529
  20
 231.57167029588
  30
0.0
  11
 44.613968269513
  21
 240.18265730897
  31
0.0
   0
LINE
   5
F5
 100
AcDbEntity
   8
0
 100
AcDbLine
   6
CONTINUOUS
  62
1
  10
 37.076388156678
  20
 228.83083340179
  30
0.0
  11
 56.738323922495
  21
 240.18265730897
  31
0.0
   0
LINE
   5
F6
 100
AcDbEntity
   8
0
 100
AcDbLine
   6
CONTINUOUS
  62
1
  10
 35.344337349109
  20
 228.83083340179
  30
0.0
  11
 55.006273114926
  21
 240.18265730897
  31
0.0
   0
LINE
   5
F7
 100
AcDbEntity
   8
0
 100
AcDbLine
   6
CONTINUOUS
  62
1
  10
 33.612286541540
  20
 228.83083340179
  30
0.0
  11
 53.274222307357
  21
 240.18265730897
  31
0.0
   0
LINE
   5
F8
 100
AcDbEntity
   8
0
 100
AcDbLine
   6
CONTINUOUS
  62
1
  10
 31.880235733971
  20
 228.83083340179
  30
0.0
  11
 51.542171499788
  21
 240.18265730897
  31
0.0
   0
LINE
   5
F9
 100
AcDbEntity
   8
0
 100
AcDbLine
   6
CONTINUOUS
  62
1
  10
 30.148184926403
  20
 228.83083340179
  30
0.0
  11
 49.810120692219
  21
 240.18265730897
  31
0.0
   0
LINE
   5
FA
 100
AcDbEntity
   8
0
 100
AcDbLine
   6
CONTINUOUS
  62
1
  10
 29.699301259529
  20
 229.57167029588
  30
0.0
  11
 48.078069884651
  21
 240.18265730897
  31
0.0
   0
LINE
   5
FB
 100
AcDbEntity
   8
0
 100
AcDbLine
   6
CONTINUOUS
  62
1
  10
 29.699301259529
  20
 230.57167029588
  30
0.0
  11
 46.346019077082
  21
 240.18265730897
  31
0.0
   0
LINE
   5
FC
 100
AcDbEntity
   8
0
 100
AcDbLine
   6
CONTINUOUS
  62
1
  10
 29.699301259529
  20
 232.57167029588
  30
0.0
  11
 42.881917461944
  21
 240.18265730897
  31
0.0
   0
LINE
   5
FD
 100
AcDbEntity
   8
0
 100
AcDbLine
   6
CONTINUOUS
  62
1
  10
 29.699301259529
  20
 234.57167029588
  30
0.0
  11
 39.417815846806
  21
 240.18265730897
  31
0.0
   0
LINE
   5
FE
 100
AcDbEntity
   8
0
 100
AcDbLine
   6
CONTINUOUS
  62
1
  10
 29.699301259529
  20
 235.57167029588
  30
0.0
  11
 37.685765039237
  21
 240.18265730897
  31
0.0
   0
LINE
   5
FF
 100
AcDbEntity
   8
0
 100
AcDbLine
   6
CONTINUOUS
  62
1
  10
 29.699301259529
  20
 236.57167029588
  30
0.0
  11
 35.953714231668
  21
 240.18265730897
  31
0.0
   0
LINE
   5
100
 100
AcDbEntity
   8
0
 100
AcDbLine
   6
CONTINUOUS
  62
1
  10
 29.699301259529
  20
 237.57167029588
  30
0.0
  11
 34.221663424099
  21
 240.18265730897
  31
0.0
   0
LINE
   5
101
 100
AcDbEntity
   8
0
 100
AcDbLine
   6
CONTINUOUS
  62
1
  10
 29.699301259529
  20
 238.57167029588
  30
0.0
  11
 32.489612616531
  21
 240.18265730897
  31
0.0
   0
LINE
   5
102
 100
AcDbEntity
   8
0
 100
AcDbLine
   6
CONTINUOUS
  62
1
  10
 29.699301259529
  20
 239.57167029588
  30
0.0
  11
 30.757561808962
  21
 240.18265730897
  31
0.0
   0
LINE
   5
103
 100
AcDbEntity
   8
0
 100
AcDbLine
   6
CONTINUOUS
  62
1
  10
 38.808438964247
  20
 228.83083340179
  30
0.0
  11
 57.699301259529
  21
 239.73747783319
  31
0.0
   0
LINE
   5
104
 100
AcDbEntity
   8
0
 100
AcDbLine
   6
CONTINUOUS
  62
1
  10
 54.396896232367
  20
 228.83083340179
  30
0.0
  11
 57.699301259529
  21
 230.73747783319
  31
0.0
   0
LINE
   5
105
 100
AcDbEntity
   8
0
 100
AcDbLine
   6
CONTINUOUS
  62
1
  10
 56.128947039936
  20
 228.83083340179
  30
0.0
  11
 57.699301259529
  21
 229.73747783319
  31
0.0
   0
LINE
   5
106
 100
AcDbEntity
   8
0
 100
AcDbLine
   6
CONTINUOUS
  62
1
  10
 52.664845424798
  20
 228.83083340179
  30
0.0
  11
 57.699301259529
  21
 231.73747783319
  31
0.0
   0
LINE
   5
107
 100
AcDbEntity
   8
0
 100
AcDbLine
   6
CONTINUOUS
  62
1
  10
 50.932794617229
  20
 228.83083340179
  30
0.0
  11
 57.699301259529
  21
 232.73747783319
  31
0.0
   0
LINE
   5
108
 100
AcDbEntity
   8
0
 100
AcDbLine
   6
CONTINUOUS
  62
1
  10
 49.200743809660
  20
 228.83083340179
  30
0.0
  11
 57.699301259529
  21
 233.73747783319
  31
0.0
   0
LINE
   5
109
 100
AcDbEntity
   8
0
 100
AcDbLine
   6
CONTINUOUS
  62
1
  10
 47.468693002091
  20
 228.83083340179
  30
0.0
  11
 57.699301259529
  21
 234.73747783319
  31
0.0
   0
LINE
   5
10A
 100
AcDbEntity
   8
0
 100
AcDbLine
   6
CONTINUOUS
  62
1
  10
 45.736642194522
  20
 228.83083340179
  30
0.0
  11
 57.699301259529
  21
 235.73747783319
  31
0.0
   0
LINE
   5
10B
 100
AcDbEntity
   8
0
 100
AcDbLine
   6
CONTINUOUS
  62
1
  10
 44.004591386953
  20
 228.83083340179
  30
0.0
  11
 57.699301259529
  21
 236.73747783319
  31
0.0
   0
LINE
   5
10C
 100
AcDbEntity
   8
0
 100
AcDbLine
   6
CONTINUOUS
  62
1
  10
 42.272540579385
  20
 228.83083340179
  30
0.0
  11
 57.699301259529
  21
 237.73747783319
  31
0.0
   0
LINE
   5
10D
 100
AcDbEntity
   8
0
 100
AcDbLine
   6
CONTINUOUS
  62
1
  10
 40.540489771816
  20
 228.83083340179
  30
0.0
  11
 57.699301259529
  21
 238.73747783319
  31
0.0
   0
LINE
   5
10E
 100
AcDbEntity
   8
0
 100
AcDbLine
   6
CONTINUOUS
  62
1
  10
 31.338008603474
  20
 240.18265730897
  30
0.0
  11
 50.999944369290
  21
 228.83083340179
  31
0.0
   0
LINE
   5
10F
 100
AcDbEntity
   8
0
 100
AcDbLine
   6
CONTINUOUS
  62
1
  10
 33.070059411043
  20
 240.18265730897
  30
0.0
  11
 52.731995176859
  21
 228.83083340179
  31
0.0
   0
LINE
   5
110
 100
AcDbEntity
   8
0
 100
AcDbLine
   6
CONTINUOUS
  62
1
  10
 34.802110218611
  20
 240.18265730897
  30
0.0
  11
 54.464045984428
  21
 228.83083340179
  31
0.0
   0
LINE
   5
111
 100
AcDbEntity
   8
0
 100
AcDbLine
   6
CONTINUOUS
  62
1
  10
 36.534161026180
  20
 240.18265730897
  30
0.0
  11
 56.196096791997
  21
 228.83083340179
  31
0.0
   0
LINE
   5
112
 100
AcDbEntity
   8
0
 100
AcDbLine
   6
CONTINUOUS
  62
1
  10
 38.266211833749
  20
 240.18265730897
  30
0.0
  11
 57.699301259529
  21
 228.96295789781
  31
0.0
   0
LINE
   5
113
 100
AcDbEntity
   8
0
 100
AcDbLine
   6
CONTINUOUS
  62
1
  10
 39.998262641318
  20
 240.18265730897
  30
0.0
  11
 57.699301259529
  21
 229.96295789781
  31
0.0
   0
LINE
   5
114
 100
AcDbEntity
   8
0
 100
AcDbLine
   6
CONTINUOUS
  62
1
  10
 41.730313448887
  20
 240.18265730897
  30
0.0
  11
 57.699301259529
  21
 230.96295789781
  31
0.0
   0
LINE
   5
115
 100
AcDbEntity
   8
0
 100
AcDbLine
   6
CONTINUOUS
  62
1
  10
 43.462364256456
  20
 240.18265730897
  30
0.0
  11
 57.699301259529
  21
 231.96295789781
  31
0.0
   0
LINE
   5
116
 100
AcDbEntity
   8
0
 100
AcDbLine
   6
CONTINUOUS
  62
1
  10
 46.926465871594
  20
 240.18265730897
  30
0.0
  11
 57.699301259529
  21
 233.96295789781
  31
0.0
   0
LINE
   5
117
 100
AcDbEntity
   8
0
 100
AcDbLine
   6
CONTINUOUS
  62
1
  10
 45.194415064025
  20
 240.18265730897
  30
0.0
  11
 57.699301259529
  21
 232.96295789781
  31
0.0
   0
LINE
   5
118
 100
AcDbEntity
   8
0
 100
AcDbLine
   6
CONTINUOUS
  62
1
  10
 48.658516679162
  20
 240.18265730897
  30
0.0
  11
 57.699301259529
  21
 234.96295789781
  31
0.0
   0
LINE
   5
119
 100
AcDbEntity
   8
0
 100
AcDbLine
   6
CONTINUOUS
  62
1
  10
 50.390567486731
  20
 240.18265730897
  30
0.0
  11
 57.699301259529
  21
 235.96295789781
  31
0.0
   0
LINE
   5
11A
 100
AcDbEntity
   8
0
 100
AcDbLine
   6
CONTINUOUS
  62
1
  10
 52.122618294300
  20
 240.18265730897
  30
0.0
  11
 57.699301259529
  21
 236.96295789781
  31
0.0
   0
LINE
   5
11B
 100
AcDbEntity
   8
0
 100
AcDbLine
   6
CONTINUOUS
  62
1
  10
 53.854669101869
  20
 240.18265730897
  30
0.0
  11
 57.699301259529
  21
 237.96295789781
  31
0.0
   0
LINE
   5
11C
 100
AcDbEntity
   8
0
 100
AcDbLine
   6
CONTINUOUS
  62
1
  10
 55.586719909438
  20
 240.18265730897
  30
0.0
  11
 57.699301259529
  21
 238.96295789781
  31
0.0
   0
LINE
   5
11D
 100
AcDbEntity
   8
0
 100
AcDbLine
   6
CONTINUOUS
  62
1
  10
 57.318770717007
  20
 240.18265730897
  30
0.0
  11
 57.699301259529
  21
 239.96295789781
  31
0.0
   0
LINE
   5
11E
 100
AcDbEntity
   8
0
 100
AcDbLine
   6
CONTINUOUS
  62
1
  10
 29.699301259529
  20
 240.12876543512
  30
0.0
  11
 49.267893561722
  21
 228.83083340179
  31
0.0
   0
LINE
   5
11F
 100
AcDbEntity
   8
0
 100
AcDbLine
   6
CONTINUOUS
  62
1
  10
 29.699301259529
  20
 229.12876543512
  30
0.0
  11
 30.215334678464
  21
 228.83083340179
  31
0.0
   0
LINE
   5
120
 100
AcDbEntity
   8
0
 100
AcDbLine
   6
CONTINUOUS
  62
1
  10
 29.699301259529
  20
 231.12876543512
  30
0.0
  11
 33.679436293602
  21
 228.83083340179
  31
0.0
   0
LINE
   5
121
 100
AcDbEntity
   8
0
 100
AcDbLine
   6
CONTINUOUS
  62
1
  10
 29.699301259529
  20
 230.12876543512
  30
0.0
  11
 31.947385486033
  21
 228.83083340179
  31
0.0
   0
LINE
   5
122
 100
AcDbEntity
   8
0
 100
AcDbLine
   6
CONTINUOUS
  62
1
  10
 29.699301259529
  20
 232.12876543512
  30
0.0
  11
 35.411487101171
  21
 228.83083340179
  31
0.0
   0
LINE
   5
123
 100
AcDbEntity
   8
0
 100
AcDbLine
   6
CONTINUOUS
  62
1
  10
 29.699301259529
  20
 233.12876543512
  30
0.0
  11
 37.143537908740
  21
 228.83083340179
  31
0.0
   0
LINE
   5
124
 100
AcDbEntity
   8
0
 100
AcDbLine
   6
CONTINUOUS
  62
1
  10
 29.699301259529
  20
 234.12876543512
  30
0.0
  11
 38.875588716308
  21
 228.83083340179
  31
0.0
   0
LINE
   5
125
 100
AcDbEntity
   8
0
 100
AcDbLine
   6
CONTINUOUS
  62
1
  10
 29.699301259529
  20
 235.12876543512
  30
0.0
  11
 40.607639523877
  21
 228.83083340179
  31
0.0
   0
LINE
   5
126
 100
AcDbEntity
   8
0
 100
AcDbLine
   6
CONTINUOUS
  62
1
  10
 29.699301259529
  20
 236.12876543512
  30
0.0
  11
 42.339690331446
  21
 228.83083340179
  31
0.0
   0
LINE
   5
127
 100
AcDbEntity
   8
0
 100
AcDbLine
   6
CONTINUOUS
  62
1
  10
 29.699301259529
  20
 237.12876543512
  30
0.0
  11
 44.071741139015
  21
 228.83083340179
  31
0.0
   0
LINE
   5
128
 100
AcDbEntity
   8
0
 100
AcDbLine
   6
CONTINUOUS
  62
1
  10
 29.699301259529
  20
 238.12876543512
  30
0.0
  11
 45.803791946584
  21
 228.83083340179
  31
0.0
   0
LINE
   5
129
 100
AcDbEntity
   8
0
 100
AcDbLine
   6
CONTINUOUS
  62
1
  10
 29.699301259529
  20
 239.12876543512
  30
0.0
  11
 47.535842754153
  21
 228.83083340179
  31
0.0
   0
ENDBLK
   5
12A
 100
AcDbEntity
   8
0
 100
AcDbBlockEnd
   0
BLOCK
   5
12B
 100
AcDbEntity
   8
0
 100
AcDbBlockBegin
   2
BLOCK004
  70
64
  10
0.0
  20
0.0
  30
0.0
   3
BLOCK004
   0
LINE
   5
12C
 100
AcDbEntity
   8
0
 100
AcDbLine
   6
CONTINUOUS
  62
1
  10
 29.699301259529
  20
 192.21984638870
  30
0.0
  11
 41.149866654375
  21
 198.83083340179
  31
0.0
   0
LINE
   5
12D
 100
AcDbEntity
   8
0
 100
AcDbLine
   6
CONTINUOUS
  62
1
  10
 29.699301259529
  20
 190.21984638870
  30
0.0
  11
 44.613968269513
  21
 198.83083340179
  31
0.0
   0
LINE
   5
12E
 100
AcDbEntity
   8
0
 100
AcDbLine
   6
CONTINUOUS
  62
1
  10
 37.076388156678
  20
 187.47900949460
  30
0.0
  11
 56.738323922495
  21
 198.83083340179
  31
0.0
   0
LINE
   5
12F
 100
AcDbEntity
   8
0
 100
AcDbLine
   6
CONTINUOUS
  62
1
  10
 35.344337349109
  20
 187.47900949460
  30
0.0
  11
 55.006273114926
  21
 198.83083340179
  31
0.0
   0
LINE
   5
130
 100
AcDbEntity
   8
0
 100
AcDbLine
   6
CONTINUOUS
  62
1
  10
 33.612286541540
  20
 187.47900949460
  30
0.0
  11
 53.274222307357
  21
 198.83083340179
  31
0.0
   0
LINE
   5
131
 100
AcDbEntity
   8
0
 100
AcDbLine
   6
CONTINUOUS
  62
1
  10
 31.880235733971
  20
 187.47900949460
  30
0.0
  11
 51.542171499788
  21
 198.83083340179
  31
0.0
   0
LINE
   5
132
 100
AcDbEntity
   8
0
 100
AcDbLine
   6
CONTINUOUS
  62
1
  10
 30.148184926403
  20
 187.47900949460
  30
0.0
  11
 49.810120692219
  21
 198.83083340179
  31
0.0
   0
LINE
   5
133
 100
AcDbEntity
   8
0
 100
AcDbLine
   6
CONTINUOUS
  62
1
  10
 29.699301259529
  20
 188.21984638870
  30
0.0
  11
 48.078069884651
  21
 198.83083340179
  31
0.0
   0
LINE
   5
134
 100
AcDbEntity
   8
0
 100
AcDbLine
   6
CONTINUOUS
  62
1
  10
 29.699301259529
  20
 189.21984638870
  30
0.0
  11
 46.346019077082
  21
 198.83083340179
  31
0.0
   0
LINE
   5
135
 100
AcDbEntity
   8
0
 100
AcDbLine
   6
CONTINUOUS
  62
1
  10
 29.699301259529
  20
 191.21984638870
  30
0.0
  11
 42.881917461944
  21
 198.83083340179
  31
0.0
   0
LINE
   5
136
 100
AcDbEntity
   8
0
 100
AcDbLine
   6
CONTINUOUS
  62
1
  10
 29.699301259529
  20
 193.21984638870
  30
0.0
  11
 39.417815846806
  21
 198.83083340179
  31
0.0
   0
LINE
   5
137
 100
AcDbEntity
   8
0
 100
AcDbLine
   6
CONTINUOUS
  62
1
  10
 29.699301259529
  20
 194.21984638870
  30
0.0
  11
 37.685765039237
  21
 198.83083340179
  31
0.0
   0
LINE
   5
138
 100
AcDbEntity
   8
0
 100
AcDbLine
   6
CONTINUOUS
  62
1
  10
 29.699301259529
  20
 195.21984638870
  30
0.0
  11
 35.953714231668
  21
 198.83083340179
  31
0.0
   0
LINE
   5
139
 100
AcDbEntity
   8
0
 100
AcDbLine
   6
CONTINUOUS
  62
1
  10
 29.699301259529
  20
 196.21984638870
  30
0.0
  11
 34.221663424100
  21
 198.83083340179
  31
0.0
   0
LINE
   5
13A
 100
AcDbEntity
   8
0
 100
AcDbLine
   6
CONTINUOUS
  62
1
  10
 29.699301259529
  20
 197.21984638870
  30
0.0
  11
 32.489612616531
  21
 198.83083340179
  31
0.0
   0
LINE
   5
13B
 100
AcDbEntity
   8
0
 100
AcDbLine
   6
CONTINUOUS
  62
1
  10
 29.699301259529
  20
 198.21984638870
  30
0.0
  11
 30.757561808962
  21
 198.83083340179
  31
0.0
   0
LINE
   5
13C
 100
AcDbEntity
   8
0
 100
AcDbLine
   6
CONTINUOUS
  62
1
  10
 38.808438964247
  20
 187.47900949460
  30
0.0
  11
 57.699301259529
  21
 198.38565392601
  31
0.0
   0
LINE
   5
13D
 100
AcDbEntity
   8
0
 100
AcDbLine
   6
CONTINUOUS
  62
1
  10
 54.396896232367
  20
 187.47900949460
  30
0.0
  11
 57.699301259529
  21
 189.38565392601
  31
0.0
   0
LINE
   5
13E
 100
AcDbEntity
   8
0
 100
AcDbLine
   6
CONTINUOUS
  62
1
  10
 56.128947039936
  20
 187.47900949460
  30
0.0
  11
 57.699301259529
  21
 188.38565392601
  31
0.0
   0
LINE
   5
13F
 100
AcDbEntity
   8
0
 100
AcDbLine
   6
CONTINUOUS
  62
1
  10
 52.664845424798
  20
 187.47900949460
  30
0.0
  11
 57.699301259529
  21
 190.38565392601
  31
0.0
   0
LINE
   5
140
 100
AcDbEntity
   8
0
 100
AcDbLine
   6
CONTINUOUS
  62
1
  10
 50.932794617229
  20
 187.47900949460
  30
0.0
  11
 57.699301259529
  21
 191.38565392601
  31
0.0
   0
LINE
   5
141
 100
AcDbEntity
   8
0
 100
AcDbLine
   6
CONTINUOUS
  62
1
  10
 49.200743809660
  20
 187.47900949460
  30
0.0
  11
 57.699301259529
  21
 192.38565392601
  31
0.0
   0
LINE
   5
142
 100
AcDbEntity
   8
0
 100
AcDbLine
   6
CONTINUOUS
  62
1
  10
 47.468693002091
  20
 187.47900949460
  30
0.0
  11
 57.699301259529
  21
 193.38565392601
  31
0.0
   0
LINE
   5
143
 100
AcDbEntity
   8
0
 100
AcDbLine
   6
CONTINUOUS
  62
1
  10
 45.736642194522
  20
 187.47900949460
  30
0.0
  11
 57.699301259529
  21
 194.38565392601
  31
0.0
   0
LINE
   5
144
 100
AcDbEntity
   8
0
 100
AcDbLine
   6
CONTINUOUS
  62
1
  10
 44.004591386953
  20
 187.47900949460
  30
0.0
  11
 57.699301259529
  21
 195.38565392601
  31
0.0
   0
LINE
   5
145
 100
AcDbEntity
   8
0
 100
AcDbLine
   6
CONTINUOUS
  62
1
  10
 42.272540579385
  20
 187.47900949460
  30
0.0
  11
 57.699301259529
  21
 196.38565392601
  31
0.0
   0
LINE
   5
146
 100
AcDbEntity
   8
0
 100
AcDbLine
   6
CONTINUOUS
  62
1
  10
 40.540489771816
  20
 187.47900949460
  30
0.0
  11
 57.699301259529
  21
 197.38565392601
  31
0.0
   0
LINE
   5
147
 100
AcDbEntity
   8
0
 100
AcDbLine
   6
CONTINUOUS
  62
1
  10
 31.338008603474
  20
 198.83083340179
  30
0.0
  11
 50.999944369290
  21
 187.47900949460
  31
0.0
   0
LINE
   5
148
 100
AcDbEntity
   8
0
 100
AcDbLine
   6
CONTINUOUS
  62
1
  10
 33.070059411042
  20
 198.83083340179
  30
0.0
  11
 52.731995176859
  21
 187.47900949460
  31
0.0
   0
LINE
   5
149
 100
AcDbEntity
   8
0
 100
AcDbLine
   6
CONTINUOUS
  62
1
  10
 34.802110218611
  20
 198.83083340179
  30
0.0
  11
 54.464045984428
  21
 187.47900949460
  31
0.0
   0
LINE
   5
14A
 100
AcDbEntity
   8
0
 100
AcDbLine
   6
CONTINUOUS
  62
1
  10
 36.534161026180
  20
 198.83083340179
  30
0.0
  11
 56.196096791997
  21
 187.47900949460
  31
0.0
   0
LINE
   5
14B
 100
AcDbEntity
   8
0
 100
AcDbLine
   6
CONTINUOUS
  62
1
  10
 38.266211833749
  20
 198.83083340179
  30
0.0
  11
 57.699301259529
  21
 187.61113399063
  31
0.0
   0
LINE
   5
14C
 100
AcDbEntity
   8
0
 100
AcDbLine
   6
CONTINUOUS
  62
1
  10
 39.998262641318
  20
 198.83083340179
  30
0.0
  11
 57.699301259529
  21
 188.61113399063
  31
0.0
   0
LINE
   5
14D
 100
AcDbEntity
   8
0
 100
AcDbLine
   6
CONTINUOUS
  62
1
  10
 41.730313448887
  20
 198.83083340179
  30
0.0
  11
 57.699301259529
  21
 189.61113399063
  31
0.0
   0
LINE
   5
14E
 100
AcDbEntity
   8
0
 100
AcDbLine
   6
CONTINUOUS
  62
1
  10
 43.462364256456
  20
 198.83083340179
  30
0.0
  11
 57.699301259529
  21
 190.61113399063
  31
0.0
   0
LINE
   5
14F
 100
AcDbEntity
   8
0
 100
AcDbLine
   6
CONTINUOUS
  62
1
  10
 46.926465871594
  20
 198.83083340179
  30
0.0
  11
 57.699301259529
  21
 192.61113399063
  31
0.0
   0
LINE
   5
150
 100
AcDbEntity
   8
0
 100
AcDbLine
   6
CONTINUOUS
  62
1
  10
 45.194415064025
  20
 198.83083340179
  30
0.0
  11
 57.699301259529
  21
 191.61113399063
  31
0.0
   0
LINE
   5
151
 100
AcDbEntity
   8
0
 100
AcDbLine
   6
CONTINUOUS
  62
1
  10
 48.658516679162
  20
 198.83083340179
  30
0.0
  11
 57.699301259529
  21
 193.61113399063
  31
0.0
   0
LINE
   5
152
 100
AcDbEntity
   8
0
 100
AcDbLine
   6
CONTINUOUS
  62
1
  10
 50.390567486731
  20
 198.83083340179
  30
0.0
  11
 57.699301259529
  21
 194.61113399063
  31
0.0
   0
LINE
   5
153
 100
AcDbEntity
   8
0
 100
AcDbLine
   6
CONTINUOUS
  62
1
  10
 52.122618294300
  20
 198.83083340179
  30
0.0
  11
 57.699301259529
  21
 195.61113399063
  31
0.0
   0
LINE
   5
154
 100
AcDbEntity
   8
0
 100
AcDbLine
   6
CONTINUOUS
  62
1
  10
 53.854669101869
  20
 198.83083340179
  30
0.0
  11
 57.699301259529
  21
 196.61113399063
  31
0.0
   0
LINE
   5
155
 100
AcDbEntity
   8
0
 100
AcDbLine
   6
CONTINUOUS
  62
1
  10
 55.586719909438
  20
 198.83083340179
  30
0.0
  11
 57.699301259529
  21
 197.61113399063
  31
0.0
   0
LINE
   5
156
 100
AcDbEntity
   8
0
 100
AcDbLine
   6
CONTINUOUS
  62
1
  10
 57.318770717007
  20
 198.83083340179
  30
0.0
  11
 57.699301259529
  21
 198.61113399063
  31
0.0
   0
LINE
   5
157
 100
AcDbEntity
   8
0
 100
AcDbLine
   6
CONTINUOUS
  62
1
  10
 29.699301259529
  20
 198.77694152794
  30
0.0
  11
 49.267893561722
  21
 187.47900949460
  31
0.0
   0
LINE
   5
158
 100
AcDbEntity
   8
0
 100
AcDbLine
   6
CONTINUOUS
  62
1
  10
 29.699301259529
  20
 187.77694152794
  30
0.0
  11
 30.215334678464
  21
 187.47900949460
  31
0.0
   0
LINE
   5
159
 100
AcDbEntity
   8
0
 100
AcDbLine
   6
CONTINUOUS
  62
1
  10
 29.699301259529
  20
 189.77694152794
  30
0.0
  11
 33.679436293602
  21
 187.47900949460
  31
0.0
   0
LINE
   5
15A
 100
AcDbEntity
   8
0
 100
AcDbLine
   6
CONTINUOUS
  62
1
  10
 29.699301259529
  20
 188.77694152794
  30
0.0
  11
 31.947385486033
  21
 187.47900949460
  31
0.0
   0
LINE
   5
15B
 100
AcDbEntity
   8
0
 100
AcDbLine
   6
CONTINUOUS
  62
1
  10
 29.699301259529
  20
 190.77694152794
  30
0.0
  11
 35.411487101171
  21
 187.47900949460
  31
0.0
   0
LINE
   5
15C
 100
AcDbEntity
   8
0
 100
AcDbLine
   6
CONTINUOUS
  62
1
  10
 29.699301259529
  20
 191.77694152794
  30
0.0
  11
 37.143537908740
  21
 187.47900949460
  31
0.0
   0
LINE
   5
15D
 100
AcDbEntity
   8
0
 100
AcDbLine
   6
CONTINUOUS
  62
1
  10
 29.699301259529
  20
 192.77694152794
  30
0.0
  11
 38.875588716308
  21
 187.47900949460
  31
0.0
   0
LINE
   5
15E
 100
AcDbEntity
   8
0
 100
AcDbLine
   6
CONTINUOUS
  62
1
  10
 29.699301259529
  20
 193.77694152794
  30
0.0
  11
 40.607639523877
  21
 187.47900949460
  31
0.0
   0
LINE
   5
15F
 100
AcDbEntity
   8
0
 100
AcDbLine
   6
CONTINUOUS
  62
1
  10
 29.699301259529
  20
 194.77694152794
  30
0.0
  11
 42.339690331446
  21
 187.47900949460
  31
0.0
   0
LINE
   5
160
 100
AcDbEntity
   8
0
 100
AcDbLine
   6
CONTINUOUS
  62
1
  10
 29.699301259529
  20
 195.77694152794
  30
0.0
  11
 44.071741139015
  21
 187.47900949460
  31
0.0
   0
LINE
   5
161
 100
AcDbEntity
   8
0
 100
AcDbLine
   6
CONTINUOUS
  62
1
  10
 29.699301259529
  20
 196.77694152794
  30
0.0
  11
 45.803791946584
  21
 187.47900949460
  31
0.0
   0
LINE
   5
162
 100
AcDbEntity
   8
0
 100
AcDbLine
   6
CONTINUOUS
  62
1
  10
 29.699301259529
  20
 197.77694152794
  30
0.0
  11
 47.535842754153
  21
 187.47900949460
  31
0.0
   0
ENDBLK
   5
163
 100
AcDbEntity
   8
0
 100
AcDbBlockEnd
   0
BLOCK
   5
164
 100
AcDbEntity
   8
0
 100
AcDbBlockBegin
   2
*D1
  70
65
  10
0.0
  20
0.0
  30
0.0
   3
*D1
   0
LINE
   5
165
 100
AcDbEntity
   8
0
 100
AcDbLine
   6
CONTINUOUS
  62
2
  10
 28.199301259529
  20
 231.03083340179
  30
0.0
  11
 28.199301259529
  21
 243.71265834185
  31
0.0
   0
LINE
   5
166
 100
AcDbEntity
   8
0
 100
AcDbLine
   6
CONTINUOUS
  62
2
  10
 29.699301259529
  20
 240.68265730897
  30
0.0
  11
 29.699301259529
  21
 243.71265834185
  31
0.0
   0
LINE
   5
167
 100
AcDbEntity
   8
0
 100
AcDbLine
   6
CONTINUOUS
  62
2
  10
 28.199301259529
  20
 242.71265834185
  30
0.0
  11
 29.699301259529
  21
 242.71265834185
  31
0.0
   0
INSERT
   5
168
 100
AcDbEntity
   8
0
   6
CONTINUOUS
  62
2
 100
AcDbBlockReference
   2
_OPEN30
  10
 28.199301259529
  20
 242.71265834185
  30
0.0
  41
 2.0000000000000
  42
 2.0000000000000
  43
 2.0000000000000
  50
0.0
   0
LINE
   5
169
 100
AcDbEntity
   8
0
 100
AcDbLine
   6
CONTINUOUS
  62
2
  10
 28.199301259529
  20
 242.71265834185
  30
0.0
  11
 25.699301259529
  21
 242.71265834185
  31
0.0
   0
MTEXT
   5
16A
 100
AcDbEntity
   8
0
  62
2
 100
AcDbMText
  10
 28.949301259529
  20
 244.42694405614
  30
0.0
  40
 4.0000000000000
  41
0.0
  71
8
  72
1
   1
\A1;1.5
   7
GMM001
   0
ENDBLK
   5
16B
 100
AcDbEntity
   8
0
 100
AcDbBlockEnd
   0
BLOCK
   5
16C
 100
AcDbEntity
   8
0
 100
AcDbBlockBegin
   2
*D2
  70
65
  10
0.0
  20
0.0
  30
0.0
   3
*D2
   0
LINE
   5
16D
 100
AcDbEntity
   8
0
 100
AcDbLine
   6
CONTINUOUS
  62
2
  10
 29.699301259529
  20
 240.68265730897
  30
0.0
  11
 29.699301259529
  21
 243.71265834185
  31
0.0
   0
LINE
   5
16E
 100
AcDbEntity
   8
0
 100
AcDbLine
   6
CONTINUOUS
  62
2
  10
 57.699301259529
  20
 240.68265730897
  30
0.0
  11
 57.699301259529
  21
 243.71265834185
  31
0.0
   0
LINE
   5
16F
 100
AcDbEntity
   8
0
 100
AcDbLine
   6
CONTINUOUS
  62
2
  10
 29.699301259529
  20
 242.71265834185
  30
0.0
  11
 57.699301259529
  21
 242.71265834185
  31
0.0
   0
INSERT
   5
170
 100
AcDbEntity
   8
0
   6
CONTINUOUS
  62
2
 100
AcDbBlockReference
   2
_OPEN30
  10
 29.699301259529
  20
 242.71265834185
  30
0.0
  41
 2.0000000000000
  42
 2.0000000000000
  43
 2.0000000000000
  50
 180.00000000000
   0
INSERT
   5
171
 100
AcDbEntity
   8
0
   6
CONTINUOUS
  62
2
 100
AcDbBlockReference
   2
_OPEN30
  10
 57.699301259529
  20
 242.71265834185
  30
0.0
  41
 2.0000000000000
  42
 2.0000000000000
  43
 2.0000000000000
  50
0.0
   0
MTEXT
   5
172
 100
AcDbEntity
   8
0
  62
2
 100
AcDbMText
  10
 43.699301259529
  20
 244.42694405614
  30
0.0
  40
 4.0000000000000
  41
0.0
  71
8
  72
1
   1
\A1;28
   7
GMM001
   0
ENDBLK
   5
173
 100
AcDbEntity
   8
0
 100
AcDbBlockEnd
   0
BLOCK
   5
174
 100
AcDbEntity
   8
0
 100
AcDbBlockBegin
   2
*D3
  70
65
  10
0.0
  20
0.0
  30
0.0
   3
*D3
   0
LINE
   5
175
 100
AcDbEntity
   8
0
 100
AcDbLine
   6
CONTINUOUS
  62
2
  10
 57.699301259529
  20
 240.68265730897
  30
0.0
  11
 57.699301259529
  21
 243.71265834185
  31
0.0
   0
LINE
   5
176
 100
AcDbEntity
   8
0
 100
AcDbLine
   6
CONTINUOUS
  62
2
  10
 59.199301259529
  20
 231.03083340179
  30
0.0
  11
 59.199301259529
  21
 243.71265834185
  31
0.0
   0
LINE
   5
177
 100
AcDbEntity
   8
0
 100
AcDbLine
   6
CONTINUOUS
  62
2
  10
 57.699301259529
  20
 242.71265834185
  30
0.0
  11
 59.199301259529
  21
 242.71265834185
  31
0.0
   0
INSERT
   5
178
 100
AcDbEntity
   8
0
   6
CONTINUOUS
  62
2
 100
AcDbBlockReference
   2
_OPEN30
  10
 59.199301259529
  20
 242.71265834185
  30
0.0
  41
 2.0000000000000
  42
 2.0000000000000
  43
 2.0000000000000
  50
 180.00000000000
   0
LINE
   5
179
 100
AcDbEntity
   8
0
 100
AcDbLine
   6
CONTINUOUS
  62
2
  10
 59.199301259529
  20
 242.71265834185
  30
0.0
  11
 61.699301259529
  21
 242.71265834185
  31
0.0
   0
MTEXT
   5
17A
 100
AcDbEntity
   8
0
  62
2
 100
AcDbMText
  10
 58.449301259529
  20
 244.42694405614
  30
0.0
  40
 4.0000000000000
  41
0.0
  71
8
  72
1
   1
\A1;1.5
   7
GMM001
   0
ENDBLK
   5
17B
 100
AcDbEntity
   8
0
 100
AcDbBlockEnd
   0
BLOCK
   5
17C
 100
AcDbEntity
   8
0
 100
AcDbBlockBegin
   2
*D4
  70
65
  10
0.0
  20
0.0
  30
0.0
   3
*D4
   0
LINE
   5
17D
 100
AcDbEntity
   8
0
 100
AcDbLine
   6
CONTINUOUS
  62
2
  10
 28.199301259529
  20
 154.23110722918
  30
0.0
  11
 28.199301259529
  21
 166.41619134016
  31
0.0
   0
LINE
   5
17E
 100
AcDbEntity
   8
0
 100
AcDbLine
   6
CONTINUOUS
  62
2
  10
 29.699301259529
  20
 162.38293113636
  30
0.0
  11
 29.699301259529
  21
 166.41619134016
  31
0.0
   0
LINE
   5
17F
 100
AcDbEntity
   8
0
 100
AcDbLine
   6
CONTINUOUS
  62
2
  10
 28.199301259529
  20
 165.41619134016
  30
0.0
  11
 29.699301259529
  21
 165.41619134016
  31
0.0
   0
INSERT
   5
180
 100
AcDbEntity
   8
0
   6
CONTINUOUS
  62
2
 100
AcDbBlockReference
   2
_OPEN30
  10
 28.199301259529
  20
 165.41619134016
  30
0.0
  41
 2.0000000000000
  42
 2.0000000000000
  43
 2.0000000000000
  50
0.0
   0
LINE
   5
181
 100
AcDbEntity
   8
0
 100
AcDbLine
   6
CONTINUOUS
  62
2
  10
 28.199301259529
  20
 165.41619134016
  30
0.0
  11
 25.699301259529
  21
 165.41619134016
  31
0.0
   0
MTEXT
   5
182
 100
AcDbEntity
   8
0
  62
2
 100
AcDbMText
  10
 28.949301259529
  20
 167.13047705445
  30
0.0
  40
 4.0000000000000
  41
0.0
  71
8
  72
1
   1
\A1;1.5
   7
GMM001
   0
ENDBLK
   5
183
 100
AcDbEntity
   8
0
 100
AcDbBlockEnd
   0
BLOCK
   5
184
 100
AcDbEntity
   8
0
 100
AcDbBlockBegin
   2
*D5
  70
65
  10
0.0
  20
0.0
  30
0.0
   3
*D5
   0
LINE
   5
185
 100
AcDbEntity
   8
0
 100
AcDbLine
   6
CONTINUOUS
  62
2
  10
 29.699301259529
  20
 162.38293113636
  30
0.0
  11
 29.699301259529
  21
 166.41619134016
  31
0.0
   0
LINE
   5
186
 100
AcDbEntity
   8
0
 100
AcDbLine
   6
CONTINUOUS
  62
2
  10
 65.699301259529
  20
 162.38293113636
  30
0.0
  11
 65.699301259529
  21
 166.41619134016
  31
0.0
   0
LINE
   5
187
 100
AcDbEntity
   8
0
 100
AcDbLine
   6
CONTINUOUS
  62
2
  10
 29.699301259529
  20
 165.41619134016
  30
0.0
  11
 65.699301259529
  21
 165.41619134016
  31
0.0
   0
INSERT
   5
188
 100
AcDbEntity
   8
0
   6
CONTINUOUS
  62
2
 100
AcDbBlockReference
   2
_OPEN30
  10
 29.699301259529
  20
 165.41619134016
  30
0.0
  41
 2.0000000000000
  42
 2.0000000000000
  43
 2.0000000000000
  50
 180.00000000000
   0
INSERT
   5
189
 100
AcDbEntity
   8
0
   6
CONTINUOUS
  62
2
 100
AcDbBlockReference
   2
_OPEN30
  10
 65.699301259529
  20
 165.41619134016
  30
0.0
  41
 2.0000000000000
  42
 2.0000000000000
  43
 2.0000000000000
  50
0.0
   0
MTEXT
   5
18A
 100
AcDbEntity
   8
0
  62
2
 100
AcDbMText
  10
 47.699301259529
  20
 167.13047705445
  30
0.0
  40
 4.0000000000000
  41
0.0
  71
8
  72
1
   1
\A1;36
   7
GMM001
   0
ENDBLK
   5
18B
 100
AcDbEntity
   8
0
 100
AcDbBlockEnd
   0
BLOCK
   5
18C
 100
AcDbEntity
   8
0
 100
AcDbBlockBegin
   2
*D6
  70
65
  10
0.0
  20
0.0
  30
0.0
   3
*D6
   0
LINE
   5
18D
 100
AcDbEntity
   8
0
 100
AcDbLine
   6
CONTINUOUS
  62
2
  10
 65.699301259529
  20
 162.38293113636
  30
0.0
  11
 65.699301259529
  21
 166.41619134016
  31
0.0
   0
LINE
   5
18E
 100
AcDbEntity
   8
0
 100
AcDbLine
   6
CONTINUOUS
  62
2
  10
 67.199301259529
  20
 154.23110722918
  30
0.0
  11
 67.199301259529
  21
 166.41619134016
  31
0.0
   0
LINE
   5
18F
 100
AcDbEntity
   8
0
 100
AcDbLine
   6
CONTINUOUS
  62
2
  10
 65.699301259529
  20
 165.41619134016
  30
0.0
  11
 67.199301259529
  21
 165.41619134016
  31
0.0
   0
INSERT
   5
190
 100
AcDbEntity
   8
0
   6
CONTINUOUS
  62
2
 100
AcDbBlockReference
   2
_OPEN30
  10
 67.199301259529
  20
 165.41619134016
  30
0.0
  41
 2.0000000000000
  42
 2.0000000000000
  43
 2.0000000000000
  50
 180.00000000000
   0
LINE
   5
191
 100
AcDbEntity
   8
0
 100
AcDbLine
   6
CONTINUOUS
  62
2
  10
 67.199301259529
  20
 165.41619134016
  30
0.0
  11
 69.699301259529
  21
 165.41619134016
  31
0.0
   0
MTEXT
   5
192
 100
AcDbEntity
   8
0
  62
2
 100
AcDbMText
  10
 66.449301259529
  20
 167.13047705445
  30
0.0
  40
 4.0000000000000
  41
0.0
  71
8
  72
1
   1
\A1;1.5
   7
GMM001
   0
ENDBLK
   5
193
 100
AcDbEntity
   8
0
 100
AcDbBlockEnd
   0
BLOCK
   5
194
 100
AcDbEntity
   8
0
 100
AcDbBlockBegin
   2
BLOCK005
  70
64
  10
0.0
  20
0.0
  30
0.0
   3
BLOCK005
   0
LINE
   5
195
 100
AcDbEntity
   8
0
 100
AcDbLine
   6
CONTINUOUS
  62
1
  10
 29.699301259529
  20
 153.96443571053
  30
0.0
  11
 43.414537656568
  21
 161.88293113636
  31
0.0
   0
LINE
   5
196
 100
AcDbEntity
   8
0
 100
AcDbLine
   6
CONTINUOUS
  62
1
  10
 29.699301259529
  20
 151.96443571053
  30
0.0
  11
 46.878639271706
  21
 161.88293113636
  31
0.0
   0
LINE
   5
197
 100
AcDbEntity
   8
0
 100
AcDbLine
   6
CONTINUOUS
  62
1
  10
 39.341059158871
  20
 150.53110722918
  30
0.0
  11
 59.002994924688
  21
 161.88293113636
  31
0.0
   0
LINE
   5
198
 100
AcDbEntity
   8
0
 100
AcDbLine
   6
CONTINUOUS
  62
1
  10
 37.609008351302
  20
 150.53110722918
  30
0.0
  11
 57.270944117119
  21
 161.88293113636
  31
0.0
   0
LINE
   5
199
 100
AcDbEntity
   8
0
 100
AcDbLine
   6
CONTINUOUS
  62
1
  10
 35.876957543733
  20
 150.53110722918
  30
0.0
  11
 55.538893309550
  21
 161.88293113636
  31
0.0
   0
LINE
   5
19A
 100
AcDbEntity
   8
0
 100
AcDbLine
   6
CONTINUOUS
  62
1
  10
 34.144906736164
  20
 150.53110722918
  30
0.0
  11
 53.806842501981
  21
 161.88293113636
  31
0.0
   0
LINE
   5
19B
 100
AcDbEntity
   8
0
 100
AcDbLine
   6
CONTINUOUS
  62
1
  10
 32.412855928596
  20
 150.53110722918
  30
0.0
  11
 52.074791694413
  21
 161.88293113636
  31
0.0
   0
LINE
   5
19C
 100
AcDbEntity
   8
0
 100
AcDbLine
   6
CONTINUOUS
  62
1
  10
 30.680805121027
  20
 150.53110722918
  30
0.0
  11
 50.342740886844
  21
 161.88293113636
  31
0.0
   0
LINE
   5
19D
 100
AcDbEntity
   8
0
 100
AcDbLine
   6
CONTINUOUS
  62
1
  10
 29.699301259529
  20
 150.96443571053
  30
0.0
  11
 48.610690079275
  21
 161.88293113636
  31
0.0
   0
LINE
   5
19E
 100
AcDbEntity
   8
0
 100
AcDbLine
   6
CONTINUOUS
  62
1
  10
 29.699301259529
  20
 152.96443571053
  30
0.0
  11
 45.146588464137
  21
 161.88293113636
  31
0.0
   0
LINE
   5
19F
 100
AcDbEntity
   8
0
 100
AcDbLine
   6
CONTINUOUS
  62
1
  10
 29.699301259529
  20
 154.96443571053
  30
0.0
  11
 41.682486848999
  21
 161.88293113636
  31
0.0
   0
LINE
   5
1A0
 100
AcDbEntity
   8
0
 100
AcDbLine
   6
CONTINUOUS
  62
1
  10
 29.699301259529
  20
 155.96443571053
  30
0.0
  11
 39.950436041430
  21
 161.88293113636
  31
0.0
   0
LINE
   5
1A1
 100
AcDbEntity
   8
0
 100
AcDbLine
   6
CONTINUOUS
  62
1
  10
 29.699301259529
  20
 156.96443571053
  30
0.0
  11
 38.218385233861
  21
 161.88293113636
  31
0.0
   0
LINE
   5
1A2
 100
AcDbEntity
   8
0
 100
AcDbLine
   6
CONTINUOUS
  62
1
  10
 29.699301259529
  20
 157.96443571053
  30
0.0
  11
 36.486334426293
  21
 161.88293113636
  31
0.0
   0
LINE
   5
1A3
 100
AcDbEntity
   8
0
 100
AcDbLine
   6
CONTINUOUS
  62
1
  10
 29.699301259529
  20
 158.96443571053
  30
0.0
  11
 34.754283618724
  21
 161.88293113636
  31
0.0
   0
LINE
   5
1A4
 100
AcDbEntity
   8
0
 100
AcDbLine
   6
CONTINUOUS
  62
1
  10
 29.699301259529
  20
 159.96443571053
  30
0.0
  11
 33.022232811155
  21
 161.88293113636
  31
0.0
   0
LINE
   5
1A5
 100
AcDbEntity
   8
0
 100
AcDbLine
   6
CONTINUOUS
  62
1
  10
 29.699301259529
  20
 160.96443571053
  30
0.0
  11
 31.290182003586
  21
 161.88293113636
  31
0.0
   0
LINE
   5
1A6
 100
AcDbEntity
   8
0
 100
AcDbLine
   6
CONTINUOUS
  62
1
  10
 41.073109966440
  20
 150.53110722918
  30
0.0
  11
 60.735045732257
  21
 161.88293113636
  31
0.0
   0
LINE
   5
1A7
 100
AcDbEntity
   8
0
 100
AcDbLine
   6
CONTINUOUS
  62
1
  10
 56.661567234560
  20
 150.53110722918
  30
0.0
  11
 65.699301259529
  21
 155.74904540136
  31
0.0
   0
LINE
   5
1A8
 100
AcDbEntity
   8
0
 100
AcDbLine
   6
CONTINUOUS
  62
1
  10
 60.125668849698
  20
 150.53110722918
  30
0.0
  11
 65.699301259529
  21
 153.74904540136
  31
0.0
   0
LINE
   5
1A9
 100
AcDbEntity
   8
0
 100
AcDbLine
   6
CONTINUOUS
  62
1
  10
 65.321821272404
  20
 150.53110722918
  30
0.0
  11
 65.699301259529
  21
 150.74904540136
  31
0.0
   0
LINE
   5
1AA
 100
AcDbEntity
   8
0
 100
AcDbLine
   6
CONTINUOUS
  62
1
  10
 63.589770464835
  20
 150.53110722918
  30
0.0
  11
 65.699301259529
  21
 151.74904540136
  31
0.0
   0
LINE
   5
1AB
 100
AcDbEntity
   8
0
 100
AcDbLine
   6
CONTINUOUS
  62
1
  10
 61.857719657267
  20
 150.53110722918
  30
0.0
  11
 65.699301259529
  21
 152.74904540136
  31
0.0
   0
LINE
   5
1AC
 100
AcDbEntity
   8
0
 100
AcDbLine
   6
CONTINUOUS
  62
1
  10
 58.393618042129
  20
 150.53110722918
  30
0.0
  11
 65.699301259529
  21
 154.74904540136
  31
0.0
   0
LINE
   5
1AD
 100
AcDbEntity
   8
0
 100
AcDbLine
   6
CONTINUOUS
  62
1
  10
 54.929516426991
  20
 150.53110722918
  30
0.0
  11
 65.699301259529
  21
 156.74904540136
  31
0.0
   0
LINE
   5
1AE
 100
AcDbEntity
   8
0
 100
AcDbLine
   6
CONTINUOUS
  62
1
  10
 53.197465619422
  20
 150.53110722918
  30
0.0
  11
 65.699301259529
  21
 157.74904540136
  31
0.0
   0
LINE
   5
1AF
 100
AcDbEntity
   8
0
 100
AcDbLine
   6
CONTINUOUS
  62
1
  10
 51.465414811853
  20
 150.53110722918
  30
0.0
  11
 65.699301259529
  21
 158.74904540136
  31
0.0
   0
LINE
   5
1B0
 100
AcDbEntity
   8
0
 100
AcDbLine
   6
CONTINUOUS
  62
1
  10
 49.733364004284
  20
 150.53110722918
  30
0.0
  11
 65.699301259529
  21
 159.74904540136
  31
0.0
   0
LINE
   5
1B1
 100
AcDbEntity
   8
0
 100
AcDbLine
   6
CONTINUOUS
  62
1
  10
 48.001313196716
  20
 150.53110722918
  30
0.0
  11
 65.699301259529
  21
 160.74904540136
  31
0.0
   0
LINE
   5
1B2
 100
AcDbEntity
   8
0
 100
AcDbLine
   6
CONTINUOUS
  62
1
  10
 46.269262389147
  20
 150.53110722918
  30
0.0
  11
 65.699301259529
  21
 161.74904540136
  31
0.0
   0
LINE
   5
1B3
 100
AcDbEntity
   8
0
 100
AcDbLine
   6
CONTINUOUS
  62
1
  10
 44.537211581578
  20
 150.53110722918
  30
0.0
  11
 64.199147347395
  21
 161.88293113636
  31
0.0
   0
LINE
   5
1B4
 100
AcDbEntity
   8
0
 100
AcDbLine
   6
CONTINUOUS
  62
1
  10
 42.805160774009
  20
 150.53110722918
  30
0.0
  11
 62.467096539826
  21
 161.88293113636
  31
0.0
   0
LINE
   5
1B5
 100
AcDbEntity
   8
0
 100
AcDbLine
   6
CONTINUOUS
  62
1
  10
 61.982302945089
  20
 161.88293113636
  30
0.0
  11
 65.699301259529
  21
 159.73692115894
  31
0.0
   0
LINE
   5
1B6
 100
AcDbEntity
   8
0
 100
AcDbLine
   6
CONTINUOUS
  62
1
  10
 63.714353752658
  20
 161.88293113636
  30
0.0
  11
 65.699301259529
  21
 160.73692115894
  31
0.0
   0
LINE
   5
1B7
 100
AcDbEntity
   8
0
 100
AcDbLine
   6
CONTINUOUS
  62
1
  10
 65.446404560227
  20
 161.88293113636
  30
0.0
  11
 65.699301259529
  21
 161.73692115894
  31
0.0
   0
LINE
   5
1B8
 100
AcDbEntity
   8
0
 100
AcDbLine
   6
CONTINUOUS
  62
1
  10
 60.250252137520
  20
 161.88293113636
  30
0.0
  11
 65.699301259529
  21
 158.73692115894
  31
0.0
   0
LINE
   5
1B9
 100
AcDbEntity
   8
0
 100
AcDbLine
   6
CONTINUOUS
  62
1
  10
 29.699301259529
  20
 161.52153084977
  30
0.0
  11
 48.735273367097
  21
 150.53110722918
  31
0.0
   0
LINE
   5
1BA
 100
AcDbEntity
   8
0
 100
AcDbLine
   6
CONTINUOUS
  62
1
  10
 30.805388408849
  20
 161.88293113636
  30
0.0
  11
 50.467324174666
  21
 150.53110722918
  31
0.0
   0
LINE
   5
1BB
 100
AcDbEntity
   8
0
 100
AcDbLine
   6
CONTINUOUS
  62
1
  10
 32.537439216418
  20
 161.88293113636
  30
0.0
  11
 52.199374982235
  21
 150.53110722918
  31
0.0
   0
LINE
   5
1BC
 100
AcDbEntity
   8
0
 100
AcDbLine
   6
CONTINUOUS
  62
1
  10
 34.269490023987
  20
 161.88293113636
  30
0.0
  11
 53.931425789804
  21
 150.53110722918
  31
0.0
   0
LINE
   5
1BD
 100
AcDbEntity
   8
0
 100
AcDbLine
   6
CONTINUOUS
  62
1
  10
 36.001540831556
  20
 161.88293113636
  30
0.0
  11
 55.663476597373
  21
 150.53110722918
  31
0.0
   0
LINE
   5
1BE
 100
AcDbEntity
   8
0
 100
AcDbLine
   6
CONTINUOUS
  62
1
  10
 37.733591639125
  20
 161.88293113636
  30
0.0
  11
 57.395527404942
  21
 150.53110722918
  31
0.0
   0
LINE
   5
1BF
 100
AcDbEntity
   8
0
 100
AcDbLine
   6
CONTINUOUS
  62
1
  10
 39.465642446694
  20
 161.88293113636
  30
0.0
  11
 59.127578212511
  21
 150.53110722918
  31
0.0
   0
LINE
   5
1C0
 100
AcDbEntity
   8
0
 100
AcDbLine
   6
CONTINUOUS
  62
1
  10
 41.197693254263
  20
 161.88293113636
  30
0.0
  11
 60.859629020079
  21
 150.53110722918
  31
0.0
   0
LINE
   5
1C1
 100
AcDbEntity
   8
0
 100
AcDbLine
   6
CONTINUOUS
  62
1
  10
 44.661794869400
  20
 161.88293113636
  30
0.0
  11
 64.323730635217
  21
 150.53110722918
  31
0.0
   0
LINE
   5
1C2
 100
AcDbEntity
   8
0
 100
AcDbLine
   6
CONTINUOUS
  62
1
  10
 42.929744061832
  20
 161.88293113636
  30
0.0
  11
 62.591679827648
  21
 150.53110722918
  31
0.0
   0
LINE
   5
1C3
 100
AcDbEntity
   8
0
 100
AcDbLine
   6
CONTINUOUS
  62
1
  10
 46.393845676969
  20
 161.88293113636
  30
0.0
  11
 65.699301259529
  21
 150.73692115894
  31
0.0
   0
LINE
   5
1C4
 100
AcDbEntity
   8
0
 100
AcDbLine
   6
CONTINUOUS
  62
1
  10
 48.125896484538
  20
 161.88293113636
  30
0.0
  11
 65.699301259529
  21
 151.73692115894
  31
0.0
   0
LINE
   5
1C5
 100
AcDbEntity
   8
0
 100
AcDbLine
   6
CONTINUOUS
  62
1
  10
 49.857947292107
  20
 161.88293113636
  30
0.0
  11
 65.699301259529
  21
 152.73692115894
  31
0.0
   0
LINE
   5
1C6
 100
AcDbEntity
   8
0
 100
AcDbLine
   6
CONTINUOUS
  62
1
  10
 51.589998099676
  20
 161.88293113636
  30
0.0
  11
 65.699301259529
  21
 153.73692115894
  31
0.0
   0
LINE
   5
1C7
 100
AcDbEntity
   8
0
 100
AcDbLine
   6
CONTINUOUS
  62
1
  10
 53.322048907245
  20
 161.88293113636
  30
0.0
  11
 65.699301259529
  21
 154.73692115894
  31
0.0
   0
LINE
   5
1C8
 100
AcDbEntity
   8
0
 100
AcDbLine
   6
CONTINUOUS
  62
1
  10
 55.054099714814
  20
 161.88293113636
  30
0.0
  11
 65.699301259529
  21
 155.73692115894
  31
0.0
   0
LINE
   5
1C9
 100
AcDbEntity
   8
0
 100
AcDbLine
   6
CONTINUOUS
  62
1
  10
 56.786150522382
  20
 161.88293113636
  30
0.0
  11
 65.699301259529
  21
 156.73692115894
  31
0.0
   0
LINE
   5
1CA
 100
AcDbEntity
   8
0
 100
AcDbLine
   6
CONTINUOUS
  62
1
  10
 58.518201329951
  20
 161.88293113636
  30
0.0
  11
 65.699301259529
  21
 157.73692115894
  31
0.0
   0
LINE
   5
1CB
 100
AcDbEntity
   8
0
 100
AcDbLine
   6
CONTINUOUS
  62
1
  10
 29.699301259529
  20
 160.52153084977
  30
0.0
  11
 47.003222559528
  21
 150.53110722918
  31
0.0
   0
LINE
   5
1CC
 100
AcDbEntity
   8
0
 100
AcDbLine
   6
CONTINUOUS
  62
1
  10
 29.699301259529
  20
 151.52153084977
  30
0.0
  11
 31.414765291409
  21
 150.53110722918
  31
0.0
   0
LINE
   5
1CD
 100
AcDbEntity
   8
0
 100
AcDbLine
   6
CONTINUOUS
  62
1
  10
 29.699301259529
  20
 152.52153084977
  30
0.0
  11
 33.146816098977
  21
 150.53110722918
  31
0.0
   0
LINE
   5
1CE
 100
AcDbEntity
   8
0
 100
AcDbLine
   6
CONTINUOUS
  62
1
  10
 29.699301259529
  20
 153.52153084977
  30
0.0
  11
 34.878866906546
  21
 150.53110722918
  31
0.0
   0
LINE
   5
1CF
 100
AcDbEntity
   8
0
 100
AcDbLine
   6
CONTINUOUS
  62
1
  10
 29.699301259529
  20
 154.52153084977
  30
0.0
  11
 36.610917714115
  21
 150.53110722918
  31
0.0
   0
LINE
   5
1D0
 100
AcDbEntity
   8
0
 100
AcDbLine
   6
CONTINUOUS
  62
1
  10
 29.699301259529
  20
 155.52153084977
  30
0.0
  11
 38.342968521684
  21
 150.53110722918
  31
0.0
   0
LINE
   5
1D1
 100
AcDbEntity
   8
0
 100
AcDbLine
   6
CONTINUOUS
  62
1
  10
 29.699301259529
  20
 156.52153084977
  30
0.0
  11
 40.075019329253
  21
 150.53110722918
  31
0.0
   0
LINE
   5
1D2
 100
AcDbEntity
   8
0
 100
AcDbLine
   6
CONTINUOUS
  62
1
  10
 29.699301259529
  20
 157.52153084977
  30
0.0
  11
 41.807070136822
  21
 150.53110722918
  31
0.0
   0
LINE
   5
1D3
 100
AcDbEntity
   8
0
 100
AcDbLine
   6
CONTINUOUS
  62
1
  10
 29.699301259529
  20
 158.52153084977
  30
0.0
  11
 43.539120944391
  21
 150.53110722918
  31
0.0
   0
LINE
   5
1D4
 100
AcDbEntity
   8
0
 100
AcDbLine
   6
CONTINUOUS
  62
1
  10
 29.699301259529
  20
 159.52153084977
  30
0.0
  11
 45.271171751960
  21
 150.53110722918
  31
0.0
   0
ENDBLK
   5
1D5
 100
AcDbEntity
   8
0
 100
AcDbBlockEnd
   0
BLOCK
   5
1D6
 100
AcDbEntity
   8
0
 100
AcDbBlockBegin
   2
BLOCK006
  70
64
  10
0.0
  20
0.0
  30
0.0
   3
BLOCK006
   0
LINE
   5
1D7
 100
AcDbEntity
   8
0
 100
AcDbLine
   6
CONTINUOUS
  62
1
  10
 29.699301259529
  20
 112.61261180335
  30
0.0
  11
 43.414537656568
  21
 120.53110722918
  31
0.0
   0
LINE
   5
1D8
 100
AcDbEntity
   8
0
 100
AcDbLine
   6
CONTINUOUS
  62
1
  10
 29.699301259529
  20
 110.61261180335
  30
0.0
  11
 46.878639271706
  21
 120.53110722918
  31
0.0
   0
LINE
   5
1D9
 100
AcDbEntity
   8
0
 100
AcDbLine
   6
CONTINUOUS
  62
1
  10
 39.341059158871
  20
 109.17928332199
  30
0.0
  11
 59.002994924688
  21
 120.53110722918
  31
0.0
   0
LINE
   5
1DA
 100
AcDbEntity
   8
0
 100
AcDbLine
   6
CONTINUOUS
  62
1
  10
 37.609008351302
  20
 109.17928332199
  30
0.0
  11
 57.270944117119
  21
 120.53110722918
  31
0.0
   0
LINE
   5
1DB
 100
AcDbEntity
   8
0
 100
AcDbLine
   6
CONTINUOUS
  62
1
  10
 35.876957543733
  20
 109.17928332199
  30
0.0
  11
 55.538893309550
  21
 120.53110722918
  31
0.0
   0
LINE
   5
1DC
 100
AcDbEntity
   8
0
 100
AcDbLine
   6
CONTINUOUS
  62
1
  10
 34.144906736164
  20
 109.17928332199
  30
0.0
  11
 53.806842501981
  21
 120.53110722918
  31
0.0
   0
LINE
   5
1DD
 100
AcDbEntity
   8
0
 100
AcDbLine
   6
CONTINUOUS
  62
1
  10
 32.412855928596
  20
 109.17928332199
  30
0.0
  11
 52.074791694412
  21
 120.53110722918
  31
0.0
   0
LINE
   5
1DE
 100
AcDbEntity
   8
0
 100
AcDbLine
   6
CONTINUOUS
  62
1
  10
 30.680805121027
  20
 109.17928332199
  30
0.0
  11
 50.342740886844
  21
 120.53110722918
  31
0.0
   0
LINE
   5
1DF
 100
AcDbEntity
   8
0
 100
AcDbLine
   6
CONTINUOUS
  62
1
  10
 29.699301259529
  20
 109.61261180335
  30
0.0
  11
 48.610690079275
  21
 120.53110722918
  31
0.0
   0
LINE
   5
1E0
 100
AcDbEntity
   8
0
 100
AcDbLine
   6
CONTINUOUS
  62
1
  10
 29.699301259529
  20
 111.61261180335
  30
0.0
  11
 45.146588464137
  21
 120.53110722918
  31
0.0
   0
LINE
   5
1E1
 100
AcDbEntity
   8
0
 100
AcDbLine
   6
CONTINUOUS
  62
1
  10
 29.699301259529
  20
 113.61261180335
  30
0.0
  11
 41.682486848999
  21
 120.53110722918
  31
0.0
   0
LINE
   5
1E2
 100
AcDbEntity
   8
0
 100
AcDbLine
   6
CONTINUOUS
  62
1
  10
 29.699301259529
  20
 114.61261180335
  30
0.0
  11
 39.950436041430
  21
 120.53110722918
  31
0.0
   0
LINE
   5
1E3
 100
AcDbEntity
   8
0
 100
AcDbLine
   6
CONTINUOUS
  62
1
  10
 29.699301259529
  20
 115.61261180335
  30
0.0
  11
 38.218385233861
  21
 120.53110722918
  31
0.0
   0
LINE
   5
1E4
 100
AcDbEntity
   8
0
 100
AcDbLine
   6
CONTINUOUS
  62
1
  10
 29.699301259529
  20
 116.61261180335
  30
0.0
  11
 36.486334426293
  21
 120.53110722918
  31
0.0
   0
LINE
   5
1E5
 100
AcDbEntity
   8
0
 100
AcDbLine
   6
CONTINUOUS
  62
1
  10
 29.699301259529
  20
 117.61261180335
  30
0.0
  11
 34.754283618724
  21
 120.53110722918
  31
0.0
   0
LINE
   5
1E6
 100
AcDbEntity
   8
0
 100
AcDbLine
   6
CONTINUOUS
  62
1
  10
 29.699301259529
  20
 118.61261180335
  30
0.0
  11
 33.022232811155
  21
 120.53110722918
  31
0.0
   0
LINE
   5
1E7
 100
AcDbEntity
   8
0
 100
AcDbLine
   6
CONTINUOUS
  62
1
  10
 29.699301259529
  20
 119.61261180335
  30
0.0
  11
 31.290182003586
  21
 120.53110722918
  31
0.0
   0
LINE
   5
1E8
 100
AcDbEntity
   8
0
 100
AcDbLine
   6
CONTINUOUS
  62
1
  10
 41.073109966440
  20
 109.17928332199
  30
0.0
  11
 60.735045732257
  21
 120.53110722918
  31
0.0
   0
LINE
   5
1E9
 100
AcDbEntity
   8
0
 100
AcDbLine
   6
CONTINUOUS
  62
1
  10
 56.661567234560
  20
 109.17928332199
  30
0.0
  11
 65.699301259529
  21
 114.39722149417
  31
0.0
   0
LINE
   5
1EA
 100
AcDbEntity
   8
0
 100
AcDbLine
   6
CONTINUOUS
  62
1
  10
 60.125668849698
  20
 109.17928332199
  30
0.0
  11
 65.699301259529
  21
 112.39722149417
  31
0.0
   0
LINE
   5
1EB
 100
AcDbEntity
   8
0
 100
AcDbLine
   6
CONTINUOUS
  62
1
  10
 65.321821272404
  20
 109.17928332199
  30
0.0
  11
 65.699301259529
  21
 109.39722149417
  31
0.0
   0
LINE
   5
1EC
 100
AcDbEntity
   8
0
 100
AcDbLine
   6
CONTINUOUS
  62
1
  10
 63.589770464835
  20
 109.17928332199
  30
0.0
  11
 65.699301259529
  21
 110.39722149417
  31
0.0
   0
LINE
   5
1ED
 100
AcDbEntity
   8
0
 100
AcDbLine
   6
CONTINUOUS
  62
1
  10
 61.857719657267
  20
 109.17928332199
  30
0.0
  11
 65.699301259529
  21
 111.39722149417
  31
0.0
   0
LINE
   5
1EE
 100
AcDbEntity
   8
0
 100
AcDbLine
   6
CONTINUOUS
  62
1
  10
 58.393618042129
  20
 109.17928332199
  30
0.0
  11
 65.699301259529
  21
 113.39722149417
  31
0.0
   0
LINE
   5
1EF
 100
AcDbEntity
   8
0
 100
AcDbLine
   6
CONTINUOUS
  62
1
  10
 54.929516426991
  20
 109.17928332199
  30
0.0
  11
 65.699301259529
  21
 115.39722149417
  31
0.0
   0
LINE
   5
1F0
 100
AcDbEntity
   8
0
 100
AcDbLine
   6
CONTINUOUS
  62
1
  10
 53.197465619422
  20
 109.17928332199
  30
0.0
  11
 65.699301259529
  21
 116.39722149417
  31
0.0
   0
LINE
   5
1F1
 100
AcDbEntity
   8
0
 100
AcDbLine
   6
CONTINUOUS
  62
1
  10
 51.465414811853
  20
 109.17928332199
  30
0.0
  11
 65.699301259529
  21
 117.39722149417
  31
0.0
   0
LINE
   5
1F2
 100
AcDbEntity
   8
0
 100
AcDbLine
   6
CONTINUOUS
  62
1
  10
 49.733364004284
  20
 109.17928332199
  30
0.0
  11
 65.699301259529
  21
 118.39722149417
  31
0.0
   0
LINE
   5
1F3
 100
AcDbEntity
   8
0
 100
AcDbLine
   6
CONTINUOUS
  62
1
  10
 48.001313196715
  20
 109.17928332199
  30
0.0
  11
 65.699301259529
  21
 119.39722149417
  31
0.0
   0
LINE
   5
1F4
 100
AcDbEntity
   8
0
 100
AcDbLine
   6
CONTINUOUS
  62
1
  10
 46.269262389147
  20
 109.17928332199
  30
0.0
  11
 65.699301259529
  21
 120.39722149417
  31
0.0
   0
LINE
   5
1F5
 100
AcDbEntity
   8
0
 100
AcDbLine
   6
CONTINUOUS
  62
1
  10
 44.537211581578
  20
 109.17928332199
  30
0.0
  11
 64.199147347395
  21
 120.53110722918
  31
0.0
   0
LINE
   5
1F6
 100
AcDbEntity
   8
0
 100
AcDbLine
   6
CONTINUOUS
  62
1
  10
 42.805160774009
  20
 109.17928332199
  30
0.0
  11
 62.467096539826
  21
 120.53110722918
  31
0.0
   0
LINE
   5
1F7
 100
AcDbEntity
   8
0
 100
AcDbLine
   6
CONTINUOUS
  62
1
  10
 61.982302945089
  20
 120.53110722918
  30
0.0
  11
 65.699301259529
  21
 118.38509725176
  31
0.0
   0
LINE
   5
1F8
 100
AcDbEntity
   8
0
 100
AcDbLine
   6
CONTINUOUS
  62
1
  10
 63.714353752658
  20
 120.53110722918
  30
0.0
  11
 65.699301259529
  21
 119.38509725176
  31
0.0
   0
LINE
   5
1F9
 100
AcDbEntity
   8
0
 100
AcDbLine
   6
CONTINUOUS
  62
1
  10
 65.446404560227
  20
 120.53110722918
  30
0.0
  11
 65.699301259529
  21
 120.38509725176
  31
0.0
   0
LINE
   5
1FA
 100
AcDbEntity
   8
0
 100
AcDbLine
   6
CONTINUOUS
  62
1
  10
 60.250252137520
  20
 120.53110722918
  30
0.0
  11
 65.699301259529
  21
 117.38509725176
  31
0.0
   0
LINE
   5
1FB
 100
AcDbEntity
   8
0
 100
AcDbLine
   6
CONTINUOUS
  62
1
  10
 29.699301259529
  20
 120.16970694258
  30
0.0
  11
 48.735273367097
  21
 109.17928332199
  31
0.0
   0
LINE
   5
1FC
 100
AcDbEntity
   8
0
 100
AcDbLine
   6
CONTINUOUS
  62
1
  10
 30.805388408849
  20
 120.53110722918
  30
0.0
  11
 50.467324174666
  21
 109.17928332199
  31
0.0
   0
LINE
   5
1FD
 100
AcDbEntity
   8
0
 100
AcDbLine
   6
CONTINUOUS
  62
1
  10
 32.537439216418
  20
 120.53110722918
  30
0.0
  11
 52.199374982235
  21
 109.17928332199
  31
0.0
   0
LINE
   5
1FE
 100
AcDbEntity
   8
0
 100
AcDbLine
   6
CONTINUOUS
  62
1
  10
 34.269490023987
  20
 120.53110722918
  30
0.0
  11
 53.931425789804
  21
 109.17928332199
  31
0.0
   0
LINE
   5
1FF
 100
AcDbEntity
   8
0
 100
AcDbLine
   6
CONTINUOUS
  62
1
  10
 36.001540831556
  20
 120.53110722918
  30
0.0
  11
 55.663476597373
  21
 109.17928332199
  31
0.0
   0
LINE
   5
200
 100
AcDbEntity
   8
0
 100
AcDbLine
   6
CONTINUOUS
  62
1
  10
 37.733591639125
  20
 120.53110722918
  30
0.0
  11
 57.395527404942
  21
 109.17928332199
  31
0.0
   0
LINE
   5
201
 100
AcDbEntity
   8
0
 100
AcDbLine
   6
CONTINUOUS
  62
1
  10
 39.465642446694
  20
 120.53110722918
  30
0.0
  11
 59.127578212511
  21
 109.17928332199
  31
0.0
   0
LINE
   5
202
 100
AcDbEntity
   8
0
 100
AcDbLine
   6
CONTINUOUS
  62
1
  10
 41.197693254263
  20
 120.53110722918
  30
0.0
  11
 60.859629020079
  21
 109.17928332199
  31
0.0
   0
LINE
   5
203
 100
AcDbEntity
   8
0
 100
AcDbLine
   6
CONTINUOUS
  62
1
  10
 44.661794869400
  20
 120.53110722918
  30
0.0
  11
 64.323730635217
  21
 109.17928332199
  31
0.0
   0
LINE
   5
204
 100
AcDbEntity
   8
0
 100
AcDbLine
   6
CONTINUOUS
  62
1
  10
 42.929744061831
  20
 120.53110722918
  30
0.0
  11
 62.591679827648
  21
 109.17928332199
  31
0.0
   0
LINE
   5
205
 100
AcDbEntity
   8
0
 100
AcDbLine
   6
CONTINUOUS
  62
1
  10
 46.393845676969
  20
 120.53110722918
  30
0.0
  11
 65.699301259529
  21
 109.38509725176
  31
0.0
   0
LINE
   5
206
 100
AcDbEntity
   8
0
 100
AcDbLine
   6
CONTINUOUS
  62
1
  10
 48.125896484538
  20
 120.53110722918
  30
0.0
  11
 65.699301259529
  21
 110.38509725176
  31
0.0
   0
LINE
   5
207
 100
AcDbEntity
   8
0
 100
AcDbLine
   6
CONTINUOUS
  62
1
  10
 49.857947292107
  20
 120.53110722918
  30
0.0
  11
 65.699301259529
  21
 111.38509725176
  31
0.0
   0
LINE
   5
208
 100
AcDbEntity
   8
0
 100
AcDbLine
   6
CONTINUOUS
  62
1
  10
 51.589998099676
  20
 120.53110722918
  30
0.0
  11
 65.699301259529
  21
 112.38509725176
  31
0.0
   0
LINE
   5
209
 100
AcDbEntity
   8
0
 100
AcDbLine
   6
CONTINUOUS
  62
1
  10
 53.322048907245
  20
 120.53110722918
  30
0.0
  11
 65.699301259529
  21
 113.38509725176
  31
0.0
   0
LINE
   5
20A
 100
AcDbEntity
   8
0
 100
AcDbLine
   6
CONTINUOUS
  62
1
  10
 55.054099714814
  20
 120.53110722918
  30
0.0
  11
 65.699301259529
  21
 114.38509725176
  31
0.0
   0
LINE
   5
20B
 100
AcDbEntity
   8
0
 100
AcDbLine
   6
CONTINUOUS
  62
1
  10
 56.786150522383
  20
 120.53110722918
  30
0.0
  11
 65.699301259529
  21
 115.38509725176
  31
0.0
   0
LINE
   5
20C
 100
AcDbEntity
   8
0
 100
AcDbLine
   6
CONTINUOUS
  62
1
  10
 58.518201329951
  20
 120.53110722918
  30
0.0
  11
 65.699301259529
  21
 116.38509725176
  31
0.0
   0
LINE
   5
20D
 100
AcDbEntity
   8
0
 100
AcDbLine
   6
CONTINUOUS
  62
1
  10
 29.699301259529
  20
 119.16970694258
  30
0.0
  11
 47.003222559528
  21
 109.17928332199
  31
0.0
   0
LINE
   5
20E
 100
AcDbEntity
   8
0
 100
AcDbLine
   6
CONTINUOUS
  62
1
  10
 29.699301259529
  20
 110.16970694258
  30
0.0
  11
 31.414765291409
  21
 109.17928332199
  31
0.0
   0
LINE
   5
20F
 100
AcDbEntity
   8
0
 100
AcDbLine
   6
CONTINUOUS
  62
1
  10
 29.699301259529
  20
 111.16970694258
  30
0.0
  11
 33.146816098977
  21
 109.17928332199
  31
0.0
   0
LINE
   5
210
 100
AcDbEntity
   8
0
 100
AcDbLine
   6
CONTINUOUS
  62
1
  10
 29.699301259529
  20
 112.16970694258
  30
0.0
  11
 34.878866906546
  21
 109.17928332199
  31
0.0
   0
LINE
   5
211
 100
AcDbEntity
   8
0
 100
AcDbLine
   6
CONTINUOUS
  62
1
  10
 29.699301259529
  20
 113.16970694258
  30
0.0
  11
 36.610917714115
  21
 109.17928332199
  31
0.0
   0
LINE
   5
212
 100
AcDbEntity
   8
0
 100
AcDbLine
   6
CONTINUOUS
  62
1
  10
 29.699301259529
  20
 114.16970694258
  30
0.0
  11
 38.342968521684
  21
 109.17928332199
  31
0.0
   0
LINE
   5
213
 100
AcDbEntity
   8
0
 100
AcDbLine
   6
CONTINUOUS
  62
1
  10
 29.699301259529
  20
 115.16970694258
  30
0.0
  11
 40.075019329253
  21
 109.17928332199
  31
0.0
   0
LINE
   5
214
 100
AcDbEntity
   8
0
 100
AcDbLine
   6
CONTINUOUS
  62
1
  10
 29.699301259529
  20
 116.16970694258
  30
0.0
  11
 41.807070136822
  21
 109.17928332199
  31
0.0
   0
LINE
   5
215
 100
AcDbEntity
   8
0
 100
AcDbLine
   6
CONTINUOUS
  62
1
  10
 29.699301259529
  20
 117.16970694258
  30
0.0
  11
 43.539120944391
  21
 109.17928332199
  31
0.0
   0
LINE
   5
216
 100
AcDbEntity
   8
0
 100
AcDbLine
   6
CONTINUOUS
  62
1
  10
 29.699301259529
  20
 118.16970694258
  30
0.0
  11
 45.271171751960
  21
 109.17928332199
  31
0.0
   0
ENDBLK
   5
217
 100
AcDbEntity
   8
0
 100
AcDbBlockEnd
   0
BLOCK
   5
218
 100
AcDbEntity
   8
0
 100
AcDbBlockBegin
   2
*D9
  70
65
  10
0.0
  20
0.0
  30
0.0
   3
*D9
   0
LINE
   5
219
 100
AcDbEntity
   8
0
 100
AcDbLine
   6
CONTINUOUS
  62
2
  10
 390.13449251373
  20
 206.78564956330
  30
0.0
  11
 390.13449251373
  21
 237.41643124550
  31
0.0
   0
LINE
   5
21A
 100
AcDbEntity
   8
0
 100
AcDbLine
   6
CONTINUOUS
  62
2
  10
 355.13449251373
  20
 206.78564956330
  30
0.0
  11
 355.13449251373
  21
 237.41643124550
  31
0.0
   0
LINE
   5
21B
 100
AcDbEntity
   8
0
 100
AcDbLine
   6
CONTINUOUS
  62
2
  10
 390.13449251373
  20
 236.41643124550
  30
0.0
  11
 355.13449251373
  21
 236.41643124550
  31
0.0
   0
INSERT
   5
21C
 100
AcDbEntity
   8
0
   6
CONTINUOUS
  62
2
 100
AcDbBlockReference
   2
_OPEN30
  10
 390.13449251373
  20
 236.41643124550
  30
0.0
  41
 2.0000000000000
  42
 2.0000000000000
  43
 2.0000000000000
  50
0.0
   0
INSERT
   5
21D
 100
AcDbEntity
   8
0
   6
CONTINUOUS
  62
2
 100
AcDbBlockReference
   2
_OPEN30
  10
 355.13449251373
  20
 236.41643124550
  30
0.0
  41
 2.0000000000000
  42
 2.0000000000000
  43
 2.0000000000000
  50
 180.00000000000
   0
MTEXT
   5
21E
 100
AcDbEntity
   8
0
  62
2
 100
AcDbMText
  10
 372.63449251373
  20
 238.13071695979
  30
0.0
  40
 4.0000000000000
  41
0.0
  71
8
  72
1
   1
\A1;%%c35
   7
GMM001
   0
ENDBLK
   5
21F
 100
AcDbEntity
   8
0
 100
AcDbBlockEnd
   0
BLOCK
   5
220
 100
AcDbEntity
   8
0
 100
AcDbBlockBegin
   2
*D10
  70
65
  10
0.0
  20
0.0
  30
0.0
   3
*D10
   0
LINE
   5
221
 100
AcDbEntity
   8
0
 100
AcDbLine
   6
CONTINUOUS
  62
2
  10
 385.93449251373
  20
 206.78564956330
  30
0.0
  11
 385.93449251373
  21
 229.60217988723
  31
0.0
   0
LINE
   5
222
 100
AcDbEntity
   8
0
 100
AcDbLine
   6
CONTINUOUS
  62
2
  10
 359.33449251373
  20
 206.78564956330
  30
0.0
  11
 359.33449251373
  21
 229.60217988723
  31
0.0
   0
LINE
   5
223
 100
AcDbEntity
   8
0
 100
AcDbLine
   6
CONTINUOUS
  62
2
  10
 385.93449251373
  20
 228.60217988723
  30
0.0
  11
 359.33449251373
  21
 228.60217988723
  31
0.0
   0
INSERT
   5
224
 100
AcDbEntity
   8
0
   6
CONTINUOUS
  62
2
 100
AcDbBlockReference
   2
_OPEN30
  10
 385.93449251373
  20
 228.60217988723
  30
0.0
  41
 2.0000000000000
  42
 2.0000000000000
  43
 2.0000000000000
  50
0.0
   0
INSERT
   5
225
 100
AcDbEntity
   8
0
   6
CONTINUOUS
  62
2
 100
AcDbBlockReference
   2
_OPEN30
  10
 359.33449251373
  20
 228.60217988723
  30
0.0
  41
 2.0000000000000
  42
 2.0000000000000
  43
 2.0000000000000
  50
 180.00000000000
   0
MTEXT
   5
226
 100
AcDbEntity
   8
0
  62
2
 100
AcDbMText
  10
 372.63449251373
  20
 230.31646560152
  30
0.0
  40
 4.0000000000000
  41
0.0
  71
8
  72
1
   1
\A1;%%c26.6
   7
GMM001
   0
ENDBLK
   5
227
 100
AcDbEntity
   8
0
 100
AcDbBlockEnd
   0
BLOCK
   5
228
 100
AcDbEntity
   8
0
 100
AcDbBlockBegin
   2
*D11
  70
65
  10
0.0
  20
0.0
  30
0.0
   3
*D11
   0
LINE
   5
229
 100
AcDbEntity
   8
0
 100
AcDbLine
   6
CONTINUOUS
  62
2
  10
 93.101735060732
  20
 226.75138284698
  30
0.0
  11
 116.66495861447
  21
 175.60345356753
  31
0.0
   0
INSERT
   5
22A
 100
AcDbEntity
   8
0
   6
CONTINUOUS
  62
2
 100
AcDbBlockReference
   2
_OPEN30
  10
 98.190441843407
  20
 215.70549118235
  30
0.0
  41
 3.0000000000000
  42
 3.0000000000000
  43
 3.0000000000000
  50
 294.73494415184
   0
INSERT
   5
22B
 100
AcDbEntity
   8
0
   6
CONTINUOUS
  62
2
 100
AcDbBlockReference
   2
_OPEN30
  10
 110.74307444023
  20
 188.45789651990
  30
0.0
  41
 3.0000000000000
  42
 3.0000000000000
  43
 3.0000000000000
  50
 114.73494415184
   0
MTEXT
   5
22C
 100
AcDbEntity
   8
0
  62
2
 100
AcDbMText
  10
 116.66495861447
  20
 173.60345356753
  30
0.0
  40
 4.0000000000000
  41
0.0
  71
7
  72
1
   1
\A1;%%c30{\H0.625x;\S +0.2^ -0;} 
   7
GMM001
   0
ENDBLK
   5
22D
 100
AcDbEntity
   8
0
 100
AcDbBlockEnd
   0
BLOCK
   5
22E
 100
AcDbEntity
   8
0
 100
AcDbBlockBegin
   2
*D14
  70
65
  10
0.0
  20
0.0
  30
0.0
   3
*D14
   0
LINE
   5
22F
 100
AcDbEntity
   8
0
 100
AcDbLine
   6
CONTINUOUS
  62
2
  10
 158.83685985727
  20
 206.78564956330
  30
0.0
  11
 158.83685985727
  21
 237.41643124550
  31
0.0
   0
LINE
   5
230
 100
AcDbEntity
   8
0
 100
AcDbLine
   6
CONTINUOUS
  62
2
  10
 193.83685985727
  20
 206.78564956330
  30
0.0
  11
 193.83685985727
  21
 237.41643124550
  31
0.0
   0
LINE
   5
231
 100
AcDbEntity
   8
0
 100
AcDbLine
   6
CONTINUOUS
  62
2
  10
 158.83685985727
  20
 236.41643124550
  30
0.0
  11
 193.83685985727
  21
 236.41643124550
  31
0.0
   0
INSERT
   5
232
 100
AcDbEntity
   8
0
   6
CONTINUOUS
  62
2
 100
AcDbBlockReference
   2
_OPEN30
  10
 158.83685985727
  20
 236.41643124550
  30
0.0
  41
 2.0000000000000
  42
 2.0000000000000
  43
 2.0000000000000
  50
 180.00000000000
   0
INSERT
   5
233
 100
AcDbEntity
   8
0
   6
CONTINUOUS
  62
2
 100
AcDbBlockReference
   2
_OPEN30
  10
 193.83685985727
  20
 236.41643124550
  30
0.0
  41
 2.0000000000000
  42
 2.0000000000000
  43
 2.0000000000000
  50
0.0
   0
MTEXT
   5
234
 100
AcDbEntity
   8
0
  62
2
 100
AcDbMText
  10
 176.33685985727
  20
 238.13071695979
  30
0.0
  40
 4.0000000000000
  41
0.0
  71
8
  72
1
   1
\A1;%%c35
   7
GMM001
   0
ENDBLK
   5
235
 100
AcDbEntity
   8
0
 100
AcDbBlockEnd
   0
BLOCK
   5
236
 100
AcDbEntity
   8
0
 100
AcDbBlockBegin
   2
*D15
  70
65
  10
0.0
  20
0.0
  30
0.0
   3
*D15
   0
LINE
   5
237
 100
AcDbEntity
   8
0
 100
AcDbLine
   6
CONTINUOUS
  62
2
  10
 163.03685985727
  20
 206.78564956330
  30
0.0
  11
 163.03685985727
  21
 229.60217988723
  31
0.0
   0
LINE
   5
238
 100
AcDbEntity
   8
0
 100
AcDbLine
   6
CONTINUOUS
  62
2
  10
 189.63685985727
  20
 206.78564956330
  30
0.0
  11
 189.63685985727
  21
 229.60217988723
  31
0.0
   0
LINE
   5
239
 100
AcDbEntity
   8
0
 100
AcDbLine
   6
CONTINUOUS
  62
2
  10
 163.03685985727
  20
 228.60217988723
  30
0.0
  11
 189.63685985727
  21
 228.60217988723
  31
0.0
   0
INSERT
   5
23A
 100
AcDbEntity
   8
0
   6
CONTINUOUS
  62
2
 100
AcDbBlockReference
   2
_OPEN30
  10
 163.03685985727
  20
 228.60217988723
  30
0.0
  41
 2.0000000000000
  42
 2.0000000000000
  43
 2.0000000000000
  50
 180.00000000000
   0
INSERT
   5
23B
 100
AcDbEntity
   8
0
   6
CONTINUOUS
  62
2
 100
AcDbBlockReference
   2
_OPEN30
  10
 189.63685985727
  20
 228.60217988723
  30
0.0
  41
 2.0000000000000
  42
 2.0000000000000
  43
 2.0000000000000
  50
0.0
   0
MTEXT
   5
23C
 100
AcDbEntity
   8
0
  62
2
 100
AcDbMText
  10
 176.33685985727
  20
 230.31646560152
  30
0.0
  40
 4.0000000000000
  41
0.0
  71
8
  72
1
   1
\A1;%%c26.6
   7
GMM001
   0
ENDBLK
   5
23D
 100
AcDbEntity
   8
0
 100
AcDbBlockEnd
   0
BLOCK
   5
23E
 100
AcDbEntity
   8
0
 100
AcDbBlockBegin
   2
*D17
  70
65
  10
0.0
  20
0.0
  30
0.0
   3
*D17
   0
LINE
   5
23F
 100
AcDbEntity
   8
0
 100
AcDbLine
   6
CONTINUOUS
  62
2
  10
 231.30919556818
  20
 224.28564956324
  30
0.0
  11
 231.30919556818
  21
 229.60217988717
  31
0.0
   0
LINE
   5
240
 100
AcDbEntity
   8
0
 100
AcDbLine
   6
CONTINUOUS
  62
2
  10
 244.80919556818
  20
 221.38564956324
  30
0.0
  11
 244.80919556818
  21
 229.60217988717
  31
0.0
   0
LINE
   5
241
 100
AcDbEntity
   8
0
 100
AcDbLine
   6
CONTINUOUS
  62
2
  10
 231.30919556818
  20
 228.60217988717
  30
0.0
  11
 244.80919556818
  21
 228.60217988717
  31
0.0
   0
INSERT
   5
242
 100
AcDbEntity
   8
0
   6
CONTINUOUS
  62
2
 100
AcDbBlockReference
   2
_OPEN30
  10
 231.30919556818
  20
 228.60217988717
  30
0.0
  41
 2.0000000000000
  42
 2.0000000000000
  43
 2.0000000000000
  50
 180.00000000000
   0
INSERT
   5
243
 100
AcDbEntity
   8
0
   6
CONTINUOUS
  62
2
 100
AcDbBlockReference
   2
_OPEN30
  10
 244.80919556818
  20
 228.60217988717
  30
0.0
  41
 2.0000000000000
  42
 2.0000000000000
  43
 2.0000000000000
  50
0.0
   0
MTEXT
   5
244
 100
AcDbEntity
   8
0
  62
2
 100
AcDbMText
  10
 238.05919556818
  20
 230.31646560145
  30
0.0
  40
 4.0000000000000
  41
0.0
  71
8
  72
1
   1
\A1;13.5
   7
GMM001
   0
ENDBLK
   5
245
 100
AcDbEntity
   8
0
 100
AcDbBlockEnd
   0
BLOCK
   5
246
 100
AcDbEntity
   8
0
 100
AcDbBlockBegin
   2
*D18
  70
65
  10
0.0
  20
0.0
  30
0.0
   3
*D18
   0
LINE
   5
247
 100
AcDbEntity
   8
0
 100
AcDbLine
   6
CONTINUOUS
  62
2
  10
 244.80919556818
  20
 221.38564956324
  30
0.0
  11
 244.80919556818
  21
 229.60217988717
  31
0.0
   0
LINE
   5
248
 100
AcDbEntity
   8
0
 100
AcDbLine
   6
CONTINUOUS
  62
2
  10
 256.80919556818
  20
 217.38564956324
  30
0.0
  11
 256.80919556818
  21
 229.60217988717
  31
0.0
   0
LINE
   5
249
 100
AcDbEntity
   8
0
 100
AcDbLine
   6
CONTINUOUS
  62
2
  10
 244.80919556818
  20
 228.60217988717
  30
0.0
  11
 256.80919556818
  21
 228.60217988717
  31
0.0
   0
INSERT
   5
24A
 100
AcDbEntity
   8
0
   6
CONTINUOUS
  62
2
 100
AcDbBlockReference
   2
_OPEN30
  10
 244.80919556818
  20
 228.60217988717
  30
0.0
  41
 2.0000000000000
  42
 2.0000000000000
  43
 2.0000000000000
  50
 180.00000000000
   0
INSERT
   5
24B
 100
AcDbEntity
   8
0
   6
CONTINUOUS
  62
2
 100
AcDbBlockReference
   2
_OPEN30
  10
 256.80919556818
  20
 228.60217988717
  30
0.0
  41
 2.0000000000000
  42
 2.0000000000000
  43
 2.0000000000000
  50
0.0
   0
MTEXT
   5
24C
 100
AcDbEntity
   8
0
  62
2
 100
AcDbMText
  10
 250.80919556818
  20
 230.31646560145
  30
0.0
  40
 4.0000000000000
  41
0.0
  71
8
  72
1
   1
\A1;12
   7
GMM001
   0
ENDBLK
   5
24D
 100
AcDbEntity
   8
0
 100
AcDbBlockEnd
   0
BLOCK
   5
24E
 100
AcDbEntity
   8
0
 100
AcDbBlockBegin
   2
*D19
  70
65
  10
0.0
  20
0.0
  30
0.0
   3
*D19
   0
LINE
   5
24F
 100
AcDbEntity
   8
0
 100
AcDbLine
   6
CONTINUOUS
  62
2
  10
 307.86940733656
  20
 221.38564956336
  30
0.0
  11
 307.86940733656
  21
 230.60217988729
  31
0.0
   0
LINE
   5
250
 100
AcDbEntity
   8
0
 100
AcDbLine
   6
CONTINUOUS
  62
2
  10
 321.36940733656
  20
 224.28564956336
  30
0.0
  11
 321.36940733656
  21
 230.60217988729
  31
0.0
   0
LINE
   5
251
 100
AcDbEntity
   8
0
 100
AcDbLine
   6
CONTINUOUS
  62
2
  10
 307.86940733656
  20
 229.60217988729
  30
0.0
  11
 321.36940733656
  21
 229.60217988729
  31
0.0
   0
INSERT
   5
252
 100
AcDbEntity
   8
0
   6
CONTINUOUS
  62
2
 100
AcDbBlockReference
   2
_OPEN30
  10
 307.86940733656
  20
 229.60217988729
  30
0.0
  41
 2.0000000000000
  42
 2.0000000000000
  43
 2.0000000000000
  50
 180.00000000000
   0
INSERT
   5
253
 100
AcDbEntity
   8
0
   6
CONTINUOUS
  62
2
 100
AcDbBlockReference
   2
_OPEN30
  10
 321.36940733656
  20
 229.60217988729
  30
0.0
  41
 2.0000000000000
  42
 2.0000000000000
  43
 2.0000000000000
  50
0.0
   0
MTEXT
   5
254
 100
AcDbEntity
   8
0
  62
2
 100
AcDbMText
  10
 314.61940733656
  20
 231.31646560158
  30
0.0
  40
 4.0000000000000
  41
0.0
  71
8
  72
1
   1
\A1;13.5
   7
GMM001
   0
ENDBLK
   5
255
 100
AcDbEntity
   8
0
 100
AcDbBlockEnd
   0
BLOCK
   5
256
 100
AcDbEntity
   8
0
 100
AcDbBlockBegin
   2
*D20
  70
65
  10
0.0
  20
0.0
  30
0.0
   3
*D20
   0
LINE
   5
257
 100
AcDbEntity
   8
0
 100
AcDbLine
   6
CONTINUOUS
  62
2
  10
 231.30919556818
  20
 224.28564956324
  30
0.0
  11
 231.30919556818
  21
 229.60217988717
  31
0.0
   0
LINE
   5
258
 100
AcDbEntity
   8
0
 100
AcDbLine
   6
CONTINUOUS
  62
2
  10
 229.80919556818
  20
 223.48564956330
  30
0.0
  11
 229.80919556818
  21
 229.60217988717
  31
0.0
   0
LINE
   5
259
 100
AcDbEntity
   8
0
 100
AcDbLine
   6
CONTINUOUS
  62
2
  10
 231.30919556818
  20
 228.60217988717
  30
0.0
  11
 229.80919556818
  21
 228.60217988717
  31
0.0
   0
LINE
   5
25A
 100
AcDbEntity
   8
0
 100
AcDbLine
   6
CONTINUOUS
  62
2
  10
 229.80919556818
  20
 228.60217988717
  30
0.0
  11
 216.25513050095
  21
 228.60217988717
  31
0.0
   0
INSERT
   5
25B
 100
AcDbEntity
   8
0
   6
CONTINUOUS
  62
2
 100
AcDbBlockReference
   2
_OPEN30
  10
 231.30919556818
  20
 228.60217988717
  30
0.0
  41
 2.0000000000000
  42
 2.0000000000000
  43
 2.0000000000000
  50
 180.00000000000
   0
INSERT
   5
25C
 100
AcDbEntity
   8
0
   6
CONTINUOUS
  62
2
 100
AcDbBlockReference
   2
_OPEN30
  10
 229.80919556818
  20
 228.60217988717
  30
0.0
  41
 2.0000000000000
  42
 2.0000000000000
  43
 2.0000000000000
  50
0.0
   0
LINE
   5
25D
 100
AcDbEntity
   8
0
 100
AcDbLine
   6
CONTINUOUS
  62
2
  10
 231.30919556818
  20
 228.60217988717
  30
0.0
  11
 233.80919556818
  21
 228.60217988717
  31
0.0
   0
LINE
   5
25E
 100
AcDbEntity
   8
0
 100
AcDbLine
   6
CONTINUOUS
  62
2
  10
 229.80919556818
  20
 228.60217988717
  30
0.0
  11
 216.25513050095
  21
 228.60217988717
  31
0.0
   0
MTEXT
   5
25F
 100
AcDbEntity
   8
0
  62
2
 100
AcDbMText
  10
 221.25513050095
  20
 230.31646560145
  30
0.0
  40
 4.0000000000000
  41
0.0
  71
8
  72
1
   1
\A1;1.5
   7
GMM001
   0
ENDBLK
   5
260
 100
AcDbEntity
   8
0
 100
AcDbBlockEnd
   0
BLOCK
   5
261
 100
AcDbEntity
   8
0
 100
AcDbBlockBegin
   2
*D21
  70
65
  10
0.0
  20
0.0
  30
0.0
   3
*D21
   0
LINE
   5
262
 100
AcDbEntity
   8
0
 100
AcDbLine
   6
CONTINUOUS
  62
2
  10
 321.36940733656
  20
 224.28564956336
  30
0.0
  11
 321.36940733656
  21
 230.60217988729
  31
0.0
   0
LINE
   5
263
 100
AcDbEntity
   8
0
 100
AcDbLine
   6
CONTINUOUS
  62
2
  10
 322.86940733656
  20
 223.48564956330
  30
0.0
  11
 322.86940733656
  21
 230.60217988729
  31
0.0
   0
LINE
   5
264
 100
AcDbEntity
   8
0
 100
AcDbLine
   6
CONTINUOUS
  62
2
  10
 321.36940733656
  20
 229.60217988729
  30
0.0
  11
 322.86940733656
  21
 229.60217988729
  31
0.0
   0
LINE
   5
265
 100
AcDbEntity
   8
0
 100
AcDbLine
   6
CONTINUOUS
  62
2
  10
 322.86940733656
  20
 229.60217988729
  30
0.0
  11
 336.35531923737
  21
 229.60217988729
  31
0.0
   0
INSERT
   5
266
 100
AcDbEntity
   8
0
   6
CONTINUOUS
  62
2
 100
AcDbBlockReference
   2
_OPEN30
  10
 321.36940733656
  20
 229.60217988729
  30
0.0
  41
 2.0000000000000
  42
 2.0000000000000
  43
 2.0000000000000
  50
0.0
   0
INSERT
   5
267
 100
AcDbEntity
   8
0
   6
CONTINUOUS
  62
2
 100
AcDbBlockReference
   2
_OPEN30
  10
 322.86940733656
  20
 229.60217988729
  30
0.0
  41
 2.0000000000000
  42
 2.0000000000000
  43
 2.0000000000000
  50
 180.00000000000
   0
LINE
   5
268
 100
AcDbEntity
   8
0
 100
AcDbLine
   6
CONTINUOUS
  62
2
  10
 321.36940733656
  20
 229.60217988729
  30
0.0
  11
 318.86940733656
  21
 229.60217988729
  31
0.0
   0
LINE
   5
269
 100
AcDbEntity
   8
0
 100
AcDbLine
   6
CONTINUOUS
  62
2
  10
 322.86940733656
  20
 229.60217988729
  30
0.0
  11
 336.35531923737
  21
 229.60217988729
  31
0.0
   0
MTEXT
   5
26A
 100
AcDbEntity
   8
0
  62
2
 100
AcDbMText
  10
 331.35531923737
  20
 231.31646560158
  30
0.0
  40
 4.0000000000000
  41
0.0
  71
8
  72
1
   1
\A1;1.5
   7
GMM001
   0
ENDBLK
   5
26B
 100
AcDbEntity
   8
0
 100
AcDbBlockEnd
   0
BLOCK
   5
26C
 100
AcDbEntity
   8
0
 100
AcDbBlockBegin
   2
*D22
  70
65
  10
0.0
  20
0.0
  30
0.0
   3
*D22
   0
LINE
   5
26D
 100
AcDbEntity
   8
0
 100
AcDbLine
   6
CONTINUOUS
  62
6
  10
 245.30919556818
  20
 221.18564956330
  30
0.0
  11
 267.49706426198
  21
 221.18564956330
  31
0.0
   0
LINE
   5
26E
 100
AcDbEntity
   8
0
 100
AcDbLine
   6
CONTINUOUS
  62
6
  10
 245.30919556818
  20
 191.38564956330
  30
0.0
  11
 267.49706426198
  21
 191.38564956330
  31
0.0
   0
LINE
   5
26F
 100
AcDbEntity
   8
0
 100
AcDbLine
   6
CONTINUOUS
  62
6
  10
 266.49706426198
  20
 221.18564956330
  30
0.0
  11
 266.49706426198
  21
 206.28564956330
  31
0.0
   0
LINE
   5
270
 100
AcDbEntity
   8
0
 100
AcDbLine
   6
CONTINUOUS
  62
6
  10
 266.49706426198
  20
 191.38564956330
  30
0.0
  11
 266.49706426198
  21
 206.28564956330
  31
0.0
   0
INSERT
   5
271
 100
AcDbEntity
   8
0
   6
CONTINUOUS
  62
6
 100
AcDbBlockReference
   2
_OPEN30
  10
 266.49706426198
  20
 221.18564956330
  30
0.0
  41
 3.0000000000000
  42
 3.0000000000000
  43
 3.0000000000000
  50
 90.000000000000
   0
INSERT
   5
272
 100
AcDbEntity
   8
0
   6
CONTINUOUS
  62
6
 100
AcDbBlockReference
   2
_OPEN30
  10
 266.49706426198
  20
 191.38564956330
  30
0.0
  41
 3.0000000000000
  42
 3.0000000000000
  43
 3.0000000000000
  50
 270.00000000000
   0
MTEXT
   5
273
 100
AcDbEntity
   8
0
  62
6
 100
AcDbMText
  10
 264.78277854770
  20
 206.28564956330
  30
0.0
  40
 4.0000000000000
  41
0.0
  71
8
  72
1
   1
\A1;%%c29.8
   7
GMM002
  11
0.0
  21
 1.0000000000000
  31
0.0
   0
ENDBLK
   5
274
 100
AcDbEntity
   8
0
 100
AcDbBlockEnd
   0
BLOCK
   5
275
 100
AcDbEntity
   8
0
 100
AcDbBlockBegin
   2
*D23
  70
65
  10
0.0
  20
0.0
  30
0.0
   3
*D23
   0
LINE
   5
276
 100
AcDbEntity
   8
0
 100
AcDbLine
   6
CONTINUOUS
  62
6
  10
 308.91940733656
  20
 221.18564956330
  30
0.0
  11
 301.72266707939
  21
 221.18564956330
  31
0.0
   0
LINE
   5
277
 100
AcDbEntity
   8
0
 100
AcDbLine
   6
CONTINUOUS
  62
6
  10
 308.91940733656
  20
 191.38564956330
  30
0.0
  11
 301.72266707939
  21
 191.38564956330
  31
0.0
   0
LINE
   5
278
 100
AcDbEntity
   8
0
 100
AcDbLine
   6
CONTINUOUS
  62
6
  10
 302.72266707939
  20
 221.18564956330
  30
0.0
  11
 302.72266707939
  21
 206.28564956330
  31
0.0
   0
LINE
   5
279
 100
AcDbEntity
   8
0
 100
AcDbLine
   6
CONTINUOUS
  62
6
  10
 302.72266707939
  20
 191.38564956330
  30
0.0
  11
 302.72266707939
  21
 206.28564956330
  31
0.0
   0
INSERT
   5
27A
 100
AcDbEntity
   8
0
   6
CONTINUOUS
  62
6
 100
AcDbBlockReference
   2
_OPEN30
  10
 302.72266707939
  20
 221.18564956330
  30
0.0
  41
 3.0000000000000
  42
 3.0000000000000
  43
 3.0000000000000
  50
 90.000000000000
   0
INSERT
   5
27B
 100
AcDbEntity
   8
0
   6
CONTINUOUS
  62
6
 100
AcDbBlockReference
   2
_OPEN30
  10
 302.72266707939
  20
 191.38564956330
  30
0.0
  41
 3.0000000000000
  42
 3.0000000000000
  43
 3.0000000000000
  50
 270.00000000000
   0
MTEXT
   5
27C
 100
AcDbEntity
   8
0
  62
6
 100
AcDbMText
  10
 301.00838136510
  20
 206.28564956330
  30
0.0
  40
 4.0000000000000
  41
0.0
  71
8
  72
1
   1
\A1;%%c29.8
   7
GMM002
  11
0.0
  21
 1.0000000000000
  31
0.0
   0
ENDBLK
   5
27D
 100
AcDbEntity
   8
0
 100
AcDbBlockEnd
   0
ENDSEC
   0
SECTION
   2
ENTITIES
   0
LWPOLYLINE
   5
27E
 100
AcDbEntity
   8
0
   6
CONTINUOUS
  62
3
 100
AcDbPolyline
  90
4
  70
1
  10
 15.000000000000
  20
 10.623482664101
  10
 15.000000000000
  20
 277.50000000000
  10
 403.00000000000
  20
 277.50000000000
  10
 403.00000000000
  20
 10.623482664101
   0
LINE
   5
27F
 100
AcDbEntity
   8
0
 100
AcDbLine
   6
CONTINUOUS
  62
3
  10
 393.00000000000
  20
 20.623482664101
  30
0.0
  11
 403.00000000000
  21
 20.623482664101
  31
0.0
   0
TEXT
   5
280
 100
AcDbEntity
   8
0
  62
3
 100
AcDbText
  10
 393.91826757962
  20
 21.638868601321
  30
0.0
  40
 2.5000000000000
   1
ＲＥＶ.
   7
STANDARD
  72
1
  11
 398.29326757962
  21
 22.888868601321
  31
0.0
 100
AcDbText
  73
2
   0
LINE
   5
281
 100
AcDbEntity
   8
0
 100
AcDbLine
   6
CONTINUOUS
  62
3
  10
 393.00000000000
  20
 15.623482664101
  30
0.0
  11
 403.00000000000
  21
 15.623482664101
  31
0.0
   0
LINE
   5
282
 100
AcDbEntity
   8
0
 100
AcDbLine
   6
CONTINUOUS
  62
3
  10
 398.00000000000
  20
 20.623482664101
  30
0.0
  11
 398.00000000000
  21
 10.623482664101
  31
0.0
   0
LINE
   5
283
 100
AcDbEntity
   8
0
 100
AcDbLine
   6
CONTINUOUS
  62
3
  10
 342.00000000000
  20
 10.623482664101
  30
0.0
  11
 342.00000000000
  21
 25.623482664101
  31
0.0
   0
TEXT
   5
284
 100
AcDbEntity
   8
0
  62
3
 100
AcDbText
  10
 342.91273375713
  20
 22.387068135946
  30
0.0
  40
 2.5000000000000
   1
ＫＵＲＩＫＩ　ＷＯＲＫＳ　ＤＷＧ．ＮＯ．
  41
 0.80000000000000
   7
STANDARD
 100
AcDbText
   0
LINE
   5
285
 100
AcDbEntity
   8
0
 100
AcDbLine
   6
CONTINUOUS
  62
3
  10
 296.69695514066
  20
 25.623482664101
  30
0.0
  11
 296.69695514066
  21
 10.623482664101
  31
0.0
   0
LINE
   5
286
 100
AcDbEntity
   8
0
 100
AcDbLine
   6
CONTINUOUS
  62
3
  10
 280.41198317335
  20
 25.623482664101
  30
0.0
  11
 280.41198317335
  21
 10.623482664101
  31
0.0
   0
TEXT
   5
287
 100
AcDbEntity
   8
0
  62
3
 100
AcDbText
  10
 281.18991800322
  20
 22.471829596328
  30
0.0
  40
 2.5000000000000
   1
ＰＲＯＪＥＣＴＩＯＮ
  41
 0.76000000000000
   7
STANDARD
  72
1
  11
 288.43991800322
  21
 23.721829596328
  31
0.0
 100
AcDbText
  73
2
   0
LWPOLYLINE
   5
288
 100
AcDbEntity
   8
0
   6
CONTINUOUS
  62
3
 100
AcDbPolyline
  90
4
  70
1
  10
 288.41014305184
  20
 16.991901306721
  10
 288.41014305184
  20
 14.001302906600
  10
 294.43848405007
  20
 13.203904941814
  10
 294.43848405007
  20
 17.789299271507
   0
CIRCLE
   5
289
 100
AcDbEntity
   8
0
 100
AcDbCircle
   6
CONTINUOUS
  62
3
  10
 284.85876904087
  20
 15.496602106661
  30
0.0
  40
 1.4952992000607
   0
CIRCLE
   5
28A
 100
AcDbEntity
   8
0
 100
AcDbCircle
   6
CONTINUOUS
  62
3
  10
 284.85876904087
  20
 15.496602106661
  30
0.0
  40
 2.2926971648466
   0
LINE
   5
28B
 100
AcDbEntity
   8
0
 100
AcDbLine
   6
DASHDOT
  62
3
  10
 284.85876904087
  20
 18.276819797895
  30
0.0
  11
 284.85876904087
  21
 12.739086639187
  31
0.0
   0
LINE
   5
28C
 100
AcDbEntity
   8
0
 100
AcDbLine
   6
DASHDOT
  62
3
  10
 282.06714872566
  20
 15.496602106661
  30
0.0
  11
 295.11171244742
  21
 15.496602106661
  31
0.0
   0
LINE
   5
28D
 100
AcDbEntity
   8
0
 100
AcDbLine
   6
CONTINUOUS
  62
3
  10
 228.41198317335
  20
 40.623482664101
  30
0.0
  11
 403.00000000000
  21
 40.623482664101
  31
0.0
   0
LINE
   5
28E
 100
AcDbEntity
   8
0
 100
AcDbLine
   6
CONTINUOUS
  62
3
  10
 280.41198317335
  20
 25.623482664101
  30
0.0
  11
 280.41198317335
  21
 40.623482664101
  31
0.0
   0
LINE
   5
28F
 100
AcDbEntity
   8
0
 100
AcDbLine
   6
CONTINUOUS
  62
3
  10
 393.00000000000
  20
 40.623482664101
  30
0.0
  11
 393.00000000000
  21
 10.623482664101
  31
0.0
   0
TEXT
   5
290
 100
AcDbEntity
   8
0
  62
3
 100
AcDbText
  10
 281.72327826531
  20
 37.573442796790
  30
0.0
  40
 2.5000000000000
   1
ＴＩＴＬＥ
  41
 0.76000000000000
   7
STANDARD
 100
AcDbText
   0
LINE
   5
291
 100
AcDbEntity
   8
0
 100
AcDbLine
   6
CONTINUOUS
  62
3
  10
 342.00000000000
  20
 40.623482664101
  30
0.0
  11
 342.00000000000
  21
 25.623482664101
  31
0.0
   0
LINE
   5
292
 100
AcDbEntity
   8
0
 100
AcDbLine
   6
CONTINUOUS
  62
3
  10
 342.00000000000
  20
 33.123482664101
  30
0.0
  11
 392.82654662566
  21
 33.123482664101
  31
0.0
   0
TEXT
   5
293
 100
AcDbEntity
   8
0
  62
3
 100
AcDbText
  10
 393.45881737529
  20
 37.196652667621
  30
0.0
  40
 2.5000000000000
   1
ＳＣＡＬＥ
  41
 0.88000000000000
   7
STANDARD
  72
1
  11
 398.05881737529
  21
 38.446652667621
  31
0.0
 100
AcDbText
  73
2
   0
TEXT
   5
294
 100
AcDbEntity
   8
0
  62
3
 100
AcDbText
  10
 342.59989527462
  20
 37.573442796790
  30
0.0
  40
 2.5000000000000
   1
ＰＴ.ＮＯ
  41
 0.76000000000000
   7
STANDARD
 100
AcDbText
   0
TEXT
   5
295
 100
AcDbEntity
   8
0
  62
3
 100
AcDbText
  10
 342.59989527462
  20
 29.763824210947
  30
0.0
  40
 2.5000000000000
   1
ＰＴ.ＮＡＭＥ
  41
 0.76000000000000
   7
STANDARD
 100
AcDbText
   0
LINE
   5
296
 100
AcDbEntity
   8
0
 100
AcDbLine
   6
CONTINUOUS
  62
3
  10
 400.58032447968
  20
 34.847167115437
  30
0.0
  11
 395.37930700766
  21
 27.832461499328
  31
0.0
   0
LINE
   5
297
 100
AcDbEntity
   8
0
 100
AcDbLine
   6
CONTINUOUS
  62
3
  10
 280.41198317335
  20
 25.623482664101
  30
0.0
  11
 403.00000000000
  21
 25.623482664101
  31
0.0
   0
LINE
   5
298
 100
AcDbEntity
   8
0
 100
AcDbLine
   6
CONTINUOUS
  62
3
  10
 263.07864984001
  20
 32.623482664101
  30
0.0
  11
 263.07864984001
  21
 10.623482664101
  31
0.0
   0
LINE
   5
299
 100
AcDbEntity
   8
0
 100
AcDbLine
   6
CONTINUOUS
  62
3
  10
 280.41198317335
  20
 32.623482664101
  30
0.0
  11
 228.41198317335
  21
 32.623482664101
  31
0.0
   0
LINE
   5
29A
 100
AcDbEntity
   8
0
 100
AcDbLine
   6
CONTINUOUS
  62
3
  10
 245.74531650668
  20
 32.623482664101
  30
0.0
  11
 245.74531650668
  21
 10.623482664101
  31
0.0
   0
LINE
   5
29B
 100
AcDbEntity
   8
0
 100
AcDbLine
   6
CONTINUOUS
  62
8
  10
 311.87601195884
  20
 23.726906399220
  30
0.0
  11
 308.57933271356
  21
 18.501906399220
  31
0.0
   0
LINE
   5
29C
 100
AcDbEntity
   8
0
 100
AcDbLine
   6
CONTINUOUS
  62
8
  10
 309.78601195884
  20
 12.649906399220
  30
0.0
  11
 309.12823567852
  21
 15.839906399220
  31
0.0
   0
LINE
   5
29D
 100
AcDbEntity
   8
0
 100
AcDbLine
   6
CONTINUOUS
  62
8
  10
 309.05565346828
  20
 16.191906399220
  30
0.0
  11
 308.57933271356
  21
 18.501906399220
  31
0.0
   0
LINE
   5
29E
 100
AcDbEntity
   8
0
 100
AcDbLine
   6
CONTINUOUS
  62
8
  10
 309.36801195884
  20
 23.726906399220
  30
0.0
  11
 308.23065346828
  21
 16.191906399220
  31
0.0
   0
LINE
   5
29F
 100
AcDbEntity
   8
0
 100
AcDbLine
   6
CONTINUOUS
  62
8
  10
 308.17752139281
  20
 15.839906399220
  30
0.0
  11
 307.69601195884
  21
 12.649906399220
  31
0.0
   0
LINE
   5
2A0
 100
AcDbEntity
   8
0
 100
AcDbLine
   6
CONTINUOUS
  62
8
  10
 306.02401195884
  20
 23.726906399220
  30
0.0
  11
 304.88665346828
  21
 16.191906399220
  31
0.0
   0
LINE
   5
2A1
 100
AcDbEntity
   8
0
 100
AcDbLine
   6
CONTINUOUS
  62
8
  10
 304.83352139281
  20
 15.839906399220
  30
0.0
  11
 304.35201195884
  21
 12.649906399220
  31
0.0
   0
LWPOLYLINE
   5
2A2
 100
AcDbEntity
   8
0
   6
CONTINUOUS
  62
8
 100
AcDbPolyline
  90
4
  70
0
  10
 304.88665346828
  20
 16.191906399220
  10
 303.25201195884
  20
 16.191906399220
  10
 303.25201195884
  20
 15.839906399220
  10
 304.83352139281
  20
 15.839906399220
   0
LINE
   5
2A3
 100
AcDbEntity
   8
0
 100
AcDbLine
   6
CONTINUOUS
  62
8
  10
 309.05565346828
  20
 16.191906399220
  30
0.0
  11
 308.23065346828
  21
 16.191906399220
  31
0.0
   0
LINE
   5
2A4
 100
AcDbEntity
   8
0
 100
AcDbLine
   6
CONTINUOUS
  62
8
  10
 308.17752139281
  20
 15.839906399220
  30
0.0
  11
 309.12823567852
  21
 15.839906399220
  31
0.0
   0
INSERT
   5
2A5
 100
AcDbEntity
   8
0
 100
AcDbBlockReference
   2
BLOCK001
  10
0.0
  20
0.0
  30
0.0
   0
TEXT
   5
2A6
 100
AcDbEntity
   8
0
  62
8
 100
AcDbText
  10
 314.65688628864
  20
 13.271725595648
  30
0.0
  40
 2.2550000000000
   1
Kuriki Manufacture Co.,Ltd
  41
 0.35365853658537
  51
 10.000000000000
   7
STANDARD
 100
AcDbText
   0
LINE
   5
2A7
 100
AcDbEntity
   8
0
 100
AcDbLine
   6
CONTINUOUS
  62
8
  10
 315.22001195884
  20
 23.726906399220
  30
0.0
  11
 311.92333271356
  21
 18.501906399220
  31
0.0
   0
LINE
   5
2A8
 100
AcDbEntity
   8
0
 100
AcDbLine
   6
CONTINUOUS
  62
8
  10
 334.17413629757
  20
 22.021906399220
  30
0.0
  11
 332.41413629757
  21
 22.021906399220
  31
0.0
   0
LINE
   5
2A9
 100
AcDbEntity
   8
0
 100
AcDbLine
   6
CONTINUOUS
  62
8
  10
 334.17413629757
  20
 22.021906399220
  30
0.0
  11
 333.29413629757
  21
 16.191906399220
  31
0.0
   0
LINE
   5
2AA
 100
AcDbEntity
   8
0
 100
AcDbLine
   6
CONTINUOUS
  62
8
  10
 332.41413629757
  20
 22.021906399220
  30
0.0
  11
 331.53413629757
  21
 16.191906399220
  31
0.0
   0
LINE
   5
2AB
 100
AcDbEntity
   8
0
 100
AcDbLine
   6
CONTINUOUS
  62
8
  10
 333.29413629757
  20
 16.191906399220
  30
0.0
  11
 331.53413629757
  21
 16.191906399220
  31
0.0
   0
LINE
   5
2AC
 100
AcDbEntity
   8
0
 100
AcDbLine
   6
CONTINUOUS
  62
8
  10
 329.00413629757
  20
 22.021906399220
  30
0.0
  11
 327.24413629757
  21
 22.021906399220
  31
0.0
   0
LINE
   5
2AD
 100
AcDbEntity
   8
0
 100
AcDbLine
   6
CONTINUOUS
  62
8
  10
 329.00413629757
  20
 22.021906399220
  30
0.0
  11
 328.12413629757
  21
 16.191906399220
  31
0.0
   0
LINE
   5
2AE
 100
AcDbEntity
   8
0
 100
AcDbLine
   6
CONTINUOUS
  62
8
  10
 327.24413629757
  20
 22.021906399220
  30
0.0
  11
 326.36413629757
  21
 16.191906399220
  31
0.0
   0
LINE
   5
2AF
 100
AcDbEntity
   8
0
 100
AcDbLine
   6
CONTINUOUS
  62
8
  10
 328.12413629757
  20
 16.191906399220
  30
0.0
  11
 326.36413629757
  21
 16.191906399220
  31
0.0
   0
LINE
   5
2B0
 100
AcDbEntity
   8
0
 100
AcDbLine
   6
CONTINUOUS
  62
8
  10
 326.58413629757
  20
 22.021906399220
  30
0.0
  11
 324.82413629757
  21
 22.021906399220
  31
0.0
   0
LINE
   5
2B1
 100
AcDbEntity
   8
0
 100
AcDbLine
   6
CONTINUOUS
  62
8
  10
 326.58413629757
  20
 22.021906399220
  30
0.0
  11
 325.70413629757
  21
 16.191906399220
  31
0.0
   0
LINE
   5
2B2
 100
AcDbEntity
   8
0
 100
AcDbLine
   6
CONTINUOUS
  62
8
  10
 324.82413629757
  20
 22.021906399220
  30
0.0
  11
 323.94413629757
  21
 16.191906399220
  31
0.0
   0
LINE
   5
2B3
 100
AcDbEntity
   8
0
 100
AcDbLine
   6
CONTINUOUS
  62
8
  10
 325.70413629757
  20
 16.191906399220
  30
0.0
  11
 323.94413629757
  21
 16.191906399220
  31
0.0
   0
LINE
   5
2B4
 100
AcDbEntity
   8
0
 100
AcDbLine
   6
CONTINUOUS
  62
8
  10
 332.08413629757
  20
 22.021906399220
  30
0.0
  11
 330.32413629757
  21
 22.021906399220
  31
0.0
   0
LINE
   5
2B5
 100
AcDbEntity
   8
0
 100
AcDbLine
   6
CONTINUOUS
  62
8
  10
 330.32413629757
  20
 22.021906399220
  30
0.0
  11
 328.58904195795
  21
 19.271906399220
  31
0.0
   0
LINE
   5
2B6
 100
AcDbEntity
   8
0
 100
AcDbLine
   6
CONTINUOUS
  62
8
  10
 329.22413629757
  20
 16.191906399220
  30
0.0
  11
 331.20413629757
  21
 16.191906399220
  31
0.0
   0
LINE
   5
2B7
 100
AcDbEntity
   8
0
 100
AcDbLine
   6
CONTINUOUS
  62
8
  10
 329.22413629757
  20
 16.191906399220
  30
0.0
  11
 328.58904195795
  21
 19.271906399220
  31
0.0
   0
LINE
   5
2B8
 100
AcDbEntity
   8
0
 100
AcDbLine
   6
CONTINUOUS
  62
8
  10
 332.08413629757
  20
 22.021906399220
  30
0.0
  11
 330.34904195795
  21
 19.271906399220
  31
0.0
   0
LINE
   5
2B9
 100
AcDbEntity
   8
0
 100
AcDbLine
   6
CONTINUOUS
  62
8
  10
 330.34904195795
  20
 19.271906399220
  30
0.0
  11
 331.20413629757
  21
 16.191906399220
  31
0.0
   0
LINE
   5
2BA
 100
AcDbEntity
   8
0
 100
AcDbLine
   6
CONTINUOUS
  62
8
  10
 321.63413629757
  20
 16.191906399220
  30
0.0
  11
 323.61413629757
  21
 16.191906399220
  31
0.0
   0
LINE
   5
2BB
 100
AcDbEntity
   8
0
 100
AcDbLine
   6
CONTINUOUS
  62
8
  10
 319.87413629757
  20
 22.021906399220
  30
0.0
  11
 318.99413629757
  21
 16.191906399220
  31
0.0
   0
LINE
   5
2BC
 100
AcDbEntity
   8
0
 100
AcDbLine
   6
CONTINUOUS
  62
8
  10
 320.75413629757
  20
 16.191906399220
  30
0.0
  11
 318.99413629757
  21
 16.191906399220
  31
0.0
   0
LINE
   5
2BD
 100
AcDbEntity
   8
0
 100
AcDbLine
   6
CONTINUOUS
  62
8
  10
 321.63413629757
  20
 16.191906399220
  30
0.0
  11
 321.27122524636
  21
 17.951906399220
  31
0.0
   0
LINE
   5
2BE
 100
AcDbEntity
   8
0
 100
AcDbLine
   6
CONTINUOUS
  62
8
  10
 322.97281554286
  20
 18.501906399220
  30
0.0
  11
 323.61413629757
  21
 16.191906399220
  31
0.0
   0
LINE
   5
2BF
 100
AcDbEntity
   8
0
 100
AcDbLine
   6
CONTINUOUS
  62
8
  10
 321.38577335329
  20
 20.376501893337
  30
0.0
  11
 320.75413629757
  21
 16.191906399220
  31
0.0
   0
LINE
   5
2C0
 100
AcDbEntity
   8
0
 100
AcDbLine
   6
CONTINUOUS
  62
8
  10
 321.27122524636
  20
 17.951906399220
  30
0.0
  11
 321.52571239946
  21
 19.602383443274
  31
0.0
   0
LINE
   5
2C1
 100
AcDbEntity
   8
0
 100
AcDbLine
   6
CONTINUOUS
  62
8
  10
 319.21413629757
  20
 22.021906399220
  30
0.0
  11
 317.45413629757
  21
 22.021906399220
  31
0.0
   0
LINE
   5
2C2
 100
AcDbEntity
   8
0
 100
AcDbLine
   6
CONTINUOUS
  62
8
  10
 316.90413629757
  20
 22.021906399220
  30
0.0
  11
 315.14413629757
  21
 22.021906399220
  31
0.0
   0
LINE
   5
2C3
 100
AcDbEntity
   8
0
 100
AcDbLine
   6
CONTINUOUS
  62
8
  10
 317.45413629757
  20
 22.021906399220
  30
0.0
  11
 316.87713633427
  21
 18.199281642342
  31
0.0
   0
LINE
   5
2C4
 100
AcDbEntity
   8
0
 100
AcDbLine
   6
CONTINUOUS
  62
8
  10
 316.90413629757
  20
 22.021906399220
  30
0.0
  11
 316.32651949334
  21
 18.195195071210
  31
0.0
   0
LINE
   5
2C5
 100
AcDbEntity
   8
0
 100
AcDbLine
   6
CONTINUOUS
  62
8
  10
 315.14413629757
  20
 22.021906399220
  30
0.0
  11
 314.56745987001
  21
 18.201425066603
  31
0.0
   0
LINE
   5
2C6
 100
AcDbEntity
   8
0
 100
AcDbLine
   6
CONTINUOUS
  62
8
  10
 319.21413629757
  20
 22.021906399220
  30
0.0
  11
 318.64759428831
  21
 18.268565587884
  31
0.0
   0
ARC
   5
2C7
 100
AcDbEntity
   8
0
   6
CONTINUOUS
  62
8
 100
AcDbCircle
  10
 322.25149215145
  20
 20.281654931699
  30
0.0
  40
 1.7402514675212
 100
AcDbArc
  50
 351.41637851988
  51
 90.000000000043
   0
LINE
   5
2C8
 100
AcDbEntity
   8
0
 100
AcDbLine
   6
CONTINUOUS
  62
8
  10
 322.25149215145
  20
 22.021906399220
  30
0.0
  11
 319.87413629757
  21
 22.021906399220
  31
0.0
   0
LINE
   5
2C9
 100
AcDbEntity
   8
0
 100
AcDbLine
   6
CONTINUOUS
  62
8
  10
 321.38507969380
  20
 20.371906399220
  30
0.0
  11
 321.82304781223
  21
 20.371906399220
  31
0.0
   0
ARC
   5
2CA
 100
AcDbEntity
   8
0
   6
CONTINUOUS
  62
8
 100
AcDbCircle
  10
 316.32557002286
  20
 17.958957507865
  30
0.0
  40
 1.7747512013310
 100
AcDbArc
  50
 172.14765871033
  51
 264.66082673530
   0
ARC
   5
2CB
 100
AcDbEntity
   8
0
   6
CONTINUOUS
  62
8
 100
AcDbCircle
  10
 316.21330743135
  20
 18.656314041925
  30
0.0
  40
 2.4649749219048
 100
AcDbArc
  50
 268.77075588816
  51
 350.94960092964
   0
ARC
   5
2CC
 100
AcDbEntity
   8
0
   6
CONTINUOUS
  62
8
 100
AcDbCircle
  10
 316.53858367491
  20
 18.165952445969
  30
0.0
  40
 0.21407089533906
 100
AcDbArc
  50
 170.68405351440
  51
 269.12700070201
   0
ARC
   5
2CD
 100
AcDbEntity
   8
0
   6
CONTINUOUS
  62
8
 100
AcDbCircle
  10
 316.57207126624
  20
 18.260968657993
  30
0.0
  40
 0.31123943135484
 100
AcDbArc
  50
 263.21905471517
  51
 348.56840050093
   0
ARC
   5
2CE
 100
AcDbEntity
   8
0
   6
CONTINUOUS
  62
8
 100
AcDbCircle
  10
 321.98449352605
  20
 20.240325896160
  30
0.0
  40
 1.9997206695528
 100
AcDbArc
  50
 299.61899079210
  51
 353.72968381424
   0
ARC
   5
2CF
 100
AcDbEntity
   8
0
   6
CONTINUOUS
  62
8
 100
AcDbCircle
  10
 321.82304781223
  20
 19.989374860182
  30
0.0
  40
 0.38253153903777
 100
AcDbArc
  50
0.0
  51
 90.000000000417
   0
ARC
   5
2D0
 100
AcDbEntity
   8
0
   6
CONTINUOUS
  62
8
 100
AcDbCircle
  10
 321.74321300411
  20
 20.071334648260
  30
0.0
  40
 0.46957432409482
 100
AcDbArc
  50
 272.95201820138
  51
 349.94807454513
   0
LINE
   5
2D1
 100
AcDbEntity
   8
0
 100
AcDbLine
   6
CONTINUOUS
  62
8
  10
 321.76739591525
  20
 19.602383443274
  30
0.0
  11
 321.52571239946
  21
 19.602383443274
  31
0.0
   0
LINE
   5
2D2
 100
AcDbEntity
   8
0
 100
AcDbLine
   6
CONTINUOUS
  62
8
  10
 311.92333271356
  20
 18.501906399220
  30
0.0
  11
 312.56465346828
  21
 16.191906399220
  31
0.0
   0
LINE
   5
2D3
 100
AcDbEntity
   8
0
 100
AcDbLine
   6
CONTINUOUS
  62
8
  10
 312.66237853566
  20
 15.839906399220
  30
0.0
  11
 313.54801195884
  21
 12.649906399220
  31
0.0
   0
LWPOLYLINE
   5
2D4
 100
AcDbEntity
   8
0
   6
CONTINUOUS
  62
8
 100
AcDbPolyline
  90
4
  70
0
  10
 312.66237853566
  20
 15.839906399220
  10
 335.37201195884
  20
 15.839906399220
  10
 335.37201195884
  20
 16.191906399220
  10
 312.56465346828
  20
 16.191906399220
   0
LINE
   5
2D5
 100
AcDbEntity
   8
0
 100
AcDbLine
   6
CONTINUOUS
  62
8
  10
 309.36801195884
  20
 23.726906399220
  30
0.0
  11
 306.02401195884
  21
 23.726906399220
  31
0.0
   0
LINE
   5
2D6
 100
AcDbEntity
   8
0
 100
AcDbLine
   6
CONTINUOUS
  62
8
  10
 315.22001195884
  20
 23.726906399220
  30
0.0
  11
 311.87601195884
  21
 23.726906399220
  31
0.0
   0
LINE
   5
2D7
 100
AcDbEntity
   8
0
 100
AcDbLine
   6
CONTINUOUS
  62
8
  10
 307.69601195884
  20
 12.649906399220
  30
0.0
  11
 304.35201195884
  21
 12.649906399220
  31
0.0
   0
LINE
   5
2D8
 100
AcDbEntity
   8
0
 100
AcDbLine
   6
CONTINUOUS
  62
8
  10
 309.78601195884
  20
 12.649906399220
  30
0.0
  11
 313.54801195884
  21
 12.649906399220
  31
0.0
   0
TEXT
   5
2D9
 100
AcDbEntity
   8
0
  62
7
 100
AcDbText
  10
 393.73996445112
  20
 31.166707948577
  30
0.0
  40
 4.0000000000000
   1
１ 　
   7
STANDARD
 100
AcDbText
   0
TEXT
   5
2DA
 100
AcDbEntity
   8
0
  62
7
 100
AcDbText
  10
 398.35511870750
  20
 27.158650445530
  30
0.0
  40
 4.0000000000000
   1
１ 　
   7
STANDARD
 100
AcDbText
   0
TEXT
   5
2DB
 100
AcDbEntity
   8
0
  62
7
 100
AcDbText
  10
 285.85449681501
  20
 29.663883716041
  30
0.0
  40
 4.0000000000000
   1
明かり表示レンズ%%c３５
  51
 15.000000000000
   7
STANDARD
 100
AcDbText
   0
TEXT
   5
2DC
 100
AcDbEntity
   8
0
  62
7
 100
AcDbText
  10
 358.48785161961
  20
 27.139058861391
  30
0.0
  40
 4.0000000000000
   1
組立図
  51
 15.000000000000
   7
STANDARD
 100
AcDbText
   0
CIRCLE
   5
2DD
 100
AcDbEntity
   8
0
 100
AcDbCircle
   6
CONTINUOUS
  62
7
  10
 104.46675814182
  20
 202.08169385112
  30
0.0
  40
 15.000000000000
   0
LINE
   5
2DE
 100
AcDbEntity
   8
0
 100
AcDbLine
   6
DASHDOT
  62
2
  10
 82.466758141817
  20
 202.08169385112
  30
0.0
  11
 126.46675814182
  21
 202.08169385112
  31
0.0
   0
LINE
   5
2DF
 100
AcDbEntity
   8
0
 100
AcDbLine
   6
DASHDOT
  62
2
  10
 104.46675814182
  20
 224.08169385112
  30
0.0
  11
 104.46675814182
  21
 180.08169385112
  31
0.0
   0
LWPOLYLINE
   5
2E0
 100
AcDbEntity
   8
0
   6
CONTINUOUS
  62
2
 100
AcDbPolyline
  90
4
  70
1
  10
 80.517841221504
  20
 231.82788051916
  10
 80.517841221504
  20
 160.66884015850
  10
 137.82017440797
  20
 160.66884015850
  10
 137.82017440797
  20
 231.82788051916
   0
INSERT
   5
2E1
 100
AcDbEntity
   8
0
 100
AcDbBlockReference
   2
BLOCK002
  10
0.0
  20
0.0
  30
0.0
   0
LINE
   5
2E2
 100
AcDbEntity
   8
0
 100
AcDbLine
   6
DIVIDE
  62
3
  10
 57.699301259529
  20
 228.83083340179
  30
0.0
  11
 29.699301259529
  21
 228.83083340179
  31
0.0
   0
INSERT
   5
2E3
 100
AcDbEntity
   8
0
 100
AcDbBlockReference
   2
BLOCK003
  10
0.0
  20
0.0
  30
0.0
   0
INSERT
   5
2E4
 100
AcDbEntity
   8
0
 100
AcDbBlockReference
   2
BLOCK004
  10
0.0
  20
0.0
  30
0.0
   0
LINE
   5
2E5
 100
AcDbEntity
   8
0
 100
AcDbLine
   6
DIVIDE
  62
3
  10
 57.699301259529
  20
 198.83083340179
  30
0.0
  11
 57.699301259529
  21
 187.78256820226
  31
0.0
   0
LINE
   5
2E6
 100
AcDbEntity
   8
0
 100
AcDbLine
   6
DIVIDE
  62
3
  10
 57.699301259529
  20
 198.83083340179
  30
0.0
  11
 29.699301259529
  21
 198.83083340179
  31
0.0
   0
LINE
   5
2E7
 100
AcDbEntity
   8
0
 100
AcDbLine
   6
DIVIDE
  62
3
  10
 29.699301259529
  20
 198.83083340179
  30
0.0
  11
 29.699301259529
  21
 187.78256820226
  31
0.0
   0
LINE
   5
2E8
 100
AcDbEntity
   8
0
 100
AcDbLine
   6
DIVIDE
  62
3
  10
 29.699301259529
  20
 240.18265730897
  30
0.0
  11
 29.699301259529
  21
 228.83083340179
  31
0.0
   0
LINE
   5
2E9
 100
AcDbEntity
   8
0
 100
AcDbLine
   6
DIVIDE
  62
3
  10
 57.699301259529
  20
 240.18265730897
  30
0.0
  11
 57.699301259529
  21
 228.83083340179
  31
0.0
   0
LINE
   5
2EA
 100
AcDbEntity
   8
0
 100
AcDbLine
   6
DIVIDE
  62
3
  10
 57.699301259529
  20
 240.18265730897
  30
0.0
  11
 57.699301259529
  21
 228.83083340179
  31
0.0
   0
LINE
   5
2EB
 100
AcDbEntity
   8
0
 100
AcDbLine
   6
DIVIDE
  62
3
  10
 29.699301259529
  20
 198.83083340179
  30
0.0
  11
 57.699301259529
  21
 198.83083340179
  31
0.0
   0
LINE
   5
2EC
 100
AcDbEntity
   8
0
 100
AcDbLine
   6
DIVIDE
  62
3
  10
 57.699301259529
  20
 198.83083340179
  30
0.0
  11
 57.699301259529
  21
 187.78256820226
  31
0.0
   0
DIMENSION
   5
2ED
 100
AcDbEntity
   8
0
   6
CONTINUOUS
  62
2
 100
AcDbDimension
   2
*D1
  10
 29.699301259529
  20
 242.71265834185
  30
0.0
  11
 28.949301259529
  21
 242.71265834185
  31
0.0
  70
0
   3
GMM001
 100
AcDbAlignedDimension
  13
 28.199301259529
  23
 230.53083340179
  33
0.0
  14
 29.699301259529
  24
 240.18265730897
  34
0.0
 100
AcDbRotatedDimension
   0
DIMENSION
   5
2EE
 100
AcDbEntity
   8
0
   6
CONTINUOUS
  62
2
 100
AcDbDimension
   2
*D2
  10
 57.699301259529
  20
 242.71265834185
  30
0.0
  11
 43.699301259529
  21
 242.71265834185
  31
0.0
  70
0
   3
GMM002
 100
AcDbAlignedDimension
  13
 29.699301259529
  23
 240.18265730897
  33
0.0
  14
 57.699301259529
  24
 240.18265730897
  34
0.0
 100
AcDbRotatedDimension
   0
DIMENSION
   5
2EF
 100
AcDbEntity
   8
0
   6
CONTINUOUS
  62
2
 100
AcDbDimension
   2
*D3
  10
 59.199301259529
  20
 242.71265834185
  30
0.0
  11
 58.449301259529
  21
 242.71265834185
  31
0.0
  70
0
   3
GMM003
 100
AcDbAlignedDimension
  13
 57.699301259529
  23
 240.18265730897
  33
0.0
  14
 59.199301259529
  24
 230.53083340179
  34
0.0
 100
AcDbRotatedDimension
   0
LINE
   5
2F0
 100
AcDbEntity
   8
0
 100
AcDbLine
   6
CONTINUOUS
  62
3
  10
 28.999301259529
  20
 231.33083340179
  30
0.0
  11
 28.999301259529
  21
 213.83083340179
  31
0.0
   0
LINE
   5
2F1
 100
AcDbEntity
   8
0
 100
AcDbLine
   6
CONTINUOUS
  62
7
  10
 29.699301259529
  20
 231.33083340179
  30
0.0
  11
 29.699301259529
  21
 213.83083340179
  31
0.0
   0
LWPOLYLINE
   5
2F2
 100
AcDbEntity
   8
0
   6
CONTINUOUS
  62
7
 100
AcDbPolyline
  90
4
  70
0
  10
 28.199301259529
  20
 213.83083340179
  10
 28.199301259529
  20
 230.53083340179
  10
 28.999301259529
  20
 231.33083340179
  10
 29.699301259529
  20
 231.33083340179
   0
LINE
   5
2F3
 100
AcDbEntity
   8
0
 100
AcDbLine
   6
CONTINUOUS
  62
3
  10
 28.999301259529
  20
 196.33083340179
  30
0.0
  11
 28.999301259529
  21
 213.83083340179
  31
0.0
   0
LINE
   5
2F4
 100
AcDbEntity
   8
0
 100
AcDbLine
   6
CONTINUOUS
  62
7
  10
 29.699301259529
  20
 196.33083340179
  30
0.0
  11
 29.699301259529
  21
 213.83083340179
  31
0.0
   0
LWPOLYLINE
   5
2F5
 100
AcDbEntity
   8
0
   6
CONTINUOUS
  62
7
 100
AcDbPolyline
  90
4
  70
0
  10
 28.199301259529
  20
 213.83083340179
  10
 28.199301259529
  20
 197.13083340179
  10
 28.999301259529
  20
 196.33083340179
  10
 29.699301259529
  20
 196.33083340179
   0
LINE
   5
2F6
 100
AcDbEntity
   8
0
 100
AcDbLine
   6
CONTINUOUS
  62
7
  10
 39.699301259529
  20
 229.43083340179
  30
0.0
  11
 39.699301259529
  21
 228.73083340179
  31
0.0
   0
LINE
   5
2F7
 100
AcDbEntity
   8
0
 100
AcDbLine
   6
CONTINUOUS
  62
7
  10
 39.699301259529
  20
 228.73083340179
  30
0.0
  11
 37.699301259529
  21
 229.43083340179
  31
0.0
   0
LINE
   5
2F8
 100
AcDbEntity
   8
0
 100
AcDbLine
   6
CONTINUOUS
  62
7
  10
 37.699301259529
  20
 229.43083340179
  30
0.0
  11
 37.699301259529
  21
 228.73083340179
  31
0.0
   0
LINE
   5
2F9
 100
AcDbEntity
   8
0
 100
AcDbLine
   6
CONTINUOUS
  62
7
  10
 37.699301259529
  20
 228.73083340179
  30
0.0
  11
 35.699301259529
  21
 229.23083340179
  31
0.0
   0
LINE
   5
2FA
 100
AcDbEntity
   8
0
 100
AcDbLine
   6
CONTINUOUS
  62
7
  10
 35.699301259529
  20
 229.23083340179
  30
0.0
  11
 35.699301259529
  21
 228.73083340179
  31
0.0
   0
LINE
   5
2FB
 100
AcDbEntity
   8
0
 100
AcDbLine
   6
CONTINUOUS
  62
7
  10
 35.699301259529
  20
 228.73083340179
  30
0.0
  11
 33.699301259529
  21
 229.23083340179
  31
0.0
   0
LINE
   5
2FC
 100
AcDbEntity
   8
0
 100
AcDbLine
   6
CONTINUOUS
  62
7
  10
 33.699301259529
  20
 229.23083340179
  30
0.0
  11
 33.699301259529
  21
 228.73083340179
  31
0.0
   0
LINE
   5
2FD
 100
AcDbEntity
   8
0
 100
AcDbLine
   6
CONTINUOUS
  62
7
  10
 42.149301259529
  20
 228.73083340179
  30
0.0
  11
 39.699301259529
  21
 229.43083340179
  31
0.0
   0
LINE
   5
2FE
 100
AcDbEntity
   8
0
 100
AcDbLine
   6
CONTINUOUS
  62
7
  10
 39.699301259529
  20
 198.23083340179
  30
0.0
  11
 39.699301259529
  21
 198.93083340179
  31
0.0
   0
LINE
   5
2FF
 100
AcDbEntity
   8
0
 100
AcDbLine
   6
CONTINUOUS
  62
7
  10
 39.699301259529
  20
 198.93083340179
  30
0.0
  11
 37.699301259529
  21
 198.23083340179
  31
0.0
   0
LINE
   5
300
 100
AcDbEntity
   8
0
 100
AcDbLine
   6
CONTINUOUS
  62
7
  10
 37.699301259529
  20
 198.23083340179
  30
0.0
  11
 37.699301259529
  21
 198.93083340179
  31
0.0
   0
LINE
   5
301
 100
AcDbEntity
   8
0
 100
AcDbLine
   6
CONTINUOUS
  62
7
  10
 37.699301259529
  20
 198.93083340179
  30
0.0
  11
 35.699301259529
  21
 198.43083340179
  31
0.0
   0
LINE
   5
302
 100
AcDbEntity
   8
0
 100
AcDbLine
   6
CONTINUOUS
  62
7
  10
 35.699301259529
  20
 198.43083340179
  30
0.0
  11
 35.699301259529
  21
 198.93083340179
  31
0.0
   0
LINE
   5
303
 100
AcDbEntity
   8
0
 100
AcDbLine
   6
CONTINUOUS
  62
7
  10
 35.699301259529
  20
 198.93083340179
  30
0.0
  11
 33.699301259529
  21
 198.43083340179
  31
0.0
   0
LINE
   5
304
 100
AcDbEntity
   8
0
 100
AcDbLine
   6
CONTINUOUS
  62
7
  10
 33.699301259529
  20
 198.43083340179
  30
0.0
  11
 33.699301259529
  21
 198.93083340179
  31
0.0
   0
LINE
   5
305
 100
AcDbEntity
   8
0
 100
AcDbLine
   6
CONTINUOUS
  62
7
  10
 42.149301259529
  20
 198.93083340179
  30
0.0
  11
 39.699301259529
  21
 198.23083340179
  31
0.0
   0
LINE
   5
306
 100
AcDbEntity
   8
0
 100
AcDbLine
   6
DOT
  62
2
  10
 42.149301259529
  20
 198.93083340179
  30
0.0
  11
 42.836661823477
  21
 199.12722213434
  31
0.0
   0
LINE
   5
307
 100
AcDbEntity
   8
0
 100
AcDbLine
   6
CONTINUOUS
  62
7
  10
 31.199301259529
  20
 228.69723848169
  30
0.0
  11
 31.199301259529
  21
 228.73083340179
  31
0.0
   0
LINE
   5
308
 100
AcDbEntity
   8
0
 100
AcDbLine
   6
CONTINUOUS
  62
7
  10
 31.199301259529
  20
 198.96442832188
  30
0.0
  11
 31.199301259529
  21
 198.93083340179
  31
0.0
   0
LINE
   5
309
 100
AcDbEntity
   8
0
 100
AcDbLine
   6
CONTINUOUS
  62
7
  10
 33.699301259529
  20
 222.13006134548
  30
0.0
  11
 33.699301259529
  21
 228.69723848169
  31
0.0
   0
LINE
   5
30A
 100
AcDbEntity
   8
0
 100
AcDbLine
   6
CONTINUOUS
  62
7
  10
 35.699301259529
  20
 222.13006134548
  30
0.0
  11
 35.699301259529
  21
 228.69723848169
  31
0.0
   0
LINE
   5
30B
 100
AcDbEntity
   8
0
 100
AcDbLine
   6
CONTINUOUS
  62
7
  10
 33.699301259529
  20
 205.53160545810
  30
0.0
  11
 33.699301259529
  21
 198.96442832188
  31
0.0
   0
LINE
   5
30C
 100
AcDbEntity
   8
0
 100
AcDbLine
   6
CONTINUOUS
  62
7
  10
 35.699301259529
  20
 205.53160545810
  30
0.0
  11
 35.699301259529
  21
 198.96442832188
  31
0.0
   0
ARC
   5
30D
 100
AcDbEntity
   8
0
   6
CONTINUOUS
  62
7
 100
AcDbCircle
  10
 32.199301259531
  20
 221.13006134548
  30
0.0
  40
 1.0000000000000
 100
AcDbArc
  50
 90.000000000156
  51
 180.00000000000
   0
POINT
   5
30E
 100
AcDbEntity
   8
0
 100
AcDbPoint
  62
7
  10
 31.199301259529
  20
 222.13006134548
  30
0.0
   0
LINE
   5
30F
 100
AcDbEntity
   8
0
 100
AcDbLine
   6
CONTINUOUS
  62
7
  10
 32.199301259529
  20
 222.13006134548
  30
0.0
  11
 43.199301259529
  21
 222.13006134548
  31
0.0
   0
ARC
   5
310
 100
AcDbEntity
   8
0
   6
CONTINUOUS
  62
7
 100
AcDbCircle
  10
 32.199301259528
  20
 206.53160545810
  30
0.0
  40
 1.0000000000000
 100
AcDbArc
  50
 180.00000000000
  51
 270.00000000005
   0
POINT
   5
311
 100
AcDbEntity
   8
0
 100
AcDbPoint
  62
7
  10
 31.199301259529
  20
 205.53160545810
  30
0.0
   0
LINE
   5
312
 100
AcDbEntity
   8
0
 100
AcDbLine
   6
CONTINUOUS
  62
7
  10
 32.199301259529
  20
 205.53160545810
  30
0.0
  11
 43.199301259529
  21
 205.53160545810
  31
0.0
   0
LINE
   5
313
 100
AcDbEntity
   8
0
 100
AcDbLine
   6
CONTINUOUS
  62
7
  10
 33.699301259529
  20
 222.38060789058
  30
0.0
  11
 35.699301259529
  21
 222.13006134548
  31
0.0
   0
LINE
   5
314
 100
AcDbEntity
   8
0
 100
AcDbLine
   6
CONTINUOUS
  62
2
  10
 31.199301259529
  20
 221.12744975826
  30
0.0
  11
 43.199301259529
  21
 221.12744975826
  31
0.0
   0
LINE
   5
315
 100
AcDbEntity
   8
0
 100
AcDbLine
   6
CONTINUOUS
  62
7
  10
 31.199301259529
  20
 221.13006134548
  30
0.0
  11
 31.199301259529
  21
 220.83083340179
  31
0.0
   0
ARC
   5
316
 100
AcDbEntity
   8
0
   6
CONTINUOUS
  62
7
 100
AcDbCircle
  10
 32.199301259530
  20
 220.83083340179
  30
0.0
  40
 1.0000000000000
 100
AcDbArc
  50
 180.00000000000
  51
 269.99999999990
   0
POINT
   5
317
 100
AcDbEntity
   8
0
 100
AcDbPoint
  62
7
  10
 31.199301259529
  20
 219.83083340179
  30
0.0
   0
LINE
   5
318
 100
AcDbEntity
   8
0
 100
AcDbLine
   6
CONTINUOUS
  62
7
  10
 32.199301259529
  20
 219.83083340179
  30
0.0
  11
 43.199301259529
  21
 219.83083340179
  31
0.0
   0
LINE
   5
319
 100
AcDbEntity
   8
0
 100
AcDbLine
   6
CONTINUOUS
  62
7
  10
 32.199301259529
  20
 207.83083340179
  30
0.0
  11
 43.199301259529
  21
 207.83083340179
  31
0.0
   0
ARC
   5
31A
 100
AcDbEntity
   8
0
   6
CONTINUOUS
  62
7
 100
AcDbCircle
  10
 32.199301259529
  20
 206.83083340179
  30
0.0
  40
 1.0000000000000
 100
AcDbArc
  50
 90.000000000000
  51
 180.00000000008
   0
POINT
   5
31B
 100
AcDbEntity
   8
0
 100
AcDbPoint
  62
7
  10
 31.199301259529
  20
 207.83083340179
  30
0.0
   0
LINE
   5
31C
 100
AcDbEntity
   8
0
 100
AcDbLine
   6
CONTINUOUS
  62
7
  10
 31.199301259529
  20
 206.83083340179
  30
0.0
  11
 31.199301259529
  21
 206.53160545810
  31
0.0
   0
LINE
   5
31D
 100
AcDbEntity
   8
0
 100
AcDbLine
   6
CONTINUOUS
  62
7
  10
 39.699301259529
  20
 219.83083340179
  30
0.0
  11
 39.699301259529
  21
 207.83083340179
  31
0.0
   0
LINE
   5
31E
 100
AcDbEntity
   8
0
 100
AcDbLine
   6
CONTINUOUS
  62
7
  10
 37.699301259529
  20
 219.83083340179
  30
0.0
  11
 37.699301259529
  21
 207.83083340179
  31
0.0
   0
LINE
   5
31F
 100
AcDbEntity
   8
0
 100
AcDbLine
   6
CONTINUOUS
  62
7
  10
 35.699301259529
  20
 219.83083340179
  30
0.0
  11
 35.699301259529
  21
 207.83083340179
  31
0.0
   0
LINE
   5
320
 100
AcDbEntity
   8
0
 100
AcDbLine
   6
CONTINUOUS
  62
7
  10
 33.699301259529
  20
 207.83083340179
  30
0.0
  11
 33.699301259529
  21
 219.83083340179
  31
0.0
   0
LINE
   5
321
 100
AcDbEntity
   8
0
 100
AcDbLine
   6
CONTINUOUS
  62
7
  10
 33.699301259529
  20
 205.28105891299
  30
0.0
  11
 35.699301259529
  21
 205.53160545810
  31
0.0
   0
LINE
   5
322
 100
AcDbEntity
   8
0
 100
AcDbLine
   6
CONTINUOUS
  62
2
  10
 31.199301259529
  20
 206.53421704531
  30
0.0
  11
 43.199301259529
  21
 206.53421704531
  31
0.0
   0
LINE
   5
323
 100
AcDbEntity
   8
0
 100
AcDbLine
   6
CONTINUOUS
  62
2
  10
 38.699301259529
  20
 221.12744975826
  30
0.0
  11
 38.699301259529
  21
 219.83083340179
  31
0.0
   0
LINE
   5
324
 100
AcDbEntity
   8
0
 100
AcDbLine
   6
CONTINUOUS
  62
2
  10
 40.699301259529
  20
 221.12744975826
  30
0.0
  11
 40.699301259529
  21
 219.83083340179
  31
0.0
   0
LINE
   5
325
 100
AcDbEntity
   8
0
 100
AcDbLine
   6
CONTINUOUS
  62
2
  10
 38.699301259529
  20
 206.53421704531
  30
0.0
  11
 38.699301259529
  21
 207.83083340179
  31
0.0
   0
LINE
   5
326
 100
AcDbEntity
   8
0
 100
AcDbLine
   6
CONTINUOUS
  62
2
  10
 40.699301259529
  20
 207.83083340179
  30
0.0
  11
 40.699301259529
  21
 206.53421704531
  31
0.0
   0
LINE
   5
327
 100
AcDbEntity
   8
0
 100
AcDbLine
   6
CONTINUOUS
  62
7
  10
 43.199301259529
  20
 213.83083340179
  30
0.0
  11
 43.199301259529
  21
 219.83083340179
  31
0.0
   0
LINE
   5
328
 100
AcDbEntity
   8
0
 100
AcDbLine
   6
CONTINUOUS
  62
7
  10
 43.199301259529
  20
 213.83083340179
  30
0.0
  11
 43.199301259529
  21
 207.83083340179
  31
0.0
   0
LINE
   5
329
 100
AcDbEntity
   8
0
 100
AcDbLine
   6
CONTINUOUS
  62
2
  10
 43.199301259529
  20
 221.12744975826
  30
0.0
  11
 43.199301259529
  21
 222.13006134548
  31
0.0
   0
LINE
   5
32A
 100
AcDbEntity
   8
0
 100
AcDbLine
   6
CONTINUOUS
  62
2
  10
 43.199301259529
  20
 205.53160545810
  30
0.0
  11
 43.199301259529
  21
 206.53421704531
  31
0.0
   0
LINE
   5
32B
 100
AcDbEntity
   8
0
 100
AcDbLine
   6
CONTINUOUS
  62
2
  10
 43.199301259529
  20
 206.53421704531
  30
0.0
  11
 43.199301259529
  21
 207.83083340179
  31
0.0
   0
LINE
   5
32C
 100
AcDbEntity
   8
0
 100
AcDbLine
   6
CONTINUOUS
  62
2
  10
 43.199301259529
  20
 221.12744975826
  30
0.0
  11
 43.199301259529
  21
 219.83083340179
  31
0.0
   0
LINE
   5
32D
 100
AcDbEntity
   8
0
 100
AcDbLine
   6
CONTINUOUS
  62
3
  10
 58.399301259529
  20
 231.33083340179
  30
0.0
  11
 58.399301259529
  21
 213.83083340179
  31
0.0
   0
LINE
   5
32E
 100
AcDbEntity
   8
0
 100
AcDbLine
   6
CONTINUOUS
  62
7
  10
 57.699301259529
  20
 231.33083340179
  30
0.0
  11
 57.699301259529
  21
 213.83083340179
  31
0.0
   0
LWPOLYLINE
   5
32F
 100
AcDbEntity
   8
0
   6
CONTINUOUS
  62
7
 100
AcDbPolyline
  90
4
  70
0
  10
 59.199301259529
  20
 213.83083340179
  10
 59.199301259529
  20
 230.53083340179
  10
 58.399301259529
  20
 231.33083340179
  10
 57.699301259529
  20
 231.33083340179
   0
LINE
   5
330
 100
AcDbEntity
   8
0
 100
AcDbLine
   6
CONTINUOUS
  62
3
  10
 58.399301259529
  20
 196.33083340179
  30
0.0
  11
 58.399301259529
  21
 213.83083340179
  31
0.0
   0
LINE
   5
331
 100
AcDbEntity
   8
0
 100
AcDbLine
   6
CONTINUOUS
  62
7
  10
 57.699301259529
  20
 196.33083340179
  30
0.0
  11
 57.699301259529
  21
 213.83083340179
  31
0.0
   0
LWPOLYLINE
   5
332
 100
AcDbEntity
   8
0
   6
CONTINUOUS
  62
7
 100
AcDbPolyline
  90
4
  70
0
  10
 59.199301259529
  20
 213.83083340179
  10
 59.199301259529
  20
 197.13083340179
  10
 58.399301259529
  20
 196.33083340179
  10
 57.699301259529
  20
 196.33083340179
   0
LINE
   5
333
 100
AcDbEntity
   8
0
 100
AcDbLine
   6
CONTINUOUS
  62
7
  10
 47.699301259529
  20
 229.43083340179
  30
0.0
  11
 47.699301259529
  21
 228.73083340179
  31
0.0
   0
LINE
   5
334
 100
AcDbEntity
   8
0
 100
AcDbLine
   6
CONTINUOUS
  62
7
  10
 47.699301259529
  20
 228.73083340179
  30
0.0
  11
 49.699301259529
  21
 229.43083340179
  31
0.0
   0
LINE
   5
335
 100
AcDbEntity
   8
0
 100
AcDbLine
   6
CONTINUOUS
  62
7
  10
 49.699301259529
  20
 229.43083340179
  30
0.0
  11
 49.699301259529
  21
 228.73083340179
  31
0.0
   0
LINE
   5
336
 100
AcDbEntity
   8
0
 100
AcDbLine
   6
CONTINUOUS
  62
7
  10
 49.699301259529
  20
 228.73083340179
  30
0.0
  11
 51.699301259529
  21
 229.23083340179
  31
0.0
   0
LINE
   5
337
 100
AcDbEntity
   8
0
 100
AcDbLine
   6
CONTINUOUS
  62
7
  10
 51.699301259529
  20
 229.23083340179
  30
0.0
  11
 51.699301259529
  21
 228.73083340179
  31
0.0
   0
LINE
   5
338
 100
AcDbEntity
   8
0
 100
AcDbLine
   6
CONTINUOUS
  62
7
  10
 51.699301259529
  20
 228.73083340179
  30
0.0
  11
 53.699301259529
  21
 229.23083340179
  31
0.0
   0
LINE
   5
339
 100
AcDbEntity
   8
0
 100
AcDbLine
   6
CONTINUOUS
  62
7
  10
 53.699301259529
  20
 229.23083340179
  30
0.0
  11
 53.699301259529
  21
 228.73083340179
  31
0.0
   0
LINE
   5
33A
 100
AcDbEntity
   8
0
 100
AcDbLine
   6
CONTINUOUS
  62
7
  10
 45.249301259529
  20
 228.73083340179
  30
0.0
  11
 47.699301259529
  21
 229.43083340179
  31
0.0
   0
LINE
   5
33B
 100
AcDbEntity
   8
0
 100
AcDbLine
   6
CONTINUOUS
  62
7
  10
 47.699301259529
  20
 198.23083340179
  30
0.0
  11
 47.699301259529
  21
 198.93083340179
  31
0.0
   0
LINE
   5
33C
 100
AcDbEntity
   8
0
 100
AcDbLine
   6
CONTINUOUS
  62
7
  10
 47.699301259529
  20
 198.93083340179
  30
0.0
  11
 49.699301259529
  21
 198.23083340179
  31
0.0
   0
LINE
   5
33D
 100
AcDbEntity
   8
0
 100
AcDbLine
   6
CONTINUOUS
  62
7
  10
 49.699301259529
  20
 198.23083340179
  30
0.0
  11
 49.699301259529
  21
 198.93083340179
  31
0.0
   0
LINE
   5
33E
 100
AcDbEntity
   8
0
 100
AcDbLine
   6
CONTINUOUS
  62
7
  10
 49.699301259529
  20
 198.93083340179
  30
0.0
  11
 51.699301259529
  21
 198.43083340179
  31
0.0
   0
LINE
   5
33F
 100
AcDbEntity
   8
0
 100
AcDbLine
   6
CONTINUOUS
  62
7
  10
 51.699301259529
  20
 198.43083340179
  30
0.0
  11
 51.699301259529
  21
 198.93083340179
  31
0.0
   0
LINE
   5
340
 100
AcDbEntity
   8
0
 100
AcDbLine
   6
CONTINUOUS
  62
7
  10
 51.699301259529
  20
 198.93083340179
  30
0.0
  11
 53.699301259529
  21
 198.43083340179
  31
0.0
   0
LINE
   5
341
 100
AcDbEntity
   8
0
 100
AcDbLine
   6
CONTINUOUS
  62
7
  10
 53.699301259529
  20
 198.43083340179
  30
0.0
  11
 53.699301259529
  21
 198.93083340179
  31
0.0
   0
LINE
   5
342
 100
AcDbEntity
   8
0
 100
AcDbLine
   6
CONTINUOUS
  62
7
  10
 45.249301259529
  20
 198.93083340179
  30
0.0
  11
 47.699301259529
  21
 198.23083340179
  31
0.0
   0
LINE
   5
343
 100
AcDbEntity
   8
0
 100
AcDbLine
   6
DOT
  62
2
  10
 45.249301259529
  20
 198.93083340179
  30
0.0
  11
 44.561940695580
  21
 199.12722213434
  31
0.0
   0
LINE
   5
344
 100
AcDbEntity
   8
0
 100
AcDbLine
   6
CONTINUOUS
  62
7
  10
 56.199301259529
  20
 228.69723848169
  30
0.0
  11
 56.199301259529
  21
 228.73083340179
  31
0.0
   0
LINE
   5
345
 100
AcDbEntity
   8
0
 100
AcDbLine
   6
CONTINUOUS
  62
7
  10
 56.199301259529
  20
 198.96442832188
  30
0.0
  11
 56.199301259529
  21
 198.93083340179
  31
0.0
   0
LINE
   5
346
 100
AcDbEntity
   8
0
 100
AcDbLine
   6
CONTINUOUS
  62
7
  10
 53.699301259529
  20
 222.13006134548
  30
0.0
  11
 53.699301259529
  21
 228.69723848169
  31
0.0
   0
LINE
   5
347
 100
AcDbEntity
   8
0
 100
AcDbLine
   6
CONTINUOUS
  62
7
  10
 51.699301259529
  20
 222.13006134548
  30
0.0
  11
 51.699301259529
  21
 228.69723848169
  31
0.0
   0
LINE
   5
348
 100
AcDbEntity
   8
0
 100
AcDbLine
   6
CONTINUOUS
  62
7
  10
 53.699301259529
  20
 205.53160545810
  30
0.0
  11
 53.699301259529
  21
 198.96442832188
  31
0.0
   0
LINE
   5
349
 100
AcDbEntity
   8
0
 100
AcDbLine
   6
CONTINUOUS
  62
7
  10
 51.699301259529
  20
 205.53160545810
  30
0.0
  11
 51.699301259529
  21
 198.96442832188
  31
0.0
   0
ARC
   5
34A
 100
AcDbEntity
   8
0
   6
CONTINUOUS
  62
7
 100
AcDbCircle
  10
 55.199301259529
  20
 221.13006134548
  30
0.0
  40
 1.0000000000000
 100
AcDbArc
  50
0.0
  51
 90.000000000028
   0
POINT
   5
34B
 100
AcDbEntity
   8
0
 100
AcDbPoint
  62
7
  10
 56.199301259529
  20
 222.13006134548
  30
0.0
   0
LINE
   5
34C
 100
AcDbEntity
   8
0
 100
AcDbLine
   6
CONTINUOUS
  62
7
  10
 55.199301259529
  20
 222.13006134548
  30
0.0
  11
 44.199301259529
  21
 222.13006134548
  31
0.0
   0
ARC
   5
34D
 100
AcDbEntity
   8
0
   6
CONTINUOUS
  62
7
 100
AcDbCircle
  10
 55.199301259533
  20
 206.53160545810
  30
0.0
  40
 1.0000000000000
 100
AcDbArc
  50
 269.99999999977
  51
0.0
   0
POINT
   5
34E
 100
AcDbEntity
   8
0
 100
AcDbPoint
  62
7
  10
 56.199301259529
  20
 205.53160545810
  30
0.0
   0
LINE
   5
34F
 100
AcDbEntity
   8
0
 100
AcDbLine
   6
CONTINUOUS
  62
7
  10
 55.199301259529
  20
 205.53160545810
  30
0.0
  11
 44.199301259529
  21
 205.53160545810
  31
0.0
   0
LINE
   5
350
 100
AcDbEntity
   8
0
 100
AcDbLine
   6
CONTINUOUS
  62
7
  10
 53.699301259529
  20
 222.38060789058
  30
0.0
  11
 51.699301259529
  21
 222.13006134548
  31
0.0
   0
LINE
   5
351
 100
AcDbEntity
   8
0
 100
AcDbLine
   6
CONTINUOUS
  62
2
  10
 56.199301259529
  20
 221.12744975827
  30
0.0
  11
 44.199301259529
  21
 221.12744975827
  31
0.0
   0
LINE
   5
352
 100
AcDbEntity
   8
0
 100
AcDbLine
   6
CONTINUOUS
  62
7
  10
 56.199301259529
  20
 221.13006134548
  30
0.0
  11
 56.199301259529
  21
 220.83083340179
  31
0.0
   0
ARC
   5
353
 100
AcDbEntity
   8
0
   6
CONTINUOUS
  62
7
 100
AcDbCircle
  10
 55.199301259530
  20
 220.83083340179
  30
0.0
  40
 1.0000000000000
 100
AcDbArc
  50
 269.99999999992
  51
0.0
   0
POINT
   5
354
 100
AcDbEntity
   8
0
 100
AcDbPoint
  62
7
  10
 56.199301259529
  20
 219.83083340179
  30
0.0
   0
LINE
   5
355
 100
AcDbEntity
   8
0
 100
AcDbLine
   6
CONTINUOUS
  62
7
  10
 55.199301259529
  20
 219.83083340179
  30
0.0
  11
 44.199301259529
  21
 219.83083340179
  31
0.0
   0
LINE
   5
356
 100
AcDbEntity
   8
0
 100
AcDbLine
   6
CONTINUOUS
  62
7
  10
 44.199301259529
  20
 213.83083340179
  30
0.0
  11
 44.199301259529
  21
 219.83083340179
  31
0.0
   0
LINE
   5
357
 100
AcDbEntity
   8
0
 100
AcDbLine
   6
CONTINUOUS
  62
7
  10
 55.199301259529
  20
 207.83083340179
  30
0.0
  11
 44.199301259529
  21
 207.83083340179
  31
0.0
   0
ARC
   5
358
 100
AcDbEntity
   8
0
   6
CONTINUOUS
  62
7
 100
AcDbCircle
  10
 55.199301259529
  20
 206.83083340178
  30
0.0
  40
 1.0000000000000
 100
AcDbArc
  50
 0.97706639814559E-10
  51
 90.000000000000
   0
POINT
   5
359
 100
AcDbEntity
   8
0
 100
AcDbPoint
  62
7
  10
 56.199301259529
  20
 207.83083340179
  30
0.0
   0
LINE
   5
35A
 100
AcDbEntity
   8
0
 100
AcDbLine
   6
CONTINUOUS
  62
7
  10
 56.199301259529
  20
 206.83083340179
  30
0.0
  11
 56.199301259529
  21
 206.53160545810
  31
0.0
   0
LINE
   5
35B
 100
AcDbEntity
   8
0
 100
AcDbLine
   6
CONTINUOUS
  62
7
  10
 44.199301259529
  20
 213.83083340179
  30
0.0
  11
 44.199301259529
  21
 207.83083340179
  31
0.0
   0
LINE
   5
35C
 100
AcDbEntity
   8
0
 100
AcDbLine
   6
CONTINUOUS
  62
7
  10
 47.699301259529
  20
 219.83083340179
  30
0.0
  11
 47.699301259529
  21
 207.83083340179
  31
0.0
   0
LINE
   5
35D
 100
AcDbEntity
   8
0
 100
AcDbLine
   6
CONTINUOUS
  62
7
  10
 49.699301259529
  20
 219.83083340179
  30
0.0
  11
 49.699301259529
  21
 207.83083340179
  31
0.0
   0
LINE
   5
35E
 100
AcDbEntity
   8
0
 100
AcDbLine
   6
CONTINUOUS
  62
7
  10
 51.699301259529
  20
 219.83083340179
  30
0.0
  11
 51.699301259529
  21
 207.83083340179
  31
0.0
   0
LINE
   5
35F
 100
AcDbEntity
   8
0
 100
AcDbLine
   6
CONTINUOUS
  62
7
  10
 53.699301259529
  20
 207.83083340179
  30
0.0
  11
 53.699301259529
  21
 219.83083340179
  31
0.0
   0
LINE
   5
360
 100
AcDbEntity
   8
0
 100
AcDbLine
   6
CONTINUOUS
  62
7
  10
 53.699301259529
  20
 205.28105891299
  30
0.0
  11
 51.699301259529
  21
 205.53160545810
  31
0.0
   0
LINE
   5
361
 100
AcDbEntity
   8
0
 100
AcDbLine
   6
CONTINUOUS
  62
2
  10
 56.199301259529
  20
 206.53421704531
  30
0.0
  11
 44.199301259529
  21
 206.53421704531
  31
0.0
   0
LINE
   5
362
 100
AcDbEntity
   8
0
 100
AcDbLine
   6
CONTINUOUS
  62
2
  10
 44.199301259529
  20
 221.12744975827
  30
0.0
  11
 44.199301259529
  21
 222.13006134548
  31
0.0
   0
LINE
   5
363
 100
AcDbEntity
   8
0
 100
AcDbLine
   6
CONTINUOUS
  62
2
  10
 44.199301259529
  20
 205.53160545810
  30
0.0
  11
 44.199301259529
  21
 206.53421704531
  31
0.0
   0
LINE
   5
364
 100
AcDbEntity
   8
0
 100
AcDbLine
   6
CONTINUOUS
  62
2
  10
 48.699301259529
  20
 221.12744975827
  30
0.0
  11
 48.699301259529
  21
 219.83083340179
  31
0.0
   0
LINE
   5
365
 100
AcDbEntity
   8
0
 100
AcDbLine
   6
CONTINUOUS
  62
2
  10
 46.699301259529
  20
 221.12744975827
  30
0.0
  11
 46.699301259529
  21
 219.83083340179
  31
0.0
   0
LINE
   5
366
 100
AcDbEntity
   8
0
 100
AcDbLine
   6
CONTINUOUS
  62
2
  10
 48.699301259529
  20
 206.53421704531
  30
0.0
  11
 48.699301259529
  21
 207.83083340179
  31
0.0
   0
LINE
   5
367
 100
AcDbEntity
   8
0
 100
AcDbLine
   6
CONTINUOUS
  62
2
  10
 46.699301259529
  20
 207.83083340179
  30
0.0
  11
 46.699301259529
  21
 206.53421704531
  31
0.0
   0
LINE
   5
368
 100
AcDbEntity
   8
0
 100
AcDbLine
   6
CONTINUOUS
  62
2
  10
 44.199301259529
  20
 206.53421704531
  30
0.0
  11
 44.199301259529
  21
 207.83083340179
  31
0.0
   0
LINE
   5
369
 100
AcDbEntity
   8
0
 100
AcDbLine
   6
CONTINUOUS
  62
2
  10
 44.199301259529
  20
 221.12744975827
  30
0.0
  11
 44.199301259529
  21
 219.83083340179
  31
0.0
   0
LINE
   5
36A
 100
AcDbEntity
   8
0
 100
AcDbLine
   6
DASHDOT
  62
2
  10
 70.366740653470
  20
 213.83083340179
  30
0.0
  11
 22.027403273741
  21
 213.83083340179
  31
0.0
   0
TEXT
   5
36B
 100
AcDbEntity
   8
0
  62
2
 100
AcDbText
  10
 19.665385553458
  20
 267.88307179644
  30
0.0
  40
 4.0000000000000
   1
ドアとの組立図
   7
STANDARD
 100
AcDbText
   0
TEXT
   5
36C
 100
AcDbEntity
   8
0
  62
2
 100
AcDbText
  10
 19.499174105927
  20
 261.89945968535
  30
0.0
  40
 4.0000000000000
   1
ドア厚さ対応寸法：２８～３６ｍｍ
   7
STANDARD
 100
AcDbText
   0
LWPOLYLINE
   5
36D
 100
AcDbEntity
   8
0
   6
DIVIDE
  62
2
 100
AcDbPolyline
  90
4
  70
1
  10
 19.315981975589
  20
 273.58698027277
  10
 19.315981975589
  20
 98.001383336564
  10
 140.62565915606
  20
 98.001383336564
  10
 140.62565915606
  20
 273.58698027277
   0
LINE
   5
36E
 100
AcDbEntity
   8
0
 100
AcDbLine
   6
DIVIDE
  62
3
  10
 65.699301259529
  20
 150.53110722918
  30
0.0
  11
 29.699301259529
  21
 150.53110722918
  31
0.0
   0
DIMENSION
   5
36F
 100
AcDbEntity
   8
0
   6
CONTINUOUS
  62
2
 100
AcDbDimension
   2
*D4
  10
 29.699301259529
  20
 165.41619134016
  30
0.0
  11
 28.949301259529
  21
 165.41619134016
  31
0.0
  70
0
   3
GMM001
 100
AcDbAlignedDimension
  13
 28.199301259529
  23
 153.73110722918
  33
0.0
  14
 29.699301259529
  24
 161.88293113636
  34
0.0
 100
AcDbRotatedDimension
   0
DIMENSION
   5
370
 100
AcDbEntity
   8
0
   6
CONTINUOUS
  62
2
 100
AcDbDimension
   2
*D5
  10
 65.699301259529
  20
 165.41619134016
  30
0.0
  11
 47.699301259529
  21
 165.41619134016
  31
0.0
  70
0
   3
GMM002
 100
AcDbAlignedDimension
  13
 29.699301259529
  23
 161.88293113636
  33
0.0
  14
 65.699301259529
  24
 161.88293113636
  34
0.0
 100
AcDbRotatedDimension
   0
DIMENSION
   5
371
 100
AcDbEntity
   8
0
   6
CONTINUOUS
  62
2
 100
AcDbDimension
   2
*D6
  10
 67.199301259529
  20
 165.41619134016
  30
0.0
  11
 66.449301259529
  21
 165.41619134016
  31
0.0
  70
0
   3
GMM003
 100
AcDbAlignedDimension
  13
 65.699301259529
  23
 161.88293113636
  33
0.0
  14
 67.199301259529
  24
 153.73110722918
  34
0.0
 100
AcDbRotatedDimension
   0
INSERT
   5
372
 100
AcDbEntity
   8
0
 100
AcDbBlockReference
   2
BLOCK005
  10
0.0
  20
0.0
  30
0.0
   0
INSERT
   5
373
 100
AcDbEntity
   8
0
 100
AcDbBlockReference
   2
BLOCK006
  10
0.0
  20
0.0
  30
0.0
   0
LINE
   5
374
 100
AcDbEntity
   8
0
 100
AcDbLine
   6
DIVIDE
  62
3
  10
 65.699301259529
  20
 120.53110722918
  30
0.0
  11
 65.699301259529
  21
 109.48284202965
  31
0.0
   0
LINE
   5
375
 100
AcDbEntity
   8
0
 100
AcDbLine
   6
DIVIDE
  62
3
  10
 29.699301259529
  20
 120.53110722918
  30
0.0
  11
 29.699301259529
  21
 109.48284202965
  31
0.0
   0
LINE
   5
376
 100
AcDbEntity
   8
0
 100
AcDbLine
   6
DIVIDE
  62
3
  10
 65.699301259529
  20
 120.53110722918
  30
0.0
  11
 29.699301259529
  21
 120.53110722918
  31
0.0
   0
LINE
   5
377
 100
AcDbEntity
   8
0
 100
AcDbLine
   6
DIVIDE
  62
3
  10
 29.699301259529
  20
 161.88293113636
  30
0.0
  11
 29.699301259529
  21
 150.53110722918
  31
0.0
   0
LINE
   5
378
 100
AcDbEntity
   8
0
 100
AcDbLine
   6
DIVIDE
  62
3
  10
 65.699301259529
  20
 161.88293113636
  30
0.0
  11
 65.699301259529
  21
 150.53110722918
  31
0.0
   0
LINE
   5
379
 100
AcDbEntity
   8
0
 100
AcDbLine
   6
CONTINUOUS
  62
3
  10
 28.999301259529
  20
 153.03110722918
  30
0.0
  11
 28.999301259529
  21
 135.53110722918
  31
0.0
   0
LINE
   5
37A
 100
AcDbEntity
   8
0
 100
AcDbLine
   6
CONTINUOUS
  62
7
  10
 29.699301259529
  20
 153.03110722918
  30
0.0
  11
 29.699301259529
  21
 135.53110722918
  31
0.0
   0
LWPOLYLINE
   5
37B
 100
AcDbEntity
   8
0
   6
CONTINUOUS
  62
7
 100
AcDbPolyline
  90
4
  70
0
  10
 28.199301259529
  20
 135.53110722918
  10
 28.199301259529
  20
 152.23110722918
  10
 28.999301259529
  20
 153.03110722918
  10
 29.699301259529
  20
 153.03110722918
   0
LINE
   5
37C
 100
AcDbEntity
   8
0
 100
AcDbLine
   6
CONTINUOUS
  62
3
  10
 28.999301259529
  20
 118.03110722918
  30
0.0
  11
 28.999301259529
  21
 135.53110722918
  31
0.0
   0
LINE
   5
37D
 100
AcDbEntity
   8
0
 100
AcDbLine
   6
CONTINUOUS
  62
7
  10
 29.699301259529
  20
 118.03110722918
  30
0.0
  11
 29.699301259529
  21
 135.53110722918
  31
0.0
   0
LWPOLYLINE
   5
37E
 100
AcDbEntity
   8
0
   6
CONTINUOUS
  62
7
 100
AcDbPolyline
  90
4
  70
0
  10
 28.199301259529
  20
 135.53110722918
  10
 28.199301259529
  20
 118.83110722918
  10
 28.999301259529
  20
 118.03110722918
  10
 29.699301259529
  20
 118.03110722918
   0
ARC
   5
37F
 100
AcDbEntity
   8
0
   6
CONTINUOUS
  62
7
 100
AcDbCircle
  10
 42.699301259528
  20
 121.13110722918
  30
0.0
  40
 0.50000000000000
 100
AcDbArc
  50
 270.00000000014
  51
0.0
   0
LINE
   5
380
 100
AcDbEntity
   8
0
 100
AcDbLine
   6
CONTINUOUS
  62
7
  10
 42.699301259529
  20
 120.63110722918
  30
0.0
  11
 29.699301259529
  21
 120.63110722918
  31
0.0
   0
LINE
   5
381
 100
AcDbEntity
   8
0
 100
AcDbLine
   6
CONTINUOUS
  62
7
  10
 42.699301259529
  20
 150.43110722918
  30
0.0
  11
 29.699301259529
  21
 150.43110722918
  31
0.0
   0
LINE
   5
382
 100
AcDbEntity
   8
0
 100
AcDbLine
   6
CONTINUOUS
  62
7
  10
 39.699301259529
  20
 151.13110722918
  30
0.0
  11
 39.699301259529
  21
 150.43110722918
  31
0.0
   0
LINE
   5
383
 100
AcDbEntity
   8
0
 100
AcDbLine
   6
CONTINUOUS
  62
7
  10
 39.699301259529
  20
 150.43110722918
  30
0.0
  11
 37.699301259529
  21
 151.13110722918
  31
0.0
   0
LINE
   5
384
 100
AcDbEntity
   8
0
 100
AcDbLine
   6
CONTINUOUS
  62
7
  10
 37.699301259529
  20
 151.13110722918
  30
0.0
  11
 37.699301259529
  21
 150.43110722918
  31
0.0
   0
LINE
   5
385
 100
AcDbEntity
   8
0
 100
AcDbLine
   6
CONTINUOUS
  62
7
  10
 37.699301259529
  20
 150.43110722918
  30
0.0
  11
 35.699301259529
  21
 150.93110722918
  31
0.0
   0
LINE
   5
386
 100
AcDbEntity
   8
0
 100
AcDbLine
   6
CONTINUOUS
  62
7
  10
 35.699301259529
  20
 150.93110722918
  30
0.0
  11
 35.699301259529
  21
 150.43110722918
  31
0.0
   0
LINE
   5
387
 100
AcDbEntity
   8
0
 100
AcDbLine
   6
CONTINUOUS
  62
7
  10
 35.699301259529
  20
 150.43110722918
  30
0.0
  11
 33.699301259529
  21
 150.93110722918
  31
0.0
   0
LINE
   5
388
 100
AcDbEntity
   8
0
 100
AcDbLine
   6
CONTINUOUS
  62
7
  10
 33.699301259529
  20
 150.93110722918
  30
0.0
  11
 33.699301259529
  21
 150.43110722918
  31
0.0
   0
LINE
   5
389
 100
AcDbEntity
   8
0
 100
AcDbLine
   6
CONTINUOUS
  62
7
  10
 42.149301259529
  20
 150.43110722918
  30
0.0
  11
 39.699301259529
  21
 151.13110722918
  31
0.0
   0
LINE
   5
38A
 100
AcDbEntity
   8
0
 100
AcDbLine
   6
CONTINUOUS
  62
7
  10
 39.699301259529
  20
 119.93110722918
  30
0.0
  11
 39.699301259529
  21
 120.63110722918
  31
0.0
   0
LINE
   5
38B
 100
AcDbEntity
   8
0
 100
AcDbLine
   6
CONTINUOUS
  62
7
  10
 39.699301259529
  20
 120.63110722918
  30
0.0
  11
 37.699301259529
  21
 119.93110722918
  31
0.0
   0
LINE
   5
38C
 100
AcDbEntity
   8
0
 100
AcDbLine
   6
CONTINUOUS
  62
7
  10
 37.699301259529
  20
 119.93110722918
  30
0.0
  11
 37.699301259529
  21
 120.63110722918
  31
0.0
   0
LINE
   5
38D
 100
AcDbEntity
   8
0
 100
AcDbLine
   6
CONTINUOUS
  62
7
  10
 37.699301259529
  20
 120.63110722918
  30
0.0
  11
 35.699301259529
  21
 120.13110722918
  31
0.0
   0
LINE
   5
38E
 100
AcDbEntity
   8
0
 100
AcDbLine
   6
CONTINUOUS
  62
7
  10
 35.699301259529
  20
 120.13110722918
  30
0.0
  11
 35.699301259529
  21
 120.63110722918
  31
0.0
   0
LINE
   5
38F
 100
AcDbEntity
   8
0
 100
AcDbLine
   6
CONTINUOUS
  62
7
  10
 35.699301259529
  20
 120.63110722918
  30
0.0
  11
 33.699301259529
  21
 120.13110722918
  31
0.0
   0
LINE
   5
390
 100
AcDbEntity
   8
0
 100
AcDbLine
   6
CONTINUOUS
  62
7
  10
 33.699301259529
  20
 120.13110722918
  30
0.0
  11
 33.699301259529
  21
 120.63110722918
  31
0.0
   0
LINE
   5
391
 100
AcDbEntity
   8
0
 100
AcDbLine
   6
CONTINUOUS
  62
7
  10
 42.149301259529
  20
 120.63110722918
  30
0.0
  11
 39.699301259529
  21
 119.93110722918
  31
0.0
   0
LINE
   5
392
 100
AcDbEntity
   8
0
 100
AcDbLine
   6
DOT
  62
2
  10
 42.149301259529
  20
 120.63110722918
  30
0.0
  11
 42.836661823477
  21
 120.82749596173
  31
0.0
   0
LINE
   5
393
 100
AcDbEntity
   8
0
 100
AcDbLine
   6
CONTINUOUS
  62
7
  10
 31.199301259529
  20
 150.39751230908
  30
0.0
  11
 31.199301259529
  21
 150.43110722918
  31
0.0
   0
LINE
   5
394
 100
AcDbEntity
   8
0
 100
AcDbLine
   6
CONTINUOUS
  62
7
  10
 31.199301259529
  20
 120.66470214927
  30
0.0
  11
 31.199301259529
  21
 120.63110722918
  31
0.0
   0
LINE
   5
395
 100
AcDbEntity
   8
0
 100
AcDbLine
   6
CONTINUOUS
  62
7
  10
 33.699301259529
  20
 143.83033517287
  30
0.0
  11
 33.699301259529
  21
 150.39751230908
  31
0.0
   0
LINE
   5
396
 100
AcDbEntity
   8
0
 100
AcDbLine
   6
CONTINUOUS
  62
7
  10
 35.699301259529
  20
 143.83033517287
  30
0.0
  11
 35.699301259529
  21
 150.39751230908
  31
0.0
   0
LINE
   5
397
 100
AcDbEntity
   8
0
 100
AcDbLine
   6
CONTINUOUS
  62
7
  10
 33.699301259529
  20
 127.23187928549
  30
0.0
  11
 33.699301259529
  21
 120.66470214927
  31
0.0
   0
LINE
   5
398
 100
AcDbEntity
   8
0
 100
AcDbLine
   6
CONTINUOUS
  62
7
  10
 35.699301259529
  20
 127.23187928549
  30
0.0
  11
 35.699301259529
  21
 120.66470214927
  31
0.0
   0
LINE
   5
399
 100
AcDbEntity
   8
0
 100
AcDbLine
   6
CONTINUOUS
  62
7
  10
 31.199301259529
  20
 150.39751230908
  30
0.0
  11
 42.879485336068
  21
 150.39751230908
  31
0.0
   0
LINE
   5
39A
 100
AcDbEntity
   8
0
 100
AcDbLine
   6
CONTINUOUS
  62
7
  10
 31.199301259529
  20
 120.66470214927
  30
0.0
  11
 42.879485336072
  21
 120.66470214927
  31
0.0
   0
ARC
   5
39B
 100
AcDbEntity
   8
0
   6
CONTINUOUS
  62
7
 100
AcDbCircle
  10
 32.199301259530
  20
 142.83033517287
  30
0.0
  40
 1.0000000000000
 100
AcDbArc
  50
 90.000000000061
  51
 180.00000000000
   0
POINT
   5
39C
 100
AcDbEntity
   8
0
 100
AcDbPoint
  62
7
  10
 31.199301259529
  20
 143.83033517287
  30
0.0
   0
LINE
   5
39D
 100
AcDbEntity
   8
0
 100
AcDbLine
   6
CONTINUOUS
  62
7
  10
 32.199301259529
  20
 143.83033517287
  30
0.0
  11
 43.199301259529
  21
 143.83033517287
  31
0.0
   0
ARC
   5
39E
 100
AcDbEntity
   8
0
   6
CONTINUOUS
  62
7
 100
AcDbCircle
  10
 32.199301259528
  20
 128.23187928549
  30
0.0
  40
 1.0000000000000
 100
AcDbArc
  50
 180.00000000000
  51
 270.00000000005
   0
POINT
   5
39F
 100
AcDbEntity
   8
0
 100
AcDbPoint
  62
7
  10
 31.199301259529
  20
 127.23187928549
  30
0.0
   0
LINE
   5
3A0
 100
AcDbEntity
   8
0
 100
AcDbLine
   6
CONTINUOUS
  62
7
  10
 32.199301259529
  20
 127.23187928549
  30
0.0
  11
 43.199301259529
  21
 127.23187928549
  31
0.0
   0
LINE
   5
3A1
 100
AcDbEntity
   8
0
 100
AcDbLine
   6
DOT
  62
2
  10
 42.149301259529
  20
 150.43110722918
  30
0.0
  11
 43.151329656820
  21
 150.14481340138
  31
0.0
   0
ARC
   5
3A2
 100
AcDbEntity
   8
0
   6
CONTINUOUS
  62
7
 100
AcDbCircle
  10
 42.699301259529
  20
 149.93110722918
  30
0.0
  40
 0.50000000000000
 100
AcDbArc
  50
0.0
  51
 90.000000000031
   0
LINE
   5
3A3
 100
AcDbEntity
   8
0
 100
AcDbLine
   6
DOT
  62
2
  10
 42.149301259529
  20
 120.63110722918
  30
0.0
  11
 43.151329656820
  21
 120.91740105697
  31
0.0
   0
LINE
   5
3A4
 100
AcDbEntity
   8
0
 100
AcDbLine
   6
CONTINUOUS
  62
7
  10
 33.699301259529
  20
 144.08088171797
  30
0.0
  11
 35.699301259529
  21
 143.83033517287
  31
0.0
   0
LINE
   5
3A5
 100
AcDbEntity
   8
0
 100
AcDbLine
   6
CONTINUOUS
  62
2
  10
 31.199301259529
  20
 142.82772358566
  30
0.0
  11
 43.199301259529
  21
 142.82772358566
  31
0.0
   0
LINE
   5
3A6
 100
AcDbEntity
   8
0
 100
AcDbLine
   6
CONTINUOUS
  62
7
  10
 31.199301259529
  20
 142.83033517287
  30
0.0
  11
 31.199301259529
  21
 142.53110722918
  31
0.0
   0
ARC
   5
3A7
 100
AcDbEntity
   8
0
   6
CONTINUOUS
  62
7
 100
AcDbCircle
  10
 32.199301259529
  20
 142.53110722918
  30
0.0
  40
 1.0000000000000
 100
AcDbArc
  50
 180.00000000000
  51
 270.00000000001
   0
POINT
   5
3A8
 100
AcDbEntity
   8
0
 100
AcDbPoint
  62
7
  10
 31.199301259529
  20
 141.53110722918
  30
0.0
   0
LINE
   5
3A9
 100
AcDbEntity
   8
0
 100
AcDbLine
   6
CONTINUOUS
  62
7
  10
 32.199301259529
  20
 141.53110722918
  30
0.0
  11
 43.199301259529
  21
 141.53110722918
  31
0.0
   0
LINE
   5
3AA
 100
AcDbEntity
   8
0
 100
AcDbLine
   6
CONTINUOUS
  62
7
  10
 32.199301259529
  20
 129.53110722918
  30
0.0
  11
 43.199301259529
  21
 129.53110722918
  31
0.0
   0
ARC
   5
3AB
 100
AcDbEntity
   8
0
   6
CONTINUOUS
  62
7
 100
AcDbCircle
  10
 32.199301259529
  20
 128.53110722918
  30
0.0
  40
 1.0000000000000
 100
AcDbArc
  50
 90.000000000000
  51
 179.99999999999
   0
POINT
   5
3AC
 100
AcDbEntity
   8
0
 100
AcDbPoint
  62
7
  10
 31.199301259529
  20
 129.53110722918
  30
0.0
   0
LINE
   5
3AD
 100
AcDbEntity
   8
0
 100
AcDbLine
   6
CONTINUOUS
  62
7
  10
 31.199301259529
  20
 128.53110722918
  30
0.0
  11
 31.199301259529
  21
 128.23187928549
  31
0.0
   0
LINE
   5
3AE
 100
AcDbEntity
   8
0
 100
AcDbLine
   6
CONTINUOUS
  62
7
  10
 39.699301259529
  20
 141.53110722918
  30
0.0
  11
 39.699301259529
  21
 129.53110722918
  31
0.0
   0
LINE
   5
3AF
 100
AcDbEntity
   8
0
 100
AcDbLine
   6
CONTINUOUS
  62
7
  10
 37.699301259529
  20
 141.53110722918
  30
0.0
  11
 37.699301259529
  21
 129.53110722918
  31
0.0
   0
LINE
   5
3B0
 100
AcDbEntity
   8
0
 100
AcDbLine
   6
CONTINUOUS
  62
7
  10
 35.699301259529
  20
 141.53110722918
  30
0.0
  11
 35.699301259529
  21
 129.53110722918
  31
0.0
   0
LINE
   5
3B1
 100
AcDbEntity
   8
0
 100
AcDbLine
   6
CONTINUOUS
  62
7
  10
 33.699301259529
  20
 129.53110722918
  30
0.0
  11
 33.699301259529
  21
 141.53110722918
  31
0.0
   0
LINE
   5
3B2
 100
AcDbEntity
   8
0
 100
AcDbLine
   6
CONTINUOUS
  62
7
  10
 33.699301259529
  20
 126.98133274038
  30
0.0
  11
 35.699301259529
  21
 127.23187928549
  31
0.0
   0
LINE
   5
3B3
 100
AcDbEntity
   8
0
 100
AcDbLine
   6
CONTINUOUS
  62
2
  10
 31.199301259529
  20
 128.23449087270
  30
0.0
  11
 43.199301259529
  21
 128.23449087270
  31
0.0
   0
LINE
   5
3B4
 100
AcDbEntity
   8
0
 100
AcDbLine
   6
CONTINUOUS
  62
2
  10
 38.699301259529
  20
 142.82772358566
  30
0.0
  11
 38.699301259529
  21
 141.53110722918
  31
0.0
   0
LINE
   5
3B5
 100
AcDbEntity
   8
0
 100
AcDbLine
   6
CONTINUOUS
  62
2
  10
 40.699301259529
  20
 142.82772358566
  30
0.0
  11
 40.699301259529
  21
 141.53110722918
  31
0.0
   0
LINE
   5
3B6
 100
AcDbEntity
   8
0
 100
AcDbLine
   6
CONTINUOUS
  62
2
  10
 38.699301259529
  20
 128.23449087270
  30
0.0
  11
 38.699301259529
  21
 129.53110722918
  31
0.0
   0
LINE
   5
3B7
 100
AcDbEntity
   8
0
 100
AcDbLine
   6
CONTINUOUS
  62
2
  10
 40.699301259529
  20
 129.53110722918
  30
0.0
  11
 40.699301259529
  21
 128.23449087270
  31
0.0
   0
LINE
   5
3B8
 100
AcDbEntity
   8
0
 100
AcDbLine
   6
CONTINUOUS
  62
7
  10
 43.151329656820
  20
 150.14481340138
  30
0.0
  11
 43.199301259529
  21
 150.13110722918
  31
0.0
   0
LINE
   5
3B9
 100
AcDbEntity
   8
0
 100
AcDbLine
   6
CONTINUOUS
  62
7
  10
 43.151329656820
  20
 120.91740105697
  30
0.0
  11
 43.199301259529
  21
 120.93110722918
  31
0.0
   0
LINE
   5
3BA
 100
AcDbEntity
   8
0
 100
AcDbLine
   6
CONTINUOUS
  62
7
  10
 43.199301259529
  20
 135.53110722918
  30
0.0
  11
 43.199301259529
  21
 141.53110722918
  31
0.0
   0
LINE
   5
3BB
 100
AcDbEntity
   8
0
 100
AcDbLine
   6
CONTINUOUS
  62
7
  10
 43.199301259529
  20
 135.53110722918
  30
0.0
  11
 43.199301259529
  21
 129.53110722918
  31
0.0
   0
LINE
   5
3BC
 100
AcDbEntity
   8
0
 100
AcDbLine
   6
CONTINUOUS
  62
7
  10
 43.199301259529
  20
 143.83033517287
  30
0.0
  11
 43.199301259529
  21
 150.13110722918
  31
0.0
   0
LINE
   5
3BD
 100
AcDbEntity
   8
0
 100
AcDbLine
   6
CONTINUOUS
  62
7
  10
 43.199301259529
  20
 127.23187928549
  30
0.0
  11
 43.199301259529
  21
 120.93110722918
  31
0.0
   0
LINE
   5
3BE
 100
AcDbEntity
   8
0
 100
AcDbLine
   6
CONTINUOUS
  62
2
  10
 43.199301259529
  20
 142.82772358566
  30
0.0
  11
 43.199301259529
  21
 143.83033517287
  31
0.0
   0
LINE
   5
3BF
 100
AcDbEntity
   8
0
 100
AcDbLine
   6
CONTINUOUS
  62
2
  10
 43.199301259529
  20
 127.23187928549
  30
0.0
  11
 43.199301259529
  21
 128.23449087270
  31
0.0
   0
LINE
   5
3C0
 100
AcDbEntity
   8
0
 100
AcDbLine
   6
CONTINUOUS
  62
2
  10
 43.199301259529
  20
 128.23449087270
  30
0.0
  11
 43.199301259529
  21
 129.53110722918
  31
0.0
   0
LINE
   5
3C1
 100
AcDbEntity
   8
0
 100
AcDbLine
   6
CONTINUOUS
  62
2
  10
 43.199301259529
  20
 142.82772358566
  30
0.0
  11
 43.199301259529
  21
 141.53110722918
  31
0.0
   0
LINE
   5
3C2
 100
AcDbEntity
   8
0
 100
AcDbLine
   6
CONTINUOUS
  62
3
  10
 66.399301259529
  20
 153.03110722918
  30
0.0
  11
 66.399301259529
  21
 135.53110722918
  31
0.0
   0
LINE
   5
3C3
 100
AcDbEntity
   8
0
 100
AcDbLine
   6
CONTINUOUS
  62
7
  10
 65.699301259529
  20
 153.03110722918
  30
0.0
  11
 65.699301259529
  21
 135.53110722918
  31
0.0
   0
LWPOLYLINE
   5
3C4
 100
AcDbEntity
   8
0
   6
CONTINUOUS
  62
7
 100
AcDbPolyline
  90
4
  70
0
  10
 67.199301259529
  20
 135.53110722918
  10
 67.199301259529
  20
 152.23110722918
  10
 66.399301259529
  20
 153.03110722918
  10
 65.699301259529
  20
 153.03110722918
   0
LINE
   5
3C5
 100
AcDbEntity
   8
0
 100
AcDbLine
   6
CONTINUOUS
  62
3
  10
 66.399301259529
  20
 118.03110722918
  30
0.0
  11
 66.399301259529
  21
 135.53110722918
  31
0.0
   0
LINE
   5
3C6
 100
AcDbEntity
   8
0
 100
AcDbLine
   6
CONTINUOUS
  62
7
  10
 65.699301259529
  20
 118.03110722918
  30
0.0
  11
 65.699301259529
  21
 135.53110722918
  31
0.0
   0
LWPOLYLINE
   5
3C7
 100
AcDbEntity
   8
0
   6
CONTINUOUS
  62
7
 100
AcDbPolyline
  90
4
  70
0
  10
 67.199301259529
  20
 135.53110722918
  10
 67.199301259529
  20
 118.83110722918
  10
 66.399301259529
  20
 118.03110722918
  10
 65.699301259529
  20
 118.03110722918
   0
ARC
   5
3C8
 100
AcDbEntity
   8
0
   6
CONTINUOUS
  62
7
 100
AcDbCircle
  10
 52.699301259531
  20
 121.13110722918
  30
0.0
  40
 0.50000000000000
 100
AcDbArc
  50
 180.00000000000
  51
 269.99999999972
   0
LINE
   5
3C9
 100
AcDbEntity
   8
0
 100
AcDbLine
   6
CONTINUOUS
  62
7
  10
 52.699301259529
  20
 120.63110722918
  30
0.0
  11
 65.699301259529
  21
 120.63110722918
  31
0.0
   0
LINE
   5
3CA
 100
AcDbEntity
   8
0
 100
AcDbLine
   6
CONTINUOUS
  62
7
  10
 52.699301259529
  20
 150.43110722918
  30
0.0
  11
 65.699301259529
  21
 150.43110722918
  31
0.0
   0
LINE
   5
3CB
 100
AcDbEntity
   8
0
 100
AcDbLine
   6
CONTINUOUS
  62
7
  10
 55.699301259529
  20
 151.13110722918
  30
0.0
  11
 55.699301259529
  21
 150.43110722918
  31
0.0
   0
LINE
   5
3CC
 100
AcDbEntity
   8
0
 100
AcDbLine
   6
CONTINUOUS
  62
7
  10
 55.699301259529
  20
 150.43110722918
  30
0.0
  11
 57.699301259529
  21
 151.13110722918
  31
0.0
   0
LINE
   5
3CD
 100
AcDbEntity
   8
0
 100
AcDbLine
   6
CONTINUOUS
  62
7
  10
 57.699301259529
  20
 151.13110722918
  30
0.0
  11
 57.699301259529
  21
 150.43110722918
  31
0.0
   0
LINE
   5
3CE
 100
AcDbEntity
   8
0
 100
AcDbLine
   6
CONTINUOUS
  62
7
  10
 57.699301259529
  20
 150.43110722918
  30
0.0
  11
 59.699301259529
  21
 150.93110722918
  31
0.0
   0
LINE
   5
3CF
 100
AcDbEntity
   8
0
 100
AcDbLine
   6
CONTINUOUS
  62
7
  10
 59.699301259529
  20
 150.93110722918
  30
0.0
  11
 59.699301259529
  21
 150.43110722918
  31
0.0
   0
LINE
   5
3D0
 100
AcDbEntity
   8
0
 100
AcDbLine
   6
CONTINUOUS
  62
7
  10
 59.699301259529
  20
 150.43110722918
  30
0.0
  11
 61.699301259529
  21
 150.93110722918
  31
0.0
   0
LINE
   5
3D1
 100
AcDbEntity
   8
0
 100
AcDbLine
   6
CONTINUOUS
  62
7
  10
 61.699301259529
  20
 150.93110722918
  30
0.0
  11
 61.699301259529
  21
 150.43110722918
  31
0.0
   0
LINE
   5
3D2
 100
AcDbEntity
   8
0
 100
AcDbLine
   6
CONTINUOUS
  62
7
  10
 53.249301259529
  20
 150.43110722918
  30
0.0
  11
 55.699301259529
  21
 151.13110722918
  31
0.0
   0
LINE
   5
3D3
 100
AcDbEntity
   8
0
 100
AcDbLine
   6
CONTINUOUS
  62
7
  10
 55.699301259529
  20
 119.93110722918
  30
0.0
  11
 55.699301259529
  21
 120.63110722918
  31
0.0
   0
LINE
   5
3D4
 100
AcDbEntity
   8
0
 100
AcDbLine
   6
CONTINUOUS
  62
7
  10
 55.699301259529
  20
 120.63110722918
  30
0.0
  11
 57.699301259529
  21
 119.93110722918
  31
0.0
   0
LINE
   5
3D5
 100
AcDbEntity
   8
0
 100
AcDbLine
   6
CONTINUOUS
  62
7
  10
 57.699301259529
  20
 119.93110722918
  30
0.0
  11
 57.699301259529
  21
 120.63110722918
  31
0.0
   0
LINE
   5
3D6
 100
AcDbEntity
   8
0
 100
AcDbLine
   6
CONTINUOUS
  62
7
  10
 57.699301259529
  20
 120.63110722918
  30
0.0
  11
 59.699301259529
  21
 120.13110722918
  31
0.0
   0
LINE
   5
3D7
 100
AcDbEntity
   8
0
 100
AcDbLine
   6
CONTINUOUS
  62
7
  10
 59.699301259529
  20
 120.13110722918
  30
0.0
  11
 59.699301259529
  21
 120.63110722918
  31
0.0
   0
LINE
   5
3D8
 100
AcDbEntity
   8
0
 100
AcDbLine
   6
CONTINUOUS
  62
7
  10
 59.699301259529
  20
 120.63110722918
  30
0.0
  11
 61.699301259529
  21
 120.13110722918
  31
0.0
   0
LINE
   5
3D9
 100
AcDbEntity
   8
0
 100
AcDbLine
   6
CONTINUOUS
  62
7
  10
 61.699301259529
  20
 120.13110722918
  30
0.0
  11
 61.699301259529
  21
 120.63110722918
  31
0.0
   0
LINE
   5
3DA
 100
AcDbEntity
   8
0
 100
AcDbLine
   6
CONTINUOUS
  62
7
  10
 53.249301259529
  20
 120.63110722918
  30
0.0
  11
 55.699301259529
  21
 119.93110722918
  31
0.0
   0
LINE
   5
3DB
 100
AcDbEntity
   8
0
 100
AcDbLine
   6
DOT
  62
2
  10
 53.249301259529
  20
 120.63110722918
  30
0.0
  11
 52.561940695580
  21
 120.82749596173
  31
0.0
   0
LINE
   5
3DC
 100
AcDbEntity
   8
0
 100
AcDbLine
   6
CONTINUOUS
  62
7
  10
 64.199301259529
  20
 150.39751230908
  30
0.0
  11
 64.199301259529
  21
 150.43110722918
  31
0.0
   0
LINE
   5
3DD
 100
AcDbEntity
   8
0
 100
AcDbLine
   6
CONTINUOUS
  62
7
  10
 64.199301259529
  20
 120.66470214927
  30
0.0
  11
 64.199301259529
  21
 120.63110722918
  31
0.0
   0
LINE
   5
3DE
 100
AcDbEntity
   8
0
 100
AcDbLine
   6
CONTINUOUS
  62
7
  10
 61.699301259529
  20
 143.83033517287
  30
0.0
  11
 61.699301259529
  21
 150.39751230908
  31
0.0
   0
LINE
   5
3DF
 100
AcDbEntity
   8
0
 100
AcDbLine
   6
CONTINUOUS
  62
7
  10
 59.699301259529
  20
 143.83033517287
  30
0.0
  11
 59.699301259529
  21
 150.39751230908
  31
0.0
   0
LINE
   5
3E0
 100
AcDbEntity
   8
0
 100
AcDbLine
   6
CONTINUOUS
  62
7
  10
 61.699301259529
  20
 127.23187928549
  30
0.0
  11
 61.699301259529
  21
 120.66470214927
  31
0.0
   0
LINE
   5
3E1
 100
AcDbEntity
   8
0
 100
AcDbLine
   6
CONTINUOUS
  62
7
  10
 59.699301259529
  20
 127.23187928549
  30
0.0
  11
 59.699301259529
  21
 120.66470214927
  31
0.0
   0
LINE
   5
3E2
 100
AcDbEntity
   8
0
 100
AcDbLine
   6
CONTINUOUS
  62
7
  10
 64.199301259529
  20
 150.39751230908
  30
0.0
  11
 52.519117182989
  21
 150.39751230908
  31
0.0
   0
LINE
   5
3E3
 100
AcDbEntity
   8
0
 100
AcDbLine
   6
CONTINUOUS
  62
7
  10
 64.199301259529
  20
 120.66470214927
  30
0.0
  11
 52.519117182985
  21
 120.66470214927
  31
0.0
   0
ARC
   5
3E4
 100
AcDbEntity
   8
0
   6
CONTINUOUS
  62
7
 100
AcDbCircle
  10
 63.199301259527
  20
 142.83033517287
  30
0.0
  40
 1.0000000000000
 100
AcDbArc
  50
0.0
  51
 89.999999999916
   0
POINT
   5
3E5
 100
AcDbEntity
   8
0
 100
AcDbPoint
  62
7
  10
 64.199301259529
  20
 143.83033517287
  30
0.0
   0
LINE
   5
3E6
 100
AcDbEntity
   8
0
 100
AcDbLine
   6
CONTINUOUS
  62
7
  10
 63.199301259529
  20
 143.83033517287
  30
0.0
  11
 52.199301259529
  21
 143.83033517287
  31
0.0
   0
ARC
   5
3E7
 100
AcDbEntity
   8
0
   6
CONTINUOUS
  62
7
 100
AcDbCircle
  10
 63.199301259529
  20
 128.23187928549
  30
0.0
  40
 1.0000000000000
 100
AcDbArc
  50
 269.99999999997
  51
0.0
   0
POINT
   5
3E8
 100
AcDbEntity
   8
0
 100
AcDbPoint
  62
7
  10
 64.199301259529
  20
 127.23187928549
  30
0.0
   0
LINE
   5
3E9
 100
AcDbEntity
   8
0
 100
AcDbLine
   6
CONTINUOUS
  62
7
  10
 63.199301259529
  20
 127.23187928549
  30
0.0
  11
 52.199301259529
  21
 127.23187928549
  31
0.0
   0
LINE
   5
3EA
 100
AcDbEntity
   8
0
 100
AcDbLine
   6
DOT
  62
2
  10
 53.249301259529
  20
 150.43110722918
  30
0.0
  11
 52.247272862237
  21
 150.14481340138
  31
0.0
   0
ARC
   5
3EB
 100
AcDbEntity
   8
0
   6
CONTINUOUS
  62
7
 100
AcDbCircle
  10
 52.699301259528
  20
 149.93110722918
  30
0.0
  40
 0.50000000000000
 100
AcDbArc
  50
 89.999999999910
  51
 180.00000000001
   0
LINE
   5
3EC
 100
AcDbEntity
   8
0
 100
AcDbLine
   6
CONTINUOUS
  62
7
  10
 52.247272862237
  20
 150.14481340138
  30
0.0
  11
 52.199301259529
  21
 150.13110722918
  31
0.0
   0
LINE
   5
3ED
 100
AcDbEntity
   8
0
 100
AcDbLine
   6
DOT
  62
2
  10
 53.249301259529
  20
 120.63110722918
  30
0.0
  11
 52.247272862237
  21
 120.91740105697
  31
0.0
   0
LINE
   5
3EE
 100
AcDbEntity
   8
0
 100
AcDbLine
   6
CONTINUOUS
  62
7
  10
 52.247272862237
  20
 120.91740105697
  30
0.0
  11
 52.199301259529
  21
 120.93110722918
  31
0.0
   0
LINE
   5
3EF
 100
AcDbEntity
   8
0
 100
AcDbLine
   6
CONTINUOUS
  62
7
  10
 61.699301259529
  20
 144.08088171797
  30
0.0
  11
 59.699301259529
  21
 143.83033517287
  31
0.0
   0
LINE
   5
3F0
 100
AcDbEntity
   8
0
 100
AcDbLine
   6
CONTINUOUS
  62
2
  10
 64.199301259529
  20
 142.82772358566
  30
0.0
  11
 52.199301259529
  21
 142.82772358566
  31
0.0
   0
LINE
   5
3F1
 100
AcDbEntity
   8
0
 100
AcDbLine
   6
CONTINUOUS
  62
7
  10
 64.199301259529
  20
 142.83033517287
  30
0.0
  11
 64.199301259529
  21
 142.53110722918
  31
0.0
   0
ARC
   5
3F2
 100
AcDbEntity
   8
0
   6
CONTINUOUS
  62
7
 100
AcDbCircle
  10
 63.199301259528
  20
 142.53110722918
  30
0.0
  40
 1.0000000000000
 100
AcDbArc
  50
 270.00000000002
  51
0.0
   0
POINT
   5
3F3
 100
AcDbEntity
   8
0
 100
AcDbPoint
  62
7
  10
 64.199301259529
  20
 141.53110722918
  30
0.0
   0
LINE
   5
3F4
 100
AcDbEntity
   8
0
 100
AcDbLine
   6
CONTINUOUS
  62
7
  10
 63.199301259529
  20
 141.53110722918
  30
0.0
  11
 52.199301259529
  21
 141.53110722918
  31
0.0
   0
LINE
   5
3F5
 100
AcDbEntity
   8
0
 100
AcDbLine
   6
CONTINUOUS
  62
7
  10
 52.199301259529
  20
 135.53110722918
  30
0.0
  11
 52.199301259529
  21
 141.53110722918
  31
0.0
   0
LINE
   5
3F6
 100
AcDbEntity
   8
0
 100
AcDbLine
   6
CONTINUOUS
  62
7
  10
 63.199301259529
  20
 129.53110722918
  30
0.0
  11
 52.199301259529
  21
 129.53110722918
  31
0.0
   0
ARC
   5
3F7
 100
AcDbEntity
   8
0
   6
CONTINUOUS
  62
7
 100
AcDbCircle
  10
 63.199301259529
  20
 128.53110722918
  30
0.0
  40
 1.0000000000000
 100
AcDbArc
  50
0.0
  51
 90.000000000000
   0
POINT
   5
3F8
 100
AcDbEntity
   8
0
 100
AcDbPoint
  62
7
  10
 64.199301259529
  20
 129.53110722918
  30
0.0
   0
LINE
   5
3F9
 100
AcDbEntity
   8
0
 100
AcDbLine
   6
CONTINUOUS
  62
7
  10
 64.199301259529
  20
 128.53110722918
  30
0.0
  11
 64.199301259529
  21
 128.23187928549
  31
0.0
   0
LINE
   5
3FA
 100
AcDbEntity
   8
0
 100
AcDbLine
   6
CONTINUOUS
  62
7
  10
 52.199301259529
  20
 135.53110722918
  30
0.0
  11
 52.199301259529
  21
 129.53110722918
  31
0.0
   0
LINE
   5
3FB
 100
AcDbEntity
   8
0
 100
AcDbLine
   6
CONTINUOUS
  62
7
  10
 55.699301259529
  20
 141.53110722918
  30
0.0
  11
 55.699301259529
  21
 129.53110722918
  31
0.0
   0
LINE
   5
3FC
 100
AcDbEntity
   8
0
 100
AcDbLine
   6
CONTINUOUS
  62
7
  10
 57.699301259529
  20
 141.53110722918
  30
0.0
  11
 57.699301259529
  21
 129.53110722918
  31
0.0
   0
LINE
   5
3FD
 100
AcDbEntity
   8
0
 100
AcDbLine
   6
CONTINUOUS
  62
7
  10
 59.699301259529
  20
 141.53110722918
  30
0.0
  11
 59.699301259529
  21
 129.53110722918
  31
0.0
   0
LINE
   5
3FE
 100
AcDbEntity
   8
0
 100
AcDbLine
   6
CONTINUOUS
  62
7
  10
 61.699301259529
  20
 129.53110722918
  30
0.0
  11
 61.699301259529
  21
 141.53110722918
  31
0.0
   0
LINE
   5
3FF
 100
AcDbEntity
   8
0
 100
AcDbLine
   6
CONTINUOUS
  62
7
  10
 61.699301259529
  20
 126.98133274038
  30
0.0
  11
 59.699301259529
  21
 127.23187928549
  31
0.0
   0
LINE
   5
400
 100
AcDbEntity
   8
0
 100
AcDbLine
   6
CONTINUOUS
  62
2
  10
 64.199301259529
  20
 128.23449087270
  30
0.0
  11
 52.199301259529
  21
 128.23449087270
  31
0.0
   0
LINE
   5
401
 100
AcDbEntity
   8
0
 100
AcDbLine
   6
CONTINUOUS
  62
7
  10
 52.199301259529
  20
 143.83033517287
  30
0.0
  11
 52.199301259529
  21
 150.13110722918
  31
0.0
   0
LINE
   5
402
 100
AcDbEntity
   8
0
 100
AcDbLine
   6
CONTINUOUS
  62
7
  10
 52.199301259529
  20
 127.23187928549
  30
0.0
  11
 52.199301259529
  21
 120.93110722918
  31
0.0
   0
LINE
   5
403
 100
AcDbEntity
   8
0
 100
AcDbLine
   6
CONTINUOUS
  62
2
  10
 52.199301259529
  20
 142.82772358566
  30
0.0
  11
 52.199301259529
  21
 143.83033517287
  31
0.0
   0
LINE
   5
404
 100
AcDbEntity
   8
0
 100
AcDbLine
   6
CONTINUOUS
  62
2
  10
 52.199301259529
  20
 127.23187928549
  30
0.0
  11
 52.199301259529
  21
 128.23449087270
  31
0.0
   0
LINE
   5
405
 100
AcDbEntity
   8
0
 100
AcDbLine
   6
CONTINUOUS
  62
2
  10
 56.699301259529
  20
 142.82772358566
  30
0.0
  11
 56.699301259529
  21
 141.53110722918
  31
0.0
   0
LINE
   5
406
 100
AcDbEntity
   8
0
 100
AcDbLine
   6
CONTINUOUS
  62
2
  10
 54.699301259529
  20
 142.82772358566
  30
0.0
  11
 54.699301259529
  21
 141.53110722918
  31
0.0
   0
LINE
   5
407
 100
AcDbEntity
   8
0
 100
AcDbLine
   6
CONTINUOUS
  62
2
  10
 56.699301259529
  20
 128.23449087270
  30
0.0
  11
 56.699301259529
  21
 129.53110722918
  31
0.0
   0
LINE
   5
408
 100
AcDbEntity
   8
0
 100
AcDbLine
   6
CONTINUOUS
  62
2
  10
 54.699301259529
  20
 129.53110722918
  30
0.0
  11
 54.699301259529
  21
 128.23449087270
  31
0.0
   0
LINE
   5
409
 100
AcDbEntity
   8
0
 100
AcDbLine
   6
CONTINUOUS
  62
2
  10
 52.199301259529
  20
 128.23449087270
  30
0.0
  11
 52.199301259529
  21
 129.53110722918
  31
0.0
   0
LINE
   5
40A
 100
AcDbEntity
   8
0
 100
AcDbLine
   6
CONTINUOUS
  62
2
  10
 52.199301259529
  20
 142.82772358566
  30
0.0
  11
 52.199301259529
  21
 141.53110722918
  31
0.0
   0
LINE
   5
40B
 100
AcDbEntity
   8
0
 100
AcDbLine
   6
DASHDOT
  62
2
  10
 21.931032418350
  20
 135.53110722918
  30
0.0
  11
 74.610512437137
  21
 135.53110722918
  31
0.0
   0
LINE
   5
40C
 100
AcDbEntity
   8
0
 100
AcDbLine
   6
DOT
  62
2
  10
 29.699301259529
  20
 187.78256820226
  30
0.0
  11
 29.699301259529
  21
 161.88293113636
  31
0.0
   0
LINE
   5
40D
 100
AcDbEntity
   8
0
 100
AcDbLine
   6
CONTINUOUS
  62
7
  10
 42.899301259529
  20
 228.73083340179
  30
0.0
  11
 29.699301259529
  21
 228.73083340179
  31
0.0
   0
ARC
   5
40E
 100
AcDbEntity
   8
0
   6
CONTINUOUS
  62
7
 100
AcDbCircle
  10
 42.899301259529
  20
 228.43083340179
  30
0.0
  40
 0.30000000000000
 100
AcDbArc
  50
0.0
  51
 90.000000000001
   0
POINT
   5
40F
 100
AcDbEntity
   8
0
 100
AcDbPoint
  62
7
  10
 43.199301259529
  20
 228.73083340179
  30
0.0
   0
LINE
   5
410
 100
AcDbEntity
   8
0
 100
AcDbLine
   6
CONTINUOUS
  62
7
  10
 31.199301259529
  20
 228.69723848169
  30
0.0
  11
 43.037244484806
  21
 228.69723848169
  31
0.0
   0
LINE
   5
411
 100
AcDbEntity
   8
0
 100
AcDbLine
   6
DOT
  62
2
  10
 42.149301259529
  20
 228.73083340179
  30
0.0
  11
 42.981717597898
  21
 228.49300016225
  31
0.0
   0
ARC
   5
412
 100
AcDbEntity
   8
0
   6
DOT
  62
2
 100
AcDbCircle
  10
 42.899301259529
  20
 228.20454297796
  30
0.0
  40
 0.30000000000000
 100
AcDbArc
  50
0.0
  51
 74.054604098927
   0
POINT
   5
413
 100
AcDbEntity
   8
0
 100
AcDbPoint
  62
2
  10
 43.199301259529
  20
 228.43083340179
  30
0.0
   0
LINE
   5
414
 100
AcDbEntity
   8
0
 100
AcDbLine
   6
CONTINUOUS
  62
7
  10
 43.199301259529
  20
 222.13006134548
  30
0.0
  11
 43.199301259529
  21
 228.43083340179
  31
0.0
   0
LINE
   5
415
 100
AcDbEntity
   8
0
 100
AcDbLine
   6
CONTINUOUS
  62
7
  10
 44.499301259529
  20
 228.73083340179
  30
0.0
  11
 57.699301259529
  21
 228.73083340179
  31
0.0
   0
ARC
   5
416
 100
AcDbEntity
   8
0
   6
CONTINUOUS
  62
7
 100
AcDbCircle
  10
 44.499301259529
  20
 228.43083340179
  30
0.0
  40
 0.30000000000000
 100
AcDbArc
  50
 89.999999999997
  51
 180.00000000066
   0
POINT
   5
417
 100
AcDbEntity
   8
0
 100
AcDbPoint
  62
7
  10
 44.199301259529
  20
 228.73083340179
  30
0.0
   0
LINE
   5
418
 100
AcDbEntity
   8
0
 100
AcDbLine
   6
DOT
  62
2
  10
 45.249301259529
  20
 228.73083340179
  30
0.0
  11
 44.416884921160
  21
 228.49300016225
  31
0.0
   0
ARC
   5
419
 100
AcDbEntity
   8
0
   6
DOT
  62
2
 100
AcDbCircle
  10
 44.499301259529
  20
 228.20454297796
  30
0.0
  40
 0.30000000000000
 100
AcDbArc
  50
 105.94539590084
  51
 179.99999999971
   0
POINT
   5
41A
 100
AcDbEntity
   8
0
 100
AcDbPoint
  62
2
  10
 44.199301259529
  20
 228.43083340179
  30
0.0
   0
LINE
   5
41B
 100
AcDbEntity
   8
0
 100
AcDbLine
   6
CONTINUOUS
  62
7
  10
 56.199301259529
  20
 228.69723848169
  30
0.0
  11
 44.361358034252
  21
 228.69723848169
  31
0.0
   0
LINE
   5
41C
 100
AcDbEntity
   8
0
 100
AcDbLine
   6
CONTINUOUS
  62
7
  10
 44.199301259529
  20
 222.13006134548
  30
0.0
  11
 44.199301259529
  21
 228.43083340179
  31
0.0
   0
LINE
   5
41D
 100
AcDbEntity
   8
0
 100
AcDbLine
   6
CONTINUOUS
  62
7
  10
 42.899301259529
  20
 198.93083340179
  30
0.0
  11
 29.699301259529
  21
 198.93083340179
  31
0.0
   0
ARC
   5
41E
 100
AcDbEntity
   8
0
   6
CONTINUOUS
  62
7
 100
AcDbCircle
  10
 42.899301259529
  20
 199.23083340179
  30
0.0
  40
 0.30000000000000
 100
AcDbArc
  50
 270.00000000000
  51
 0.11941922644002E-9
   0
POINT
   5
41F
 100
AcDbEntity
   8
0
 100
AcDbPoint
  62
7
  10
 43.199301259529
  20
 198.93083340179
  30
0.0
   0
LINE
   5
420
 100
AcDbEntity
   8
0
 100
AcDbLine
   6
DOT
  62
2
  10
 42.149301259529
  20
 198.93083340179
  30
0.0
  11
 42.981717597898
  21
 199.16866664132
  31
0.0
   0
ARC
   5
421
 100
AcDbEntity
   8
0
   6
DOT
  62
2
 100
AcDbCircle
  10
 42.899301259529
  20
 199.45712382561
  30
0.0
  40
 0.30000000000000
 100
AcDbArc
  50
 285.94539590122
  51
 0.11073419178983E-8
   0
POINT
   5
422
 100
AcDbEntity
   8
0
 100
AcDbPoint
  62
2
  10
 43.199301259529
  20
 199.23083340179
  30
0.0
   0
LINE
   5
423
 100
AcDbEntity
   8
0
 100
AcDbLine
   6
DOT
  62
2
  10
 45.249301259529
  20
 198.93083340179
  30
0.0
  11
 44.416884921160
  21
 199.16866664132
  31
0.0
   0
ARC
   5
424
 100
AcDbEntity
   8
0
   6
DOT
  62
2
 100
AcDbCircle
  10
 44.499301259529
  20
 199.45712382561
  30
0.0
  40
 0.30000000000000
 100
AcDbArc
  50
 180.00000000037
  51
 254.05460409919
   0
POINT
   5
425
 100
AcDbEntity
   8
0
 100
AcDbPoint
  62
2
  10
 44.199301259529
  20
 199.23083340179
  30
0.0
   0
LINE
   5
426
 100
AcDbEntity
   8
0
 100
AcDbLine
   6
CONTINUOUS
  62
7
  10
 44.499301259529
  20
 198.93083340179
  30
0.0
  11
 57.699301259529
  21
 198.93083340179
  31
0.0
   0
ARC
   5
427
 100
AcDbEntity
   8
0
   6
CONTINUOUS
  62
7
 100
AcDbCircle
  10
 44.499301259529
  20
 199.23083340179
  30
0.0
  40
 0.30000000000000
 100
AcDbArc
  50
 179.99999999989
  51
 270.00000000000
   0
POINT
   5
428
 100
AcDbEntity
   8
0
 100
AcDbPoint
  62
7
  10
 44.199301259529
  20
 198.93083340179
  30
0.0
   0
LINE
   5
429
 100
AcDbEntity
   8
0
 100
AcDbLine
   6
CONTINUOUS
  62
7
  10
 44.199301259529
  20
 205.53160545810
  30
0.0
  11
 44.199301259529
  21
 199.23083340179
  31
0.0
   0
LINE
   5
42A
 100
AcDbEntity
   8
0
 100
AcDbLine
   6
CONTINUOUS
  62
7
  10
 43.199301259529
  20
 205.53160545810
  30
0.0
  11
 43.199301259529
  21
 199.23083340179
  31
0.0
   0
LINE
   5
42B
 100
AcDbEntity
   8
0
 100
AcDbLine
   6
CONTINUOUS
  62
7
  10
 31.199301259529
  20
 198.96442832188
  30
0.0
  11
 43.037244484805
  21
 198.96442832188
  31
0.0
   0
LINE
   5
42C
 100
AcDbEntity
   8
0
 100
AcDbLine
   6
CONTINUOUS
  62
7
  10
 56.199301259529
  20
 198.96442832188
  30
0.0
  11
 44.361358034252
  21
 198.96442832188
  31
0.0
   0
TEXT
   5
42D
 100
AcDbEntity
   8
0
  62
2
 100
AcDbText
  10
 22.500000000000
  20
 65.623482664101
  30
0.0
  40
 4.0000000000000
   1
品番
   7
STANDARD
  11
 22.500000000000
  21
 67.623482664101
  31
0.0
 100
AcDbText
  73
2
   0
TEXT
   5
42E
 100
AcDbEntity
   8
0
  62
2
 100
AcDbText
  10
 24.208043221998
  20
 71.623482664101
  30
0.0
  40
 4.0000000000000
   1
表１
   7
STANDARD
  72
1
  11
 28.208043221998
  21
 73.623482664101
  31
0.0
 100
AcDbText
  73
2
   0
LINE
   5
42F
 100
AcDbEntity
   8
0
 100
AcDbLine
   6
CONTINUOUS
  62
7
  10
 43.199301259529
  20
 146.13110722918
  30
0.0
  11
 52.199301259529
  21
 146.13110722918
  31
0.0
   0
LINE
   5
430
 100
AcDbEntity
   8
0
 100
AcDbLine
   6
CONTINUOUS
  62
7
  10
 43.199301259529
  20
 124.93110722918
  30
0.0
  11
 52.199301259529
  21
 124.93110722918
  31
0.0
   0
LINE
   5
431
 100
AcDbEntity
   8
0
 100
AcDbLine
   6
CONTINUOUS
  62
7
  10
 43.199301259529
  20
 224.43083340179
  30
0.0
  11
 44.199301259529
  21
 224.43083340179
  31
0.0
   0
LINE
   5
432
 100
AcDbEntity
   8
0
 100
AcDbLine
   6
CONTINUOUS
  62
7
  10
 44.199301259529
  20
 203.23083340179
  30
0.0
  11
 43.199301259529
  21
 203.23083340179
  31
0.0
   0
CIRCLE
   5
433
 100
AcDbEntity
   8
0
 100
AcDbCircle
   6
CONTINUOUS
  62
7
  10
 372.63449251373
  20
 206.28564956330
  30
0.0
  40
 13.400000000000
   0
CIRCLE
   5
434
 100
AcDbEntity
   8
0
 100
AcDbCircle
   6
CONTINUOUS
  62
7
  10
 372.63449251373
  20
 206.28564956330
  30
0.0
  40
 17.500000000000
   0
CIRCLE
   5
435
 100
AcDbEntity
   8
0
 100
AcDbCircle
   6
CONTINUOUS
  62
2
  10
 372.63449251373
  20
 206.28564956330
  30
0.0
  40
 16.700000000000
   0
CIRCLE
   5
436
 100
AcDbEntity
   8
0
 100
AcDbCircle
   6
CONTINUOUS
  62
2
  10
 372.63449251373
  20
 206.28564956330
  30
0.0
  40
 13.900000000000
   0
LINE
   5
437
 100
AcDbEntity
   8
LAY-1
 100
AcDbLine
   6
DASHDOT
  62
2
  10
 342.63449251373
  20
 206.28564956330
  30
0.0
  11
 397.63449251373
  21
 206.28564956330
  31
0.0
   0
LEADER
   5
438
 100
AcDbEntity
   8
0
   6
CONTINUOUS
  62
2
 100
AcDbLeader
   3
GMM004
  73
0
  74
0
  75
0
  40
 4.0000000000000
  41
 4.8730864528735
  76
2
  10
 397.63449251373
  20
 211.28564956330
  30
0.0
  10
 397.63449251373
  20
 206.28564956330
  30
0.0
  77
2
 340
439
 213
 4.8730864528735
 223
 2.2094186560790
 233
0.0
   0
MTEXT
   5
439
 102
{ACAD_REACTORS
 330
438
 102
}
 100
AcDbEntity
   8
0
  62
2
 100
AcDbMText
  10
 392.76140606085
  20
 204.07623090723
  30
0.0
  40
 4.0000000000000
  41
0.0
  71
7
  72
1
   1
\A1;Ａ
   7
GMM001
   0
LEADER
   5
43A
 100
AcDbEntity
   8
0
   6
CONTINUOUS
  62
2
 100
AcDbLeader
   3
GMM005
  73
0
  74
0
  75
0
  40
 4.0000000000000
  41
 8.0000000000000
  76
2
  10
 342.63449251373
  20
 211.28564956330
  30
0.0
  10
 342.63449251373
  20
 206.28564956330
  30
0.0
  77
2
 340
43B
 213
0.0
 223
 2.0000000000000
 233
0.0
   0
MTEXT
   5
43B
 102
{ACAD_REACTORS
 330
43A
 102
}
 100
AcDbEntity
   8
0
  62
2
 100
AcDbMText
  10
 342.63449251373
  20
 204.28564956330
  30
0.0
  40
 4.0000000000000
  41
0.0
  71
7
  72
1
   1
\A1;Ａ’
   7
GMM001
   0
CIRCLE
   5
43C
 100
AcDbEntity
   8
0
 100
AcDbCircle
   6
CONTINUOUS
  62
7
  10
 372.63449251373
  20
 206.28564956336
  30
0.0
  40
 13.300000000000
   0
CIRCLE
   5
43D
 100
AcDbEntity
   8
0
 100
AcDbCircle
   6
DOT
  62
2
  10
 372.63449251373
  20
 206.28564956336
  30
0.0
  40
 10.800000000000
   0
LINE
   5
43E
 100
AcDbEntity
   8
0
 100
AcDbLine
   6
DOT
  62
2
  10
 385.49567441898
  20
 207.28564956336
  30
0.0
  11
 384.80411380995
  21
 206.92979529023
  31
0.0
   0
ARC
   5
43F
 100
AcDbEntity
   8
0
   6
DOT
  62
2
 100
AcDbCircle
  10
 385.03288671296
  20
 206.48520226415
  30
0.0
  40
 0.50000000000000
 100
AcDbArc
  50
 117.22885588602
  51
 180.92209847795
   0
ARC
   5
440
 100
AcDbEntity
   8
0
   6
DOT
  62
2
 100
AcDbCircle
  10
 372.63449251373
  20
 206.28564956336
  30
0.0
  40
 11.900000000000
 100
AcDbArc
  50
 359.07790152273
  51
 0.92209847726524
   0
LINE
   5
441
 100
AcDbEntity
   8
0
 100
AcDbLine
   6
DOT
  62
2
  10
 385.49567441898
  20
 205.28564956336
  30
0.0
  11
 384.80411380995
  21
 205.64150383650
  31
0.0
   0
ARC
   5
442
 100
AcDbEntity
   8
0
   6
DOT
  62
2
 100
AcDbCircle
  10
 385.03288671296
  20
 206.08609686257
  30
0.0
  40
 0.50000000000000
 100
AcDbArc
  50
 179.07790152055
  51
 242.77114411332
   0
LINE
   5
443
 100
AcDbEntity
   8
0
 100
AcDbLine
   6
DOT
  62
2
  10
 365.33787615732
  20
 216.92375981601
  30
0.0
  11
 365.99183530241
  21
 216.50277789689
  31
0.0
   0
ARC
   5
444
 100
AcDbEntity
   8
0
   6
DOT
  62
2
 100
AcDbCircle
  10
 366.26247770583
  20
 216.92319755564
  30
0.0
  40
 0.50000000000000
 100
AcDbArc
  50
 237.22885588609
  51
 300.92209847810
   0
LINE
   5
445
 100
AcDbEntity
   8
0
 100
AcDbLine
   6
DOT
  62
2
  10
 367.06992696488
  20
 217.92375981601
  30
0.0
  11
 367.10752842882
  21
 217.14692362376
  31
0.0
   0
ARC
   5
446
 100
AcDbEntity
   8
0
   6
DOT
  62
2
 100
AcDbCircle
  10
 366.60811312236
  20
 217.12275025642
  30
0.0
  40
 0.50000000000000
 100
AcDbArc
  50
 299.07790152451
  51
 2.7711441150701
   0
ARC
   5
447
 100
AcDbEntity
   8
0
   6
DOT
  62
2
 100
AcDbCircle
  10
 372.63449251374
  20
 206.28564956337
  30
0.0
  40
 11.900000000000
 100
AcDbArc
  50
 119.07790152282
  51
 120.92209847736
   0
ARC
   5
448
 100
AcDbEntity
   8
0
   6
DOT
  62
2
 100
AcDbCircle
  10
 366.60811312236
  20
 195.44854887031
  30
0.0
  40
 0.50000000000000
 100
AcDbArc
  50
 357.22885588486
  51
 60.922098475324
   0
LINE
   5
449
 100
AcDbEntity
   8
0
 100
AcDbLine
   6
DOT
  62
2
  10
 367.06992696488
  20
 194.64753931072
  30
0.0
  11
 367.10752842882
  21
 195.42437550297
  31
0.0
   0
CIRCLE
   5
44A
 100
AcDbEntity
   8
0
 100
AcDbCircle
   6
DOT
  62
2
  10
 372.63449251373
  20
 206.28564956336
  30
0.0
  40
 12.900000000000
   0
ARC
   5
44B
 100
AcDbEntity
   8
0
   6
DOT
  62
2
 100
AcDbCircle
  10
 372.63449251374
  20
 206.28564956336
  30
0.0
  40
 11.900000000000
 100
AcDbArc
  50
 239.07790152265
  51
 240.92209847718
   0
ARC
   5
44C
 100
AcDbEntity
   8
0
   6
DOT
  62
2
 100
AcDbCircle
  10
 366.26247770583
  20
 195.64810157109
  30
0.0
  40
 0.50000000000000
 100
AcDbArc
  50
 59.077901521550
  51
 122.77114411376
   0
LINE
   5
44D
 100
AcDbEntity
   8
0
 100
AcDbLine
   6
DOT
  62
2
  10
 365.33787615732
  20
 195.64753931072
  30
0.0
  11
 365.99183530241
  21
 196.06852122983
  31
0.0
   0
LINE
   5
44E
 100
AcDbEntity
   8
LAY-1
 100
AcDbLine
   6
DASHDOT
  62
2
  10
 372.63449251373
  20
 180.78533229232
  30
0.0
  11
 372.63449251373
  21
 227.22319435342
  31
0.0
   0
DIMENSION
   5
44F
 100
AcDbEntity
   8
0
   6
CONTINUOUS
  62
2
 100
AcDbDimension
   2
*D9
  10
 355.13449251373
  20
 236.41643124550
  30
0.0
  11
 372.63449251373
  21
 236.41643124550
  31
0.0
  70
0
   3
GMM006
 100
AcDbAlignedDimension
  13
 390.13449251373
  23
 206.28564956330
  33
0.0
  14
 355.13449251373
  24
 206.28564956330
  34
0.0
  50
 180.00000000000
 100
AcDbRotatedDimension
   0
DIMENSION
   5
450
 100
AcDbEntity
   8
0
   6
CONTINUOUS
  62
2
 100
AcDbDimension
   2
*D10
  10
 359.33449251373
  20
 228.60217988723
  30
0.0
  11
 372.63449251373
  21
 228.60217988723
  31
0.0
  70
0
   3
GMM006
 100
AcDbAlignedDimension
  13
 385.93449251373
  23
 206.28564956330
  33
0.0
  14
 359.33449251373
  24
 206.28564956330
  34
0.0
  50
 180.00000000000
 100
AcDbRotatedDimension
   0
LINE
   5
451
 100
AcDbEntity
   8
0
 100
AcDbLine
   6
CONTINUOUS
  62
3
  10
 355.13449251373
  20
 165.36500002964
  30
0.0
  11
 372.63449251373
  21
 165.36500002964
  31
0.0
   0
LINE
   5
452
 100
AcDbEntity
   8
0
 100
AcDbLine
   6
CONTINUOUS
  62
7
  10
 355.13449251373
  20
 164.66500002964
  30
0.0
  11
 372.63449251373
  21
 164.66500002964
  31
0.0
   0
LWPOLYLINE
   5
453
 100
AcDbEntity
   8
0
   6
CONTINUOUS
  62
7
 100
AcDbPolyline
  90
4
  70
0
  10
 372.63449251373
  20
 166.16500002964
  10
 355.93449251373
  20
 166.16500002964
  10
 355.13449251373
  20
 165.36500002964
  10
 355.13449251373
  20
 164.66500002964
   0
LINE
   5
454
 100
AcDbEntity
   8
0
 100
AcDbLine
   6
CONTINUOUS
  62
3
  10
 390.13449251373
  20
 165.36500002964
  30
0.0
  11
 372.63449251373
  21
 165.36500002964
  31
0.0
   0
LINE
   5
455
 100
AcDbEntity
   8
0
 100
AcDbLine
   6
CONTINUOUS
  62
7
  10
 390.13449251373
  20
 164.66500002964
  30
0.0
  11
 372.63449251373
  21
 164.66500002964
  31
0.0
   0
LWPOLYLINE
   5
456
 100
AcDbEntity
   8
0
   6
CONTINUOUS
  62
7
 100
AcDbPolyline
  90
4
  70
0
  10
 372.63449251373
  20
 166.16500002964
  10
 389.33449251373
  20
 166.16500002964
  10
 390.13449251373
  20
 165.36500002964
  10
 390.13449251373
  20
 164.66500002964
   0
LINE
   5
457
 100
AcDbEntity
   8
0
 100
AcDbLine
   6
CONTINUOUS
  62
7
  10
 357.73449251373
  20
 154.66500002964
  30
0.0
  11
 357.03449251373
  21
 156.66500002964
  31
0.0
   0
LINE
   5
458
 100
AcDbEntity
   8
0
 100
AcDbLine
   6
CONTINUOUS
  62
7
  10
 357.73449251373
  20
 156.66500002964
  30
0.0
  11
 357.23449251373
  21
 158.66500002964
  31
0.0
   0
LINE
   5
459
 100
AcDbEntity
   8
0
 100
AcDbLine
   6
CONTINUOUS
  62
7
  10
 357.73449251373
  20
 158.66500002964
  30
0.0
  11
 357.23449251373
  21
 160.66500002964
  31
0.0
   0
LINE
   5
45A
 100
AcDbEntity
   8
0
 100
AcDbLine
   6
CONTINUOUS
  62
7
  10
 385.61670301498
  20
 160.66500002964
  30
0.0
  11
 373.63449251373
  21
 160.66500002964
  31
0.0
   0
LINE
   5
45B
 100
AcDbEntity
   8
0
 100
AcDbLine
   6
CONTINUOUS
  62
7
  10
 373.63449251373
  20
 158.66500002964
  30
0.0
  11
 385.61670301498
  21
 158.66500002964
  31
0.0
   0
LINE
   5
45C
 100
AcDbEntity
   8
0
 100
AcDbLine
   6
CONTINUOUS
  62
7
  10
 373.63449251373
  20
 156.66500002964
  30
0.0
  11
 385.61670301498
  21
 156.66500002964
  31
0.0
   0
LINE
   5
45D
 100
AcDbEntity
   8
0
 100
AcDbLine
   6
CONTINUOUS
  62
7
  10
 373.63449251373
  20
 154.66500002964
  30
0.0
  11
 385.61670301498
  21
 154.66500002964
  31
0.0
   0
LINE
   5
45E
 100
AcDbEntity
   8
0
 100
AcDbLine
   6
CONTINUOUS
  62
7
  10
 385.00917697589
  20
 154.66500002964
  30
0.0
  11
 385.61670301498
  21
 156.66500002964
  31
0.0
   0
LINE
   5
45F
 100
AcDbEntity
   8
0
 100
AcDbLine
   6
CONTINUOUS
  62
7
  10
 385.00917697589
  20
 156.66500002964
  30
0.0
  11
 385.61670301498
  21
 158.66500002964
  31
0.0
   0
LINE
   5
460
 100
AcDbEntity
   8
0
 100
AcDbLine
   6
CONTINUOUS
  62
7
  10
 385.00917697589
  20
 158.66500002964
  30
0.0
  11
 385.61670301498
  21
 160.66500002964
  31
0.0
   0
LINE
   5
461
 100
AcDbEntity
   8
0
 100
AcDbLine
   6
CONTINUOUS
  62
7
  10
 373.63449251373
  20
 162.16500002964
  30
0.0
  11
 373.63449251373
  21
 151.16500002964
  31
0.0
   0
ARC
   5
462
 100
AcDbEntity
   8
0
   6
CONTINUOUS
  62
7
 100
AcDbCircle
  10
 372.63449251374
  20
 162.16500002964
  30
0.0
  40
 1.0000000000000
 100
AcDbArc
  50
0.0
  51
 90.000000000326
   0
POINT
   5
463
 100
AcDbEntity
   8
0
 100
AcDbPoint
  62
7
  10
 373.63449251373
  20
 163.16500002964
  30
0.0
   0
ARC
   5
464
 100
AcDbEntity
   8
0
   6
CONTINUOUS
  62
7
 100
AcDbCircle
  10
 372.63449251373
  20
 162.16500002964
  30
0.0
  40
 1.0000000000000
 100
AcDbArc
  50
 90.000000000000
  51
 180.00000000015
   0
POINT
   5
465
 100
AcDbEntity
   8
0
 100
AcDbPoint
  62
7
  10
 371.63449251373
  20
 163.16500002964
  30
0.0
   0
LINE
   5
466
 100
AcDbEntity
   8
0
 100
AcDbLine
   6
CONTINUOUS
  62
7
  10
 371.63449251373
  20
 162.16500002964
  30
0.0
  11
 371.63449251373
  21
 151.16500002964
  31
0.0
   0
LINE
   5
467
 100
AcDbEntity
   8
0
 100
AcDbLine
   6
CONTINUOUS
  62
7
  10
 357.73449251373
  20
 160.66500002964
  30
0.0
  11
 357.73449251373
  21
 164.66500002964
  31
0.0
   0
LINE
   5
468
 100
AcDbEntity
   8
0
 100
AcDbLine
   6
CONTINUOUS
  62
7
  10
 387.53449251373
  20
 160.66500002964
  30
0.0
  11
 387.53449251373
  21
 164.66500002964
  31
0.0
   0
LINE
   5
469
 100
AcDbEntity
   8
0
 100
AcDbLine
   6
CONTINUOUS
  62
7
  10
 388.03449251365
  20
 160.66500002964
  30
0.0
  11
 387.53449251373
  21
 158.66500002964
  31
0.0
   0
LINE
   5
46A
 100
AcDbEntity
   8
0
 100
AcDbLine
   6
CONTINUOUS
  62
7
  10
 371.63449251373
  20
 158.66500002964
  30
0.0
  11
 360.25980805163
  21
 158.66500002964
  31
0.0
   0
LINE
   5
46B
 100
AcDbEntity
   8
0
 100
AcDbLine
   6
CONTINUOUS
  62
7
  10
 371.63449251373
  20
 158.66500002964
  30
0.0
  11
 368.61578625424
  21
 160.66500002964
  31
0.0
   0
LINE
   5
46C
 100
AcDbEntity
   8
0
 100
AcDbLine
   6
CONTINUOUS
  62
7
  10
 358.78674901524
  20
 160.66500002964
  30
0.0
  11
 357.23449251373
  21
 160.66500002964
  31
0.0
   0
LINE
   5
46D
 100
AcDbEntity
   8
0
 100
AcDbLine
   6
CONTINUOUS
  62
7
  10
 357.23449251373
  20
 158.66500002964
  30
0.0
  11
 358.78674901524
  21
 158.66500002964
  31
0.0
   0
LINE
   5
46E
 100
AcDbEntity
   8
0
 100
AcDbLine
   6
CONTINUOUS
  62
7
  10
 358.78674901524
  20
 156.66500002964
  30
0.0
  11
 357.03449251373
  21
 156.66500002964
  31
0.0
   0
LINE
   5
46F
 100
AcDbEntity
   8
0
 100
AcDbLine
   6
CONTINUOUS
  62
7
  10
 358.78674901524
  20
 154.66500002964
  30
0.0
  11
 357.03449251373
  21
 154.66500002964
  31
0.0
   0
LINE
   5
470
 100
AcDbEntity
   8
0
 100
AcDbLine
   6
CONTINUOUS
  62
7
  10
 371.63449251373
  20
 151.16500002964
  30
0.0
  11
 360.25980805163
  21
 151.16500002964
  31
0.0
   0
LINE
   5
471
 100
AcDbEntity
   8
0
 100
AcDbLine
   6
CONTINUOUS
  62
7
  10
 385.61670301498
  20
 154.66500002964
  30
0.0
  11
 384.74877013871
  21
 151.16500002964
  31
0.0
   0
LINE
   5
472
 100
AcDbEntity
   8
0
 100
AcDbLine
   6
CONTINUOUS
  62
7
  10
 358.23449251373
  20
 156.66500002964
  30
0.0
  11
 358.78674901524
  21
 154.66500002964
  31
0.0
   0
LINE
   5
473
 100
AcDbEntity
   8
0
 100
AcDbLine
   6
CONTINUOUS
  62
7
  10
 358.45140399254
  20
 160.66500002964
  30
0.0
  11
 358.78674901524
  21
 158.66500002964
  31
0.0
   0
LINE
   5
474
 100
AcDbEntity
   8
0
 100
AcDbLine
   6
CONTINUOUS
  62
7
  10
 358.45140399254
  20
 158.66500002964
  30
0.0
  11
 358.78674901524
  21
 156.66500002964
  31
0.0
   0
LINE
   5
475
 100
AcDbEntity
   8
0
 100
AcDbLine
   6
CONTINUOUS
  62
7
  10
 358.23449251373
  20
 154.66500002964
  30
0.0
  11
 359.11007016008
  21
 151.16500002964
  31
0.0
   0
LINE
   5
476
 100
AcDbEntity
   8
0
 100
AcDbLine
   6
CONTINUOUS
  62
7
  10
 360.09615131563
  20
 156.66500002964
  30
0.0
  11
 360.25980805163
  21
 157.54281302848
  31
0.0
   0
LINE
   5
477
 100
AcDbEntity
   8
0
 100
AcDbLine
   6
CONTINUOUS
  62
7
  10
 360.09615131563
  20
 151.16500002964
  30
0.0
  11
 360.09615131563
  21
 156.66500002964
  31
0.0
   0
LINE
   5
478
 100
AcDbEntity
   8
0
 100
AcDbLine
   6
CONTINUOUS
  62
7
  10
 371.63449251373
  20
 160.66500002964
  30
0.0
  11
 359.82584870605
  21
 160.66500002964
  31
0.0
   0
LINE
   5
479
 100
AcDbEntity
   8
0
 100
AcDbLine
   6
CONTINUOUS
  62
7
  10
 360.25980805163
  20
 158.66500002964
  30
0.0
  11
 359.82584870605
  21
 160.66500002964
  31
0.0
   0
LINE
   5
47A
 100
AcDbEntity
   8
0
 100
AcDbLine
   6
CONTINUOUS
  62
7
  10
 360.25980805163
  20
 160.66500002964
  30
0.0
  11
 360.25980805163
  21
 161.29629608083
  31
0.0
   0
LINE
   5
47B
 100
AcDbEntity
   8
0
 100
AcDbLine
   6
CONTINUOUS
  62
7
  10
 360.25980805163
  20
 151.16500002964
  30
0.0
  11
 360.25980805163
  21
 158.66500002964
  31
0.0
   0
LINE
   5
47C
 100
AcDbEntity
   8
0
 100
AcDbLine
   6
CONTINUOUS
  62
7
  10
 360.25980805163
  20
 160.66500002964
  30
0.0
  11
 360.25980805163
  21
 162.86500002964
  31
0.0
   0
ARC
   5
47D
 100
AcDbEntity
   8
0
   6
CONTINUOUS
  62
7
 100
AcDbCircle
  10
 359.95980805162
  20
 162.86500002964
  30
0.0
  40
 0.30000000000000
 100
AcDbArc
  50
0.0
  51
 89.999999999121
   0
POINT
   5
47E
 100
AcDbEntity
   8
0
 100
AcDbPoint
  62
7
  10
 360.25980805163
  20
 163.16500002964
  30
0.0
   0
LINE
   5
47F
 100
AcDbEntity
   8
0
 100
AcDbLine
   6
CONTINUOUS
  62
7
  10
 358.78674901524
  20
 160.66500002964
  30
0.0
  11
 358.78674901524
  21
 162.86500002964
  31
0.0
   0
ARC
   5
480
 100
AcDbEntity
   8
0
   6
CONTINUOUS
  62
7
 100
AcDbCircle
  10
 359.08674901523
  20
 162.86500002964
  30
0.0
  40
 0.30000000000000
 100
AcDbArc
  50
 89.999999997384
  51
 180.00000000000
   0
POINT
   5
481
 100
AcDbEntity
   8
0
 100
AcDbPoint
  62
7
  10
 358.78674901524
  20
 163.16500002964
  30
0.0
   0
LINE
   5
482
 100
AcDbEntity
   8
0
 100
AcDbLine
   6
CONTINUOUS
  62
7
  10
 359.08674901524
  20
 163.16500002964
  30
0.0
  11
 359.95980805163
  21
 163.16500002964
  31
0.0
   0
LINE
   5
483
 100
AcDbEntity
   8
0
 100
AcDbLine
   6
CONTINUOUS
  62
7
  10
 385.00917697589
  20
 160.66500002964
  30
0.0
  11
 385.00917697589
  21
 162.86500002964
  31
0.0
   0
ARC
   5
484
 100
AcDbEntity
   8
0
   6
CONTINUOUS
  62
7
 100
AcDbCircle
  10
 385.30917697588
  20
 162.86500002964
  30
0.0
  40
 0.30000000000000
 100
AcDbArc
  50
 89.999999998534
  51
 180.00000000001
   0
POINT
   5
485
 100
AcDbEntity
   8
0
 100
AcDbPoint
  62
7
  10
 385.00917697589
  20
 163.16500002964
  30
0.0
   0
LINE
   5
486
 100
AcDbEntity
   8
0
 100
AcDbLine
   6
CONTINUOUS
  62
7
  10
 387.53449251373
  20
 158.66500002964
  30
0.0
  11
 386.27304082358
  21
 158.66500002964
  31
0.0
   0
LINE
   5
487
 100
AcDbEntity
   8
0
 100
AcDbLine
   6
CONTINUOUS
  62
7
  10
 386.81758103482
  20
 160.66500002964
  30
0.0
  11
 386.27304082358
  21
 158.66500002964
  31
0.0
   0
LINE
   5
488
 100
AcDbEntity
   8
0
 100
AcDbLine
   6
CONTINUOUS
  62
7
  10
 386.27304082358
  20
 160.66500002964
  30
0.0
  11
 388.03449251365
  21
 160.66500002964
  31
0.0
   0
LINE
   5
489
 100
AcDbEntity
   8
0
 100
AcDbLine
   6
CONTINUOUS
  62
7
  10
 386.27304082358
  20
 151.16500002964
  30
0.0
  11
 386.27304082358
  21
 158.66500002964
  31
0.0
   0
LINE
   5
48A
 100
AcDbEntity
   8
0
 100
AcDbLine
   6
CONTINUOUS
  62
7
  10
 386.27304082358
  20
 160.66500002964
  30
0.0
  11
 386.27304082358
  21
 162.86500002964
  31
0.0
   0
ARC
   5
48B
 100
AcDbEntity
   8
0
   6
CONTINUOUS
  62
7
 100
AcDbCircle
  10
 385.97304082357
  20
 162.86500002964
  30
0.0
  40
 0.30000000000000
 100
AcDbArc
  50
0.0
  51
 89.999999998035
   0
POINT
   5
48C
 100
AcDbEntity
   8
0
 100
AcDbPoint
  62
7
  10
 386.27304082358
  20
 163.16500002964
  30
0.0
   0
LINE
   5
48D
 100
AcDbEntity
   8
0
 100
AcDbLine
   6
CONTINUOUS
  62
7
  10
 385.97304082358
  20
 163.16500002964
  30
0.0
  11
 385.30917697589
  21
 163.16500002964
  31
0.0
   0
LINE
   5
48E
 100
AcDbEntity
   8
0
 100
AcDbLine
   6
DASHDOT
  62
2
  10
 372.63449251373
  20
 148.02602425052
  30
0.0
  11
 372.63449251373
  21
 172.70070249432
  31
0.0
   0
LINE
   5
48F
 100
AcDbEntity
   8
0
 100
AcDbLine
   6
CONTINUOUS
  62
7
  10
 373.63449251373
  20
 151.16500002964
  30
0.0
  11
 371.63449251373
  21
 151.16500002964
  31
0.0
   0
LINE
   5
490
 100
AcDbEntity
   8
0
 100
AcDbLine
   6
CONTINUOUS
  62
2
  10
 373.63449251373
  20
 155.66500002964
  30
0.0
  11
 371.63449251373
  21
 155.66500002964
  31
0.0
   0
LINE
   5
491
 100
AcDbEntity
   8
0
 100
AcDbLine
   6
CONTINUOUS
  62
2
  10
 373.63449251373
  20
 153.66500002964
  30
0.0
  11
 371.63449251373
  21
 153.66500002964
  31
0.0
   0
LINE
   5
492
 100
AcDbEntity
   8
0
 100
AcDbLine
   6
CONTINUOUS
  62
7
  10
 360.09615131563
  20
 151.16500002964
  30
0.0
  11
 358.26078293756
  21
 151.16500002964
  31
0.0
   0
ARC
   5
493
 100
AcDbEntity
   8
0
   6
CONTINUOUS
  62
7
 100
AcDbCircle
  10
 358.26078293756
  20
 151.46500002964
  30
0.0
  40
 0.30000000000000
 100
AcDbArc
  50
 195.94539590172
  51
 270.00000000022
   0
POINT
   5
494
 100
AcDbEntity
   8
0
 100
AcDbPoint
  62
7
  10
 358.03449251373
  20
 151.16500002964
  30
0.0
   0
LINE
   5
495
 100
AcDbEntity
   8
0
 100
AcDbLine
   6
CONTINUOUS
  62
7
  10
 357.97232575327
  20
 151.38258369127
  30
0.0
  11
 357.03449251373
  21
 154.66500002964
  31
0.0
   0
LINE
   5
496
 100
AcDbEntity
   8
0
 100
AcDbLine
   6
CONTINUOUS
  62
7
  10
 373.63449251373
  20
 151.16500002964
  30
0.0
  11
 387.23449251373
  21
 151.16500002964
  31
0.0
   0
ARC
   5
497
 100
AcDbEntity
   8
0
   6
CONTINUOUS
  62
7
 100
AcDbCircle
  10
 387.23449251373
  20
 151.46500002965
  30
0.0
  40
 0.30000000000000
 100
AcDbArc
  50
 269.99999999999
  51
0.0
   0
POINT
   5
498
 100
AcDbEntity
   8
0
 100
AcDbPoint
  62
7
  10
 387.53449251373
  20
 151.16500002964
  30
0.0
   0
LINE
   5
499
 100
AcDbEntity
   8
0
 100
AcDbLine
   6
CONTINUOUS
  62
7
  10
 387.53449251373
  20
 151.46500002964
  30
0.0
  11
 387.53449251373
  21
 158.66500002964
  31
0.0
   0
TEXT
   5
49A
 100
AcDbEntity
   8
0
  62
2
 100
AcDbText
  10
 251.92128962768
  20
 179.58423518313
  30
0.0
  40
 4.0000000000000
   1
ドア対応寸法：２８～３６ｍｍ
   7
STANDARD
 100
AcDbText
   0
TEXT
   5
49B
 100
AcDbEntity
   8
0
  62
2
 100
AcDbText
  10
 251.92128962768
  20
 171.92784695983
  30
0.0
  40
 4.0000000000000
   1
ドア両面の切り欠き穴へ入れ込む
   7
STANDARD
 100
AcDbText
   0
TEXT
   5
49C
 100
AcDbEntity
   8
0
  62
2
 100
AcDbText
  10
 85.671760026017
  20
 166.01739547973
  30
0.0
  40
 4.0000000000000
   1
切欠き図　Ｓ＝１／１
   7
STANDARD
 100
AcDbText
   0
DIMENSION
   5
49D
 100
AcDbEntity
   8
0
   6
CONTINUOUS
  62
2
 100
AcDbDimension
   2
*D11
  10
 98.190441843407
  20
 215.70549118235
  30
0.0
  11
 116.66495861447
  21
 175.60345356753
  31
0.0
  70
131
   1
\A1;%%c30{\H0.625x;\S +0.2^ -0;} 
   3
GMM007
 100
AcDbDiametricDimension
  15
 110.74307444023
  25
 188.45789651990
  35
0.0
  40
 14.152929583263
   0
CIRCLE
   5
49E
 100
AcDbEntity
   8
0
 100
AcDbCircle
   6
CONTINUOUS
  62
7
  10
 176.33685985727
  20
 206.28564956330
  30
0.0
  40
 13.400000000000
   0
CIRCLE
   5
49F
 100
AcDbEntity
   8
0
 100
AcDbCircle
   6
CONTINUOUS
  62
7
  10
 176.33685985727
  20
 206.28564956330
  30
0.0
  40
 17.500000000000
   0
CIRCLE
   5
4A0
 100
AcDbEntity
   8
0
 100
AcDbCircle
   6
CONTINUOUS
  62
2
  10
 176.33685985727
  20
 206.28564956330
  30
0.0
  40
 16.700000000000
   0
CIRCLE
   5
4A1
 100
AcDbEntity
   8
0
 100
AcDbCircle
   6
CONTINUOUS
  62
2
  10
 176.33685985727
  20
 206.28564956330
  30
0.0
  40
 13.900000000000
   0
LINE
   5
4A2
 100
AcDbEntity
   8
LAY-1
 100
AcDbLine
   6
DASHDOT
  62
2
  10
 206.33685985727
  20
 206.28564956330
  30
0.0
  11
 151.33685985727
  21
 206.28564956330
  31
0.0
   0
LEADER
   5
4A3
 100
AcDbEntity
   8
0
   6
CONTINUOUS
  62
2
 100
AcDbLeader
   3
GMM004
  73
0
  74
0
  75
0
  40
 4.0000000000000
  41
 4.8730864528735
  76
2
  10
 151.33685985727
  20
 211.28564956330
  30
0.0
  10
 151.33685985727
  20
 206.28564956330
  30
0.0
  77
2
 340
4A4
 213
 4.8730864528735
 223
 2.2094186560790
 233
0.0
   0
MTEXT
   5
4A4
 102
{ACAD_REACTORS
 330
4A3
 102
}
 100
AcDbEntity
   8
0
  62
2
 100
AcDbMText
  10
 146.46377340440
  20
 204.07623090723
  30
0.0
  40
 4.0000000000000
  41
0.0
  71
7
  72
1
   1
\A1;Ａ
   7
GMM001
   0
LEADER
   5
4A5
 100
AcDbEntity
   8
0
   6
CONTINUOUS
  62
2
 100
AcDbLeader
   3
GMM005
  73
0
  74
0
  75
0
  40
 4.0000000000000
  41
 8.0000000000000
  76
2
  10
 206.33685985727
  20
 211.28564956330
  30
0.0
  10
 206.33685985727
  20
 206.28564956330
  30
0.0
  77
2
 340
4A6
 213
0.0
 223
 2.0000000000000
 233
0.0
   0
MTEXT
   5
4A6
 102
{ACAD_REACTORS
 330
4A5
 102
}
 100
AcDbEntity
   8
0
  62
2
 100
AcDbMText
  10
 206.33685985727
  20
 204.28564956330
  30
0.0
  40
 4.0000000000000
  41
0.0
  71
7
  72
1
   1
\A1;Ａ’
   7
GMM001
   0
CIRCLE
   5
4A7
 100
AcDbEntity
   8
0
 100
AcDbCircle
   6
CONTINUOUS
  62
7
  10
 176.33685985727
  20
 206.28564956336
  30
0.0
  40
 13.300000000000
   0
LINE
   5
4A8
 100
AcDbEntity
   8
0
 100
AcDbLine
   6
DOT
  62
2
  10
 163.47567795202
  20
 207.28564956336
  30
0.0
  11
 164.16723856105
  21
 206.92979529023
  31
0.0
   0
ARC
   5
4A9
 100
AcDbEntity
   8
0
   6
DOT
  62
2
 100
AcDbCircle
  10
 163.93846565804
  20
 206.48520226414
  30
0.0
  40
 0.50000000000000
 100
AcDbArc
  50
 359.07790152270
  51
 62.771144114269
   0
ARC
   5
4AA
 100
AcDbEntity
   8
0
   6
DOT
  62
2
 100
AcDbCircle
  10
 176.33685985727
  20
 206.28564956336
  30
0.0
  40
 11.900000000000
 100
AcDbArc
  50
 179.07790152273
  51
 180.92209847727
   0
LINE
   5
4AB
 100
AcDbEntity
   8
0
 100
AcDbLine
   6
DOT
  62
2
  10
 163.47567795202
  20
 205.28564956336
  30
0.0
  11
 164.16723856105
  21
 205.64150383650
  31
0.0
   0
ARC
   5
4AC
 100
AcDbEntity
   8
0
   6
DOT
  62
2
 100
AcDbCircle
  10
 163.93846565804
  20
 206.08609686259
  30
0.0
  40
 0.50000000000000
 100
AcDbArc
  50
 297.22885588569
  51
 0.92209847722240
   0
LINE
   5
4AD
 100
AcDbEntity
   8
0
 100
AcDbLine
   6
DOT
  62
2
  10
 183.63347621368
  20
 216.92375981601
  30
0.0
  11
 182.97951706859
  21
 216.50277789689
  31
0.0
   0
ARC
   5
4AE
 100
AcDbEntity
   8
0
   6
DOT
  62
2
 100
AcDbCircle
  10
 182.70887466516
  20
 216.92319755564
  30
0.0
  40
 0.50000000000000
 100
AcDbArc
  50
 239.07790152246
  51
 302.77114411416
   0
LINE
   5
4AF
 100
AcDbEntity
   8
0
 100
AcDbLine
   6
DOT
  62
2
  10
 181.90142540611
  20
 217.92375981601
  30
0.0
  11
 181.86382394217
  21
 217.14692362376
  31
0.0
   0
ARC
   5
4B0
 100
AcDbEntity
   8
0
   6
DOT
  62
2
 100
AcDbCircle
  10
 182.36323924862
  20
 217.12275025642
  30
0.0
  40
 0.50000000000000
 100
AcDbArc
  50
 177.22885588576
  51
 240.92209847737
   0
ARC
   5
4B1
 100
AcDbEntity
   8
0
   6
DOT
  62
2
 100
AcDbCircle
  10
 176.33685985727
  20
 206.28564956337
  30
0.0
  40
 11.900000000000
 100
AcDbArc
  50
 59.077901522720
  51
 60.922098477256
   0
ARC
   5
4B2
 100
AcDbEntity
   8
0
   6
DOT
  62
2
 100
AcDbCircle
  10
 182.36323924862
  20
 195.44854887030
  30
0.0
  40
 0.50000000000000
 100
AcDbArc
  50
 119.07790152281
  51
 182.77114411431
   0
LINE
   5
4B3
 100
AcDbEntity
   8
0
 100
AcDbLine
   6
DOT
  62
2
  10
 181.90142540611
  20
 194.64753931072
  30
0.0
  11
 181.86382394217
  21
 195.42437550297
  31
0.0
   0
CIRCLE
   5
4B4
 100
AcDbEntity
   8
0
 100
AcDbCircle
   6
DOT
  62
2
  10
 176.33685985727
  20
 206.28564956336
  30
0.0
  40
 12.900000000000
   0
ARC
   5
4B5
 100
AcDbEntity
   8
0
   6
DOT
  62
2
 100
AcDbCircle
  10
 176.33685985727
  20
 206.28564956337
  30
0.0
  40
 11.900000000000
 100
AcDbArc
  50
 299.07790152271
  51
 300.92209847725
   0
ARC
   5
4B6
 100
AcDbEntity
   8
0
   6
DOT
  62
2
 100
AcDbCircle
  10
 182.70887466515
  20
 195.64810157108
  30
0.0
  40
 0.50000000000000
 100
AcDbArc
  50
 57.228855885578
  51
 120.92209847695
   0
LINE
   5
4B7
 100
AcDbEntity
   8
0
 100
AcDbLine
   6
DOT
  62
2
  10
 183.63347621368
  20
 195.64753931072
  30
0.0
  11
 182.97951706859
  21
 196.06852122983
  31
0.0
   0
LINE
   5
4B8
 100
AcDbEntity
   8
LAY-1
 100
AcDbLine
   6
DASHDOT
  62
2
  10
 176.33685985727
  20
 180.78533229232
  30
0.0
  11
 176.33685985727
  21
 227.22319435342
  31
0.0
   0
DIMENSION
   5
4B9
 100
AcDbEntity
   8
0
   6
CONTINUOUS
  62
2
 100
AcDbDimension
   2
*D14
  10
 193.83685985727
  20
 236.41643124550
  30
0.0
  11
 176.33685985727
  21
 236.41643124550
  31
0.0
  70
0
   3
GMM006
 100
AcDbAlignedDimension
  13
 158.83685985727
  23
 206.28564956330
  33
0.0
  14
 193.83685985727
  24
 206.28564956330
  34
0.0
 100
AcDbRotatedDimension
   0
DIMENSION
   5
4BA
 100
AcDbEntity
   8
0
   6
CONTINUOUS
  62
2
 100
AcDbDimension
   2
*D15
  10
 189.63685985727
  20
 228.60217988723
  30
0.0
  11
 176.33685985727
  21
 228.60217988723
  31
0.0
  70
0
   3
GMM006
 100
AcDbAlignedDimension
  13
 163.03685985727
  23
 206.28564956330
  33
0.0
  14
 189.63685985727
  24
 206.28564956330
  34
0.0
 100
AcDbRotatedDimension
   0
CIRCLE
   5
4BB
 100
AcDbEntity
   8
0
 100
AcDbCircle
   6
DOT
  62
2
  10
 176.33685985727
  20
 206.28564956336
  30
0.0
  40
 9.6000000000000
   0
LINE
   5
4BC
 100
AcDbEntity
   8
0
 100
AcDbLine
   6
CONTINUOUS
  62
3
  10
 193.83685985726
  20
 165.36500002964
  30
0.0
  11
 176.33685985726
  21
 165.36500002964
  31
0.0
   0
LINE
   5
4BD
 100
AcDbEntity
   8
0
 100
AcDbLine
   6
CONTINUOUS
  62
7
  10
 193.83685985726
  20
 164.66500002964
  30
0.0
  11
 176.33685985726
  21
 164.66500002964
  31
0.0
   0
LWPOLYLINE
   5
4BE
 100
AcDbEntity
   8
0
   6
CONTINUOUS
  62
7
 100
AcDbPolyline
  90
4
  70
0
  10
 176.33685985726
  20
 166.16500002964
  10
 193.03685985726
  20
 166.16500002964
  10
 193.83685985726
  20
 165.36500002964
  10
 193.83685985726
  20
 164.66500002964
   0
LINE
   5
4BF
 100
AcDbEntity
   8
0
 100
AcDbLine
   6
CONTINUOUS
  62
3
  10
 158.83685985726
  20
 165.36500002964
  30
0.0
  11
 176.33685985726
  21
 165.36500002964
  31
0.0
   0
LINE
   5
4C0
 100
AcDbEntity
   8
0
 100
AcDbLine
   6
CONTINUOUS
  62
7
  10
 158.83685985726
  20
 164.66500002964
  30
0.0
  11
 176.33685985726
  21
 164.66500002964
  31
0.0
   0
LWPOLYLINE
   5
4C1
 100
AcDbEntity
   8
0
   6
CONTINUOUS
  62
7
 100
AcDbPolyline
  90
4
  70
0
  10
 176.33685985726
  20
 166.16500002964
  10
 159.63685985726
  20
 166.16500002964
  10
 158.83685985726
  20
 165.36500002964
  10
 158.83685985726
  20
 164.66500002964
   0
LINE
   5
4C2
 100
AcDbEntity
   8
0
 100
AcDbLine
   6
CONTINUOUS
  62
7
  10
 191.23685985726
  20
 154.66500002964
  30
0.0
  11
 191.93685985726
  21
 156.66500002964
  31
0.0
   0
LINE
   5
4C3
 100
AcDbEntity
   8
0
 100
AcDbLine
   6
CONTINUOUS
  62
7
  10
 191.23685985726
  20
 156.66500002964
  30
0.0
  11
 191.73685985726
  21
 158.66500002964
  31
0.0
   0
LINE
   5
4C4
 100
AcDbEntity
   8
0
 100
AcDbLine
   6
CONTINUOUS
  62
7
  10
 191.23685985726
  20
 158.66500002964
  30
0.0
  11
 191.73685985726
  21
 160.66500002964
  31
0.0
   0
LINE
   5
4C5
 100
AcDbEntity
   8
0
 100
AcDbLine
   6
CONTINUOUS
  62
7
  10
 163.35464935601
  20
 160.66500002964
  30
0.0
  11
 175.33685985726
  21
 160.66500002964
  31
0.0
   0
LINE
   5
4C6
 100
AcDbEntity
   8
0
 100
AcDbLine
   6
CONTINUOUS
  62
7
  10
 175.33685985726
  20
 158.66500002964
  30
0.0
  11
 163.35464935601
  21
 158.66500002964
  31
0.0
   0
LINE
   5
4C7
 100
AcDbEntity
   8
0
 100
AcDbLine
   6
CONTINUOUS
  62
7
  10
 175.33685985726
  20
 156.66500002964
  30
0.0
  11
 163.35464935601
  21
 156.66500002964
  31
0.0
   0
LINE
   5
4C8
 100
AcDbEntity
   8
0
 100
AcDbLine
   6
CONTINUOUS
  62
7
  10
 175.33685985726
  20
 154.66500002964
  30
0.0
  11
 163.35464935601
  21
 154.66500002964
  31
0.0
   0
LINE
   5
4C9
 100
AcDbEntity
   8
0
 100
AcDbLine
   6
CONTINUOUS
  62
7
  10
 163.96217539511
  20
 154.66500002964
  30
0.0
  11
 163.35464935601
  21
 156.66500002964
  31
0.0
   0
LINE
   5
4CA
 100
AcDbEntity
   8
0
 100
AcDbLine
   6
CONTINUOUS
  62
7
  10
 163.96217539511
  20
 156.66500002964
  30
0.0
  11
 163.35464935601
  21
 158.66500002964
  31
0.0
   0
LINE
   5
4CB
 100
AcDbEntity
   8
0
 100
AcDbLine
   6
CONTINUOUS
  62
7
  10
 163.96217539511
  20
 158.66500002964
  30
0.0
  11
 163.35464935601
  21
 160.66500002964
  31
0.0
   0
LINE
   5
4CC
 100
AcDbEntity
   8
0
 100
AcDbLine
   6
CONTINUOUS
  62
7
  10
 175.33685985726
  20
 162.16500002964
  30
0.0
  11
 175.33685985726
  21
 151.16500002964
  31
0.0
   0
ARC
   5
4CD
 100
AcDbEntity
   8
0
   6
CONTINUOUS
  62
7
 100
AcDbCircle
  10
 176.33685985726
  20
 162.16500002964
  30
0.0
  40
 1.0000000000000
 100
AcDbArc
  50
 89.999999999984
  51
 180.00000000000
   0
POINT
   5
4CE
 100
AcDbEntity
   8
0
 100
AcDbPoint
  62
7
  10
 175.33685985726
  20
 163.16500002964
  30
0.0
   0
ARC
   5
4CF
 100
AcDbEntity
   8
0
   6
CONTINUOUS
  62
7
 100
AcDbCircle
  10
 176.33685985726
  20
 162.16500002964
  30
0.0
  40
 1.0000000000000
 100
AcDbArc
  50
 0.52110207901098E-10
  51
 90.000000000000
   0
POINT
   5
4D0
 100
AcDbEntity
   8
0
 100
AcDbPoint
  62
7
  10
 177.33685985726
  20
 163.16500002964
  30
0.0
   0
LINE
   5
4D1
 100
AcDbEntity
   8
0
 100
AcDbLine
   6
CONTINUOUS
  62
7
  10
 177.33685985726
  20
 162.16500002964
  30
0.0
  11
 177.33685985726
  21
 151.16500002964
  31
0.0
   0
LINE
   5
4D2
 100
AcDbEntity
   8
0
 100
AcDbLine
   6
CONTINUOUS
  62
7
  10
 191.23685985726
  20
 160.66500002964
  30
0.0
  11
 191.23685985726
  21
 164.66500002964
  31
0.0
   0
LINE
   5
4D3
 100
AcDbEntity
   8
0
 100
AcDbLine
   6
CONTINUOUS
  62
7
  10
 161.43685985726
  20
 160.66500002964
  30
0.0
  11
 161.43685985726
  21
 164.66500002964
  31
0.0
   0
LINE
   5
4D4
 100
AcDbEntity
   8
0
 100
AcDbLine
   6
CONTINUOUS
  62
7
  10
 160.93685985735
  20
 160.66500002964
  30
0.0
  11
 161.43685985726
  21
 158.66500002964
  31
0.0
   0
LINE
   5
4D5
 100
AcDbEntity
   8
0
 100
AcDbLine
   6
CONTINUOUS
  62
7
  10
 177.33685985726
  20
 158.66500002964
  30
0.0
  11
 188.71154431937
  21
 158.66500002964
  31
0.0
   0
LINE
   5
4D6
 100
AcDbEntity
   8
0
 100
AcDbLine
   6
CONTINUOUS
  62
7
  10
 177.33685985726
  20
 158.66500002964
  30
0.0
  11
 180.35556611676
  21
 160.66500002964
  31
0.0
   0
LINE
   5
4D7
 100
AcDbEntity
   8
0
 100
AcDbLine
   6
CONTINUOUS
  62
7
  10
 190.18460335575
  20
 160.66500002964
  30
0.0
  11
 191.73685985726
  21
 160.66500002964
  31
0.0
   0
LINE
   5
4D8
 100
AcDbEntity
   8
0
 100
AcDbLine
   6
CONTINUOUS
  62
7
  10
 191.73685985726
  20
 158.66500002964
  30
0.0
  11
 190.18460335575
  21
 158.66500002964
  31
0.0
   0
LINE
   5
4D9
 100
AcDbEntity
   8
0
 100
AcDbLine
   6
CONTINUOUS
  62
7
  10
 190.18460335575
  20
 156.66500002964
  30
0.0
  11
 191.93685985726
  21
 156.66500002964
  31
0.0
   0
LINE
   5
4DA
 100
AcDbEntity
   8
0
 100
AcDbLine
   6
CONTINUOUS
  62
7
  10
 190.18460335575
  20
 154.66500002964
  30
0.0
  11
 191.93685985726
  21
 154.66500002964
  31
0.0
   0
LINE
   5
4DB
 100
AcDbEntity
   8
0
 100
AcDbLine
   6
CONTINUOUS
  62
7
  10
 177.33685985726
  20
 151.16500002964
  30
0.0
  11
 188.71154431937
  21
 151.16500002964
  31
0.0
   0
LINE
   5
4DC
 100
AcDbEntity
   8
0
 100
AcDbLine
   6
CONTINUOUS
  62
7
  10
 163.35464935601
  20
 154.66500002964
  30
0.0
  11
 164.22258223229
  21
 151.16500002964
  31
0.0
   0
LINE
   5
4DD
 100
AcDbEntity
   8
0
 100
AcDbLine
   6
CONTINUOUS
  62
7
  10
 190.73685985726
  20
 156.66500002964
  30
0.0
  11
 190.18460335575
  21
 154.66500002964
  31
0.0
   0
LINE
   5
4DE
 100
AcDbEntity
   8
0
 100
AcDbLine
   6
CONTINUOUS
  62
7
  10
 190.51994837846
  20
 160.66500002964
  30
0.0
  11
 190.18460335575
  21
 158.66500002964
  31
0.0
   0
LINE
   5
4DF
 100
AcDbEntity
   8
0
 100
AcDbLine
   6
CONTINUOUS
  62
7
  10
 190.51994837846
  20
 158.66500002964
  30
0.0
  11
 190.18460335575
  21
 156.66500002964
  31
0.0
   0
LINE
   5
4E0
 100
AcDbEntity
   8
0
 100
AcDbLine
   6
CONTINUOUS
  62
7
  10
 190.73685985726
  20
 154.66500002964
  30
0.0
  11
 189.86128221092
  21
 151.16500002964
  31
0.0
   0
LINE
   5
4E1
 100
AcDbEntity
   8
0
 100
AcDbLine
   6
CONTINUOUS
  62
7
  10
 188.87520105536
  20
 156.66500002964
  30
0.0
  11
 188.71154431937
  21
 157.54281302848
  31
0.0
   0
LINE
   5
4E2
 100
AcDbEntity
   8
0
 100
AcDbLine
   6
CONTINUOUS
  62
7
  10
 188.87520105536
  20
 151.16500002964
  30
0.0
  11
 188.87520105536
  21
 156.66500002964
  31
0.0
   0
LINE
   5
4E3
 100
AcDbEntity
   8
0
 100
AcDbLine
   6
CONTINUOUS
  62
7
  10
 177.33685985726
  20
 160.66500002964
  30
0.0
  11
 189.14550366495
  21
 160.66500002964
  31
0.0
   0
LINE
   5
4E4
 100
AcDbEntity
   8
0
 100
AcDbLine
   6
CONTINUOUS
  62
7
  10
 188.71154431937
  20
 158.66500002964
  30
0.0
  11
 189.14550366495
  21
 160.66500002964
  31
0.0
   0
LINE
   5
4E5
 100
AcDbEntity
   8
0
 100
AcDbLine
   6
CONTINUOUS
  62
7
  10
 188.71154431937
  20
 160.66500002964
  30
0.0
  11
 188.71154431937
  21
 161.29629608083
  31
0.0
   0
LINE
   5
4E6
 100
AcDbEntity
   8
0
 100
AcDbLine
   6
CONTINUOUS
  62
7
  10
 188.71154431937
  20
 151.16500002964
  30
0.0
  11
 188.71154431937
  21
 158.66500002964
  31
0.0
   0
LINE
   5
4E7
 100
AcDbEntity
   8
0
 100
AcDbLine
   6
CONTINUOUS
  62
7
  10
 188.71154431937
  20
 160.66500002964
  30
0.0
  11
 188.71154431937
  21
 162.86500002964
  31
0.0
   0
ARC
   5
4E8
 100
AcDbEntity
   8
0
   6
CONTINUOUS
  62
7
 100
AcDbCircle
  10
 189.01154431938
  20
 162.86500002964
  30
0.0
  40
 0.30000000000000
 100
AcDbArc
  50
 90.000000001628
  51
 180.00000000000
   0
POINT
   5
4E9
 100
AcDbEntity
   8
0
 100
AcDbPoint
  62
7
  10
 188.71154431937
  20
 163.16500002964
  30
0.0
   0
LINE
   5
4EA
 100
AcDbEntity
   8
0
 100
AcDbLine
   6
CONTINUOUS
  62
7
  10
 190.18460335575
  20
 160.66500002964
  30
0.0
  11
 190.18460335575
  21
 162.86500002964
  31
0.0
   0
ARC
   5
4EB
 100
AcDbEntity
   8
0
   6
CONTINUOUS
  62
7
 100
AcDbCircle
  10
 189.88460335575
  20
 162.86500002964
  30
0.0
  40
 0.30000000000000
 100
AcDbArc
  50
0.0
  51
 89.999999998741
   0
POINT
   5
4EC
 100
AcDbEntity
   8
0
 100
AcDbPoint
  62
7
  10
 190.18460335575
  20
 163.16500002964
  30
0.0
   0
LINE
   5
4ED
 100
AcDbEntity
   8
0
 100
AcDbLine
   6
CONTINUOUS
  62
7
  10
 189.88460335575
  20
 163.16500002964
  30
0.0
  11
 189.01154431937
  21
 163.16500002964
  31
0.0
   0
LINE
   5
4EE
 100
AcDbEntity
   8
0
 100
AcDbLine
   6
CONTINUOUS
  62
7
  10
 163.96217539511
  20
 160.66500002964
  30
0.0
  11
 163.96217539511
  21
 162.86500002964
  31
0.0
   0
ARC
   5
4EF
 100
AcDbEntity
   8
0
   6
CONTINUOUS
  62
7
 100
AcDbCircle
  10
 163.66217539511
  20
 162.86500002964
  30
0.0
  40
 0.30000000000000
 100
AcDbArc
  50
0.0
  51
 89.999999999940
   0
POINT
   5
4F0
 100
AcDbEntity
   8
0
 100
AcDbPoint
  62
7
  10
 163.96217539511
  20
 163.16500002964
  30
0.0
   0
LINE
   5
4F1
 100
AcDbEntity
   8
0
 100
AcDbLine
   6
CONTINUOUS
  62
7
  10
 161.43685985726
  20
 158.66500002964
  30
0.0
  11
 162.69831154742
  21
 158.66500002964
  31
0.0
   0
LINE
   5
4F2
 100
AcDbEntity
   8
0
 100
AcDbLine
   6
CONTINUOUS
  62
7
  10
 162.15377133618
  20
 160.66500002964
  30
0.0
  11
 162.69831154742
  21
 158.66500002964
  31
0.0
   0
LINE
   5
4F3
 100
AcDbEntity
   8
0
 100
AcDbLine
   6
CONTINUOUS
  62
7
  10
 162.69831154742
  20
 160.66500002964
  30
0.0
  11
 160.93685985735
  21
 160.66500002964
  31
0.0
   0
LINE
   5
4F4
 100
AcDbEntity
   8
0
 100
AcDbLine
   6
CONTINUOUS
  62
7
  10
 162.69831154742
  20
 151.16500002964
  30
0.0
  11
 162.69831154742
  21
 158.66500002964
  31
0.0
   0
LINE
   5
4F5
 100
AcDbEntity
   8
0
 100
AcDbLine
   6
CONTINUOUS
  62
7
  10
 162.69831154742
  20
 160.66500002964
  30
0.0
  11
 162.69831154742
  21
 162.86500002964
  31
0.0
   0
ARC
   5
4F6
 100
AcDbEntity
   8
0
   6
CONTINUOUS
  62
7
 100
AcDbCircle
  10
 162.99831154742
  20
 162.86500002964
  30
0.0
  40
 0.30000000000000
 100
AcDbArc
  50
 90.000000000402
  51
 180.00000000000
   0
POINT
   5
4F7
 100
AcDbEntity
   8
0
 100
AcDbPoint
  62
7
  10
 162.69831154742
  20
 163.16500002964
  30
0.0
   0
LINE
   5
4F8
 100
AcDbEntity
   8
0
 100
AcDbLine
   6
CONTINUOUS
  62
7
  10
 162.99831154742
  20
 163.16500002964
  30
0.0
  11
 163.66217539511
  21
 163.16500002964
  31
0.0
   0
LINE
   5
4F9
 100
AcDbEntity
   8
0
 100
AcDbLine
   6
CONTINUOUS
  62
7
  10
 175.33685985726
  20
 151.16500002964
  30
0.0
  11
 177.33685985726
  21
 151.16500002964
  31
0.0
   0
LINE
   5
4FA
 100
AcDbEntity
   8
0
 100
AcDbLine
   6
CONTINUOUS
  62
2
  10
 175.33685985726
  20
 155.66500002964
  30
0.0
  11
 177.33685985726
  21
 155.66500002964
  31
0.0
   0
LINE
   5
4FB
 100
AcDbEntity
   8
0
 100
AcDbLine
   6
CONTINUOUS
  62
2
  10
 175.33685985726
  20
 153.66500002964
  30
0.0
  11
 177.33685985726
  21
 153.66500002964
  31
0.0
   0
LINE
   5
4FC
 100
AcDbEntity
   8
0
 100
AcDbLine
   6
CONTINUOUS
  62
7
  10
 188.87520105536
  20
 151.16500002964
  30
0.0
  11
 190.71056943344
  21
 151.16500002964
  31
0.0
   0
ARC
   5
4FD
 100
AcDbEntity
   8
0
   6
CONTINUOUS
  62
7
 100
AcDbCircle
  10
 190.71056943344
  20
 151.46500002964
  30
0.0
  40
 0.30000000000000
 100
AcDbArc
  50
 269.99999999962
  51
 344.05460409773
   0
POINT
   5
4FE
 100
AcDbEntity
   8
0
 100
AcDbPoint
  62
7
  10
 190.93685985726
  20
 151.16500002964
  30
0.0
   0
LINE
   5
4FF
 100
AcDbEntity
   8
0
 100
AcDbLine
   6
CONTINUOUS
  62
7
  10
 190.99902661773
  20
 151.38258369127
  30
0.0
  11
 191.93685985726
  21
 154.66500002964
  31
0.0
   0
LINE
   5
500
 100
AcDbEntity
   8
0
 100
AcDbLine
   6
CONTINUOUS
  62
7
  10
 175.33685985726
  20
 151.16500002964
  30
0.0
  11
 161.73685985726
  21
 151.16500002964
  31
0.0
   0
ARC
   5
501
 100
AcDbEntity
   8
0
   6
CONTINUOUS
  62
7
 100
AcDbCircle
  10
 161.73685985726
  20
 151.46500002964
  30
0.0
  40
 0.30000000000000
 100
AcDbArc
  50
 179.99999999985
  51
 270.00000000000
   0
POINT
   5
502
 100
AcDbEntity
   8
0
 100
AcDbPoint
  62
7
  10
 161.43685985726
  20
 151.16500002964
  30
0.0
   0
LINE
   5
503
 100
AcDbEntity
   8
0
 100
AcDbLine
   6
CONTINUOUS
  62
7
  10
 161.43685985726
  20
 151.46500002964
  30
0.0
  11
 161.43685985726
  21
 158.66500002964
  31
0.0
   0
LINE
   5
504
 100
AcDbEntity
   8
0
 100
AcDbLine
   6
CONTINUOUS
  62
7
  10
 165.73685985721
  20
 139.66500002964
  30
0.0
  11
 165.73685985721
  21
 151.16500002964
  31
0.0
   0
LINE
   5
505
 100
AcDbEntity
   8
0
 100
AcDbLine
   6
CONTINUOUS
  62
7
  10
 186.43685985721
  20
 139.16500002964
  30
0.0
  11
 166.23685985721
  21
 139.16500002964
  31
0.0
   0
ARC
   5
506
 100
AcDbEntity
   8
0
   6
CONTINUOUS
  62
7
 100
AcDbCircle
  10
 166.23685985721
  20
 139.66500002964
  30
0.0
  40
 0.50000000000000
 100
AcDbArc
  50
 179.99999999975
  51
 270.00000000000
   0
POINT
   5
507
 100
AcDbEntity
   8
0
 100
AcDbPoint
  62
7
  10
 165.73685985721
  20
 139.16500002964
  30
0.0
   0
LINE
   5
508
 100
AcDbEntity
   8
0
 100
AcDbLine
   6
DOT
  62
2
  10
 166.73685985721
  20
 139.16500002964
  30
0.0
  11
 166.73685985721
  21
 151.16500002964
  31
0.0
   0
LINE
   5
509
 100
AcDbEntity
   8
0
 100
AcDbLine
   6
CONTINUOUS
  62
7
  10
 186.93685985721
  20
 151.16500002964
  30
0.0
  11
 186.93685985721
  21
 139.66500002964
  31
0.0
   0
ARC
   5
50A
 100
AcDbEntity
   8
0
   6
CONTINUOUS
  62
7
 100
AcDbCircle
  10
 186.43685985721
  20
 139.66500002964
  30
0.0
  40
 0.50000000000000
 100
AcDbArc
  50
 270.00000000000
  51
0.0
   0
POINT
   5
50B
 100
AcDbEntity
   8
0
 100
AcDbPoint
  62
7
  10
 186.93685985721
  20
 139.16500002964
  30
0.0
   0
LINE
   5
50C
 100
AcDbEntity
   8
0
 100
AcDbLine
   6
DOT
  62
2
  10
 185.93685985721
  20
 151.16500002964
  30
0.0
  11
 185.93685985721
  21
 139.16500002964
  31
0.0
   0
LINE
   5
50D
 100
AcDbEntity
   8
0
 100
AcDbLine
   6
DASHDOT
  62
2
  10
 176.33685985726
  20
 135.22263392642
  30
0.0
  11
 176.33685985726
  21
 172.70070249432
  31
0.0
   0
LINE
   5
50E
 100
AcDbEntity
   8
0
 100
AcDbLine
   6
DOT
  62
2
  10
 55.199301259529
  20
 145.63110722918
  30
0.0
  11
 55.199301259529
  21
 125.43110722918
  31
0.0
   0
ARC
   5
50F
 100
AcDbEntity
   8
0
   6
DOT
  62
2
 100
AcDbCircle
  10
 54.699301259530
  20
 125.43110722918
  30
0.0
  40
 0.50000000000000
 100
AcDbArc
  50
 269.99999999986
  51
0.0
   0
POINT
   5
510
 100
AcDbEntity
   8
0
 100
AcDbPoint
  62
2
  10
 55.199301259529
  20
 124.93110722918
  30
0.0
   0
LINE
   5
511
 100
AcDbEntity
   8
0
 100
AcDbLine
   6
DOT
  62
2
  10
 52.199301259529
  20
 124.93110722918
  30
0.0
  11
 54.699301259529
  21
 124.93110722918
  31
0.0
   0
LINE
   5
512
 100
AcDbEntity
   8
0
 100
AcDbLine
   6
DOT
  62
2
  10
 64.499301259529
  20
 124.73110722918
  30
0.0
  11
 52.199301259529
  21
 124.73110722918
  31
0.0
   0
LINE
   5
513
 100
AcDbEntity
   8
0
 100
AcDbLine
   6
DOT
  62
2
  10
 64.699301259529
  20
 146.13110722918
  30
0.0
  11
 64.699301259529
  21
 124.93110722918
  31
0.0
   0
ARC
   5
514
 100
AcDbEntity
   8
0
   6
DOT
  62
2
 100
AcDbCircle
  10
 64.499301259531
  20
 124.93110722918
  30
0.0
  40
 0.20000000000000
 100
AcDbArc
  50
 269.99999999936
  51
0.0
   0
POINT
   5
515
 100
AcDbEntity
   8
0
 100
AcDbPoint
  62
2
  10
 64.699301259529
  20
 124.73110722918
  30
0.0
   0
ARC
   5
516
 100
AcDbEntity
   8
0
   6
DOT
  62
2
 100
AcDbCircle
  10
 64.499301259527
  20
 146.13110722918
  30
0.0
  40
 0.20000000000000
 100
AcDbArc
  50
 0.81422199844562E-11
  51
 89.999999999361
   0
POINT
   5
517
 100
AcDbEntity
   8
0
 100
AcDbPoint
  62
2
  10
 64.699301259529
  20
 146.33110722918
  30
0.0
   0
LINE
   5
518
 100
AcDbEntity
   8
0
 100
AcDbLine
   6
DOT
  62
2
  10
 64.499301259529
  20
 146.33110722918
  30
0.0
  11
 52.199301259529
  21
 146.33110722918
  31
0.0
   0
ARC
   5
519
 100
AcDbEntity
   8
0
   6
DOT
  62
2
 100
AcDbCircle
  10
 54.699301259528
  20
 145.63110722918
  30
0.0
  40
 0.50000000000000
 100
AcDbArc
  50
0.0
  51
 89.999999999945
   0
POINT
   5
51A
 100
AcDbEntity
   8
0
 100
AcDbPoint
  62
2
  10
 55.199301259529
  20
 146.13110722918
  30
0.0
   0
LINE
   5
51B
 100
AcDbEntity
   8
0
 100
AcDbLine
   6
DOT
  62
2
  10
 52.199301259529
  20
 146.13110722918
  30
0.0
  11
 54.699301259529
  21
 146.13110722918
  31
0.0
   0
LINE
   5
51C
 100
AcDbEntity
   8
0
 100
AcDbLine
   6
DOT
  62
2
  10
 56.699301259529
  20
 224.43083340179
  30
0.0
  11
 56.699301259529
  21
 203.23083340179
  31
0.0
   0
ARC
   5
51D
 100
AcDbEntity
   8
0
   6
DOT
  62
2
 100
AcDbCircle
  10
 56.499301259529
  20
 224.43083340179
  30
0.0
  40
 0.20000000000000
 100
AcDbArc
  50
0.0
  51
 90.000000000083
   0
POINT
   5
51E
 100
AcDbEntity
   8
0
 100
AcDbPoint
  62
2
  10
 56.699301259529
  20
 224.63083340179
  30
0.0
   0
LINE
   5
51F
 100
AcDbEntity
   8
0
 100
AcDbLine
   6
DOT
  62
2
  10
 56.499301259529
  20
 224.63083340179
  30
0.0
  11
 44.199301259529
  21
 224.63083340179
  31
0.0
   0
LINE
   5
520
 100
AcDbEntity
   8
0
 100
AcDbLine
   6
DOT
  62
2
  10
 56.499301259529
  20
 203.03083340179
  30
0.0
  11
 44.199301259529
  21
 203.03083340179
  31
0.0
   0
ARC
   5
521
 100
AcDbEntity
   8
0
   6
DOT
  62
2
 100
AcDbCircle
  10
 56.499301259538
  20
 203.23083340179
  30
0.0
  40
 0.20000000000000
 100
AcDbArc
  50
 269.99999999738
  51
0.0
   0
POINT
   5
522
 100
AcDbEntity
   8
0
 100
AcDbPoint
  62
2
  10
 56.699301259529
  20
 203.03083340179
  30
0.0
   0
LINE
   5
523
 100
AcDbEntity
   8
0
 100
AcDbLine
   6
DOT
  62
2
  10
 55.199301259529
  20
 223.93083340179
  30
0.0
  11
 55.199301259529
  21
 203.73083340179
  31
0.0
   0
ARC
   5
524
 100
AcDbEntity
   8
0
   6
DOT
  62
2
 100
AcDbCircle
  10
 54.699301259528
  20
 223.93083340179
  30
0.0
  40
 0.50000000000000
 100
AcDbArc
  50
0.0
  51
 89.999999999967
   0
POINT
   5
525
 100
AcDbEntity
   8
0
 100
AcDbPoint
  62
2
  10
 55.199301259529
  20
 224.43083340179
  30
0.0
   0
ARC
   5
526
 100
AcDbEntity
   8
0
   6
DOT
  62
2
 100
AcDbCircle
  10
 54.699301259528
  20
 203.73083340179
  30
0.0
  40
 0.50000000000000
 100
AcDbArc
  50
 270.00000000009
  51
0.0
   0
POINT
   5
527
 100
AcDbEntity
   8
0
 100
AcDbPoint
  62
2
  10
 55.199301259529
  20
 203.23083340179
  30
0.0
   0
LINE
   5
528
 100
AcDbEntity
   8
0
 100
AcDbLine
   6
DOT
  62
2
  10
 44.199301259529
  20
 224.43083340179
  30
0.0
  11
 54.699301259529
  21
 224.43083340179
  31
0.0
   0
LINE
   5
529
 100
AcDbEntity
   8
0
 100
AcDbLine
   6
DOT
  62
2
  10
 44.199301259529
  20
 203.23083340179
  30
0.0
  11
 54.699301259529
  21
 203.23083340179
  31
0.0
   0
LINE
   5
52A
 100
AcDbEntity
   8
0
 100
AcDbLine
   6
CONTINUOUS
  62
2
  10
 272.21609847909
  20
 210.90445171682
  30
0.0
  11
 280.21609847909
  21
 206.28564956330
  31
0.0
   0
LINE
   5
52B
 100
AcDbEntity
   8
0
 100
AcDbLine
   6
CONTINUOUS
  62
2
  10
 280.21609847909
  20
 206.28564956330
  30
0.0
  11
 272.21609847909
  21
 201.66684740979
  31
0.0
   0
LINE
   5
52C
 100
AcDbEntity
   8
0
 100
AcDbLine
   6
CONTINUOUS
  62
2
  10
 272.21609847909
  20
 201.66684740979
  30
0.0
  11
 272.21609847909
  21
 203.78564956330
  31
0.0
   0
LINE
   5
52D
 100
AcDbEntity
   8
0
 100
AcDbLine
   6
CONTINUOUS
  62
2
  10
 272.21609847909
  20
 210.90445171682
  30
0.0
  11
 272.21609847909
  21
 208.78564956330
  31
0.0
   0
LINE
   5
52E
 100
AcDbEntity
   8
0
 100
AcDbLine
   6
CONTINUOUS
  62
2
  10
 269.21609847909
  20
 208.78564956330
  30
0.0
  11
 272.21609847909
  21
 208.78564956330
  31
0.0
   0
LINE
   5
52F
 100
AcDbEntity
   8
0
 100
AcDbLine
   6
CONTINUOUS
  62
2
  10
 272.21609847909
  20
 203.78564956330
  30
0.0
  11
 269.21609847909
  21
 203.78564956330
  31
0.0
   0
LINE
   5
530
 100
AcDbEntity
   8
0
 100
AcDbLine
   6
CONTINUOUS
  62
2
  10
 290.92793847791
  20
 210.90445171682
  30
0.0
  11
 282.92793847791
  21
 206.28564956330
  31
0.0
   0
LINE
   5
531
 100
AcDbEntity
   8
0
 100
AcDbLine
   6
CONTINUOUS
  62
2
  10
 282.92793847791
  20
 206.28564956330
  30
0.0
  11
 290.92793847791
  21
 201.66684740979
  31
0.0
   0
LINE
   5
532
 100
AcDbEntity
   8
0
 100
AcDbLine
   6
CONTINUOUS
  62
2
  10
 290.92793847791
  20
 201.66684740979
  30
0.0
  11
 290.92793847791
  21
 203.78564956330
  31
0.0
   0
LINE
   5
533
 100
AcDbEntity
   8
0
 100
AcDbLine
   6
CONTINUOUS
  62
2
  10
 290.92793847791
  20
 210.90445171682
  30
0.0
  11
 290.92793847791
  21
 208.78564956330
  31
0.0
   0
LINE
   5
534
 100
AcDbEntity
   8
0
 100
AcDbLine
   6
CONTINUOUS
  62
2
  10
 293.92793847791
  20
 208.78564956330
  30
0.0
  11
 290.92793847791
  21
 208.78564956330
  31
0.0
   0
LINE
   5
535
 100
AcDbEntity
   8
0
 100
AcDbLine
   6
CONTINUOUS
  62
2
  10
 290.92793847791
  20
 203.78564956330
  30
0.0
  11
 293.92793847791
  21
 203.78564956330
  31
0.0
   0
LINE
   5
536
 100
AcDbEntity
   8
0
 100
AcDbLine
   6
CONTINUOUS
  62
3
  10
 228.41198317335
  20
 40.623482664101
  30
0.0
  11
 228.41198317335
  21
 10.623482664101
  31
0.0
   0
TEXT
   5
537
 100
AcDbEntity
   8
0
  62
6
 100
AcDbText
  10
 265.84066013491
  20
 13.623482664101
  30
0.0
  40
 4.0000000000000
   1
 工藤
   7
STANDARD
 100
AcDbText
   0
TEXT
   5
538
 100
AcDbEntity
   8
0
  62
6
 100
AcDbText
  10
 248.50597589093
  20
 13.623482664101
  30
0.0
  40
 4.0000000000000
   1
 小見
   7
STANDARD
 100
AcDbText
   0
TEXT
   5
539
 100
AcDbEntity
   8
0
  62
6
 100
AcDbText
  10
 231.11710809391
  20
 13.623482664101
  30
0.0
  40
 4.0000000000000
   1
 田口
   7
STANDARD
 100
AcDbText
   0
TEXT
   5
53A
 100
AcDbEntity
   8
0
  62
3
 100
AcDbText
  10
 254.08921373390
  20
 34.547198251772
  30
0.0
  40
 3.8000000000000
   1
／
  41
 0.78947368421053
   7
STANDARD
 100
AcDbText
   0
TEXT
   5
53B
 100
AcDbEntity
   8
0
  62
3
 100
AcDbText
  10
 266.37675801974
  20
 34.547198251772
  30
0.0
  40
 3.8000000000000
   1
／
  41
 0.78947368421053
   7
STANDARD
 100
AcDbText
   0
TEXT
   5
53C
 100
AcDbEntity
   8
0
  62
3
 100
AcDbText
  10
 266.61640595996
  20
 29.107349206730
  30
0.0
  40
 3.0000000000000
   1
ＤＷＮ．
   7
STANDARD
  72
1
  11
 272.61640595996
  21
 30.607349206730
  31
0.0
 100
AcDbText
  73
2
   0
TEXT
   5
53D
 100
AcDbEntity
   8
0
  62
3
 100
AcDbText
  10
 247.53332187543
  20
 29.107349206730
  30
0.0
  40
 3.0000000000000
   1
ＣＨＫＤ．
   7
STANDARD
  72
1
  11
 255.03332187543
  21
 30.607349206730
  31
0.0
 100
AcDbText
  73
2
   0
TEXT
   5
53E
 100
AcDbEntity
   8
0
  62
3
 100
AcDbText
  10
 230.47773031344
  20
 29.107349206730
  30
0.0
  40
 3.0000000000000
   1
ＡＰＰＤ．
   7
STANDARD
  72
1
  11
 237.97773031344
  21
 30.607349206730
  31
0.0
 100
AcDbText
  73
2
   0
TEXT
   5
53F
 100
AcDbEntity
   8
0
  62
3
 100
AcDbText
  10
 229.44990547429
  20
 37.426836655555
  30
0.0
  40
 2.5000000000000
   1
ＤＡＴＥ　
   7
STANDARD
  72
1
  11
 235.69990547429
  21
 38.676836655555
  31
0.0
 100
AcDbText
  73
2
   0
TEXT
   5
540
 100
AcDbEntity
   8
0
  62
6
 100
AcDbText
  10
 229.88223017113
  20
 10.623482664101
  30
0.0
  40
 3.0000000000000
   1
2021.07.16
  41
 0.50000000000000
   7
STANDARD
 100
AcDbText
   0
TEXT
   5
541
 100
AcDbEntity
   8
0
  62
6
 100
AcDbText
  10
 247.21556350446
  20
 10.623482664101
  30
0.0
  40
 3.0000000000000
   1
2021.07.16
  41
 0.50000000000000
   7
STANDARD
 100
AcDbText
   0
TEXT
   5
542
 100
AcDbEntity
   8
0
  62
6
 100
AcDbText
  10
 264.54889683780
  20
 10.623482664101
  30
0.0
  40
 3.0000000000000
   1
2021.07.16
  41
 0.50000000000000
   7
STANDARD
 100
AcDbText
   0
TEXT
   5
543
 100
AcDbEntity
   8
0
  62
7
 100
AcDbText
  10
 344.01329241905
  20
 10.344329463407
  30
0.0
  40
 11.000000000000
   1
Ｋ３-００２１５７
  41
 0.50000000000000
   7
STANDARD
 100
AcDbText
   0
LEADER
   5
544
 100
AcDbEntity
   8
0
   6
CONTINUOUS
  62
2
 100
AcDbLeader
   3
GMM005
  73
0
  74
1
  75
0
  40
 4.0000000000000
  41
 12.000000000000
  76
2
  10
 172.25199998021
  20
 202.85207757465
  30
0.0
  10
 166.30286862473
  20
 185.47349430105
  30
0.0
  77
2
 340
545
 213
 12.000000000000
 223
 2.0000000000000
 233
0.0
   0
MTEXT
   5
545
 102
{ACAD_REACTORS
 330
544
 102
}
 100
AcDbEntity
   8
0
  62
2
 100
AcDbMText
  10
 154.30286862473
  20
 183.47349430105
  30
0.0
  40
 4.0000000000000
  41
0.0
  71
7
  72
1
   1
\A1;シボ面
   7
GMM001
   0
LINE
   5
546
 100
AcDbEntity
   8
0
 100
AcDbLine
   6
CONTINUOUS
  62
7
  10
 244.30919556818
  20
 221.18564956330
  30
0.0
  11
 231.30919556818
  21
 221.18564956330
  31
0.0
   0
LINE
   5
547
 100
AcDbEntity
   8
0
 100
AcDbLine
   6
CONTINUOUS
  62
7
  10
 232.80919556818
  20
 221.15205464321
  30
0.0
  11
 232.80919556818
  21
 221.18564956330
  31
0.0
   0
LINE
   5
548
 100
AcDbEntity
   8
0
 100
AcDbLine
   6
CONTINUOUS
  62
7
  10
 232.80919556818
  20
 221.15205464321
  30
0.0
  11
 244.48937964472
  21
 221.15205464321
  31
0.0
   0
LINE
   5
549
 100
AcDbEntity
   8
0
 100
AcDbLine
   6
DOT
  62
7
  10
 243.75919556818
  20
 221.18564956330
  30
0.0
  11
 244.76122396548
  21
 220.89935573550
  31
0.0
   0
ARC
   5
54A
 100
AcDbEntity
   8
0
   6
CONTINUOUS
  62
7
 100
AcDbCircle
  10
 244.30919556818
  20
 220.68564956330
  30
0.0
  40
 0.50000000000000
 100
AcDbArc
  50
0.0
  51
 89.999999999694
   0
LINE
   5
54B
 100
AcDbEntity
   8
0
 100
AcDbLine
   6
CONTINUOUS
  62
7
  10
 244.76122396548
  20
 220.89935573550
  30
0.0
  11
 244.80919556818
  21
 220.88564956330
  31
0.0
   0
LINE
   5
54C
 100
AcDbEntity
   8
0
 100
AcDbLine
   6
CONTINUOUS
  62
7
  10
 230.60919556818
  20
 223.78564956330
  30
0.0
  11
 230.60919556818
  21
 206.28564956330
  31
0.0
   0
LINE
   5
54D
 100
AcDbEntity
   8
0
 100
AcDbLine
   6
CONTINUOUS
  62
7
  10
 231.30919556818
  20
 223.78564956330
  30
0.0
  11
 231.30919556818
  21
 206.28564956330
  31
0.0
   0
LWPOLYLINE
   5
54E
 100
AcDbEntity
   8
0
   6
CONTINUOUS
  62
7
 100
AcDbPolyline
  90
4
  70
0
  10
 229.80919556818
  20
 206.28564956330
  10
 229.80919556818
  20
 222.98564956330
  10
 230.60919556818
  20
 223.78564956330
  10
 231.30919556818
  20
 223.78564956330
   0
LINE
   5
54F
 100
AcDbEntity
   8
0
 100
AcDbLine
   6
CONTINUOUS
  62
7
  10
 230.60919556818
  20
 188.78564956330
  30
0.0
  11
 230.60919556818
  21
 206.28564956330
  31
0.0
   0
LINE
   5
550
 100
AcDbEntity
   8
0
 100
AcDbLine
   6
CONTINUOUS
  62
7
  10
 231.30919556818
  20
 188.78564956330
  30
0.0
  11
 231.30919556818
  21
 206.28564956330
  31
0.0
   0
LWPOLYLINE
   5
551
 100
AcDbEntity
   8
0
   6
CONTINUOUS
  62
7
 100
AcDbPolyline
  90
4
  70
0
  10
 229.80919556818
  20
 206.28564956330
  10
 229.80919556818
  20
 189.58564956330
  10
 230.60919556818
  20
 188.78564956330
  10
 231.30919556818
  20
 188.78564956330
   0
ARC
   5
552
 100
AcDbEntity
   8
0
   6
CONTINUOUS
  62
7
 100
AcDbCircle
  10
 244.30919556819
  20
 191.88564956330
  30
0.0
  40
 0.50000000000000
 100
AcDbArc
  50
 269.99999999980
  51
0.0
   0
LINE
   5
553
 100
AcDbEntity
   8
0
 100
AcDbLine
   6
CONTINUOUS
  62
7
  10
 244.30919556818
  20
 191.38564956330
  30
0.0
  11
 231.30919556818
  21
 191.38564956330
  31
0.0
   0
LINE
   5
554
 100
AcDbEntity
   8
0
 100
AcDbLine
   6
DOT
  62
7
  10
 243.75919556818
  20
 191.38564956330
  30
0.0
  11
 244.44655613213
  21
 191.58203829586
  31
0.0
   0
LINE
   5
555
 100
AcDbEntity
   8
0
 100
AcDbLine
   6
CONTINUOUS
  62
7
  10
 232.80919556818
  20
 191.41924448339
  30
0.0
  11
 232.80919556818
  21
 191.38564956330
  31
0.0
   0
LINE
   5
556
 100
AcDbEntity
   8
0
 100
AcDbLine
   6
CONTINUOUS
  62
7
  10
 235.30919556818
  20
 214.58487750699
  30
0.0
  11
 235.30919556818
  21
 221.15205464321
  31
0.0
   0
LINE
   5
557
 100
AcDbEntity
   8
0
 100
AcDbLine
   6
CONTINUOUS
  62
7
  10
 237.30919556818
  20
 214.58487750699
  30
0.0
  11
 237.30919556818
  21
 221.15205464321
  31
0.0
   0
LINE
   5
558
 100
AcDbEntity
   8
0
 100
AcDbLine
   6
CONTINUOUS
  62
7
  10
 235.30919556818
  20
 197.98642161961
  30
0.0
  11
 235.30919556818
  21
 191.41924448339
  31
0.0
   0
LINE
   5
559
 100
AcDbEntity
   8
0
 100
AcDbLine
   6
CONTINUOUS
  62
7
  10
 237.30919556818
  20
 197.98642161961
  30
0.0
  11
 237.30919556818
  21
 191.41924448339
  31
0.0
   0
LINE
   5
55A
 100
AcDbEntity
   8
0
 100
AcDbLine
   6
CONTINUOUS
  62
7
  10
 232.80919556818
  20
 191.41924448339
  30
0.0
  11
 244.48937964473
  21
 191.41924448339
  31
0.0
   0
ARC
   5
55B
 100
AcDbEntity
   8
0
   6
CONTINUOUS
  62
7
 100
AcDbCircle
  10
 233.80919556818
  20
 213.58487750699
  30
0.0
  40
 1.0000000000000
 100
AcDbArc
  50
 90.000000000003
  51
 180.00000000000
   0
POINT
   5
55C
 100
AcDbEntity
   8
0
 100
AcDbPoint
  62
7
  10
 232.80919556818
  20
 214.58487750699
  30
0.0
   0
LINE
   5
55D
 100
AcDbEntity
   8
0
 100
AcDbLine
   6
CONTINUOUS
  62
7
  10
 233.80919556818
  20
 214.58487750699
  30
0.0
  11
 244.80919556818
  21
 214.58487750699
  31
0.0
   0
ARC
   5
55E
 100
AcDbEntity
   8
0
   6
CONTINUOUS
  62
7
 100
AcDbCircle
  10
 233.80919556818
  20
 198.98642161961
  30
0.0
  40
 1.0000000000000
 100
AcDbArc
  50
 180.00000000000
  51
 270.00000000002
   0
POINT
   5
55F
 100
AcDbEntity
   8
0
 100
AcDbPoint
  62
7
  10
 232.80919556818
  20
 197.98642161961
  30
0.0
   0
LINE
   5
560
 100
AcDbEntity
   8
0
 100
AcDbLine
   6
CONTINUOUS
  62
7
  10
 233.80919556818
  20
 197.98642161961
  30
0.0
  11
 244.80919556818
  21
 197.98642161961
  31
0.0
   0
LINE
   5
561
 100
AcDbEntity
   8
0
 100
AcDbLine
   6
DOT
  62
7
  10
 243.75919556818
  20
 191.38564956330
  30
0.0
  11
 244.76122396548
  21
 191.67194339110
  31
0.0
   0
LINE
   5
562
 100
AcDbEntity
   8
0
 100
AcDbLine
   6
CONTINUOUS
  62
7
  10
 235.30919556818
  20
 214.83542405210
  30
0.0
  11
 237.30919556818
  21
 214.58487750699
  31
0.0
   0
LINE
   5
563
 100
AcDbEntity
   8
0
 100
AcDbLine
   6
CONTINUOUS
  62
7
  10
 232.80919556818
  20
 213.58226591978
  30
0.0
  11
 244.80919556818
  21
 213.58226591978
  31
0.0
   0
LINE
   5
564
 100
AcDbEntity
   8
0
 100
AcDbLine
   6
CONTINUOUS
  62
7
  10
 232.80919556818
  20
 213.58487750699
  30
0.0
  11
 232.80919556818
  21
 213.28564956330
  31
0.0
   0
ARC
   5
565
 100
AcDbEntity
   8
0
   6
CONTINUOUS
  62
7
 100
AcDbCircle
  10
 233.80919556819
  20
 213.28564956330
  30
0.0
  40
 1.0000000000000
 100
AcDbArc
  50
 180.00000000000
  51
 269.99999999987
   0
POINT
   5
566
 100
AcDbEntity
   8
0
 100
AcDbPoint
  62
7
  10
 232.80919556818
  20
 212.28564956330
  30
0.0
   0
LINE
   5
567
 100
AcDbEntity
   8
0
 100
AcDbLine
   6
CONTINUOUS
  62
7
  10
 233.80919556818
  20
 212.28564956330
  30
0.0
  11
 244.80919556818
  21
 212.28564956330
  31
0.0
   0
LINE
   5
568
 100
AcDbEntity
   8
0
 100
AcDbLine
   6
CONTINUOUS
  62
7
  10
 233.80919556818
  20
 200.28564956330
  30
0.0
  11
 244.80919556818
  21
 200.28564956330
  31
0.0
   0
ARC
   5
569
 100
AcDbEntity
   8
0
   6
CONTINUOUS
  62
7
 100
AcDbCircle
  10
 233.80919556818
  20
 199.28564956330
  30
0.0
  40
 1.0000000000000
 100
AcDbArc
  50
 90.000000000000
  51
 179.99999999993
   0
POINT
   5
56A
 100
AcDbEntity
   8
0
 100
AcDbPoint
  62
7
  10
 232.80919556818
  20
 200.28564956330
  30
0.0
   0
LINE
   5
56B
 100
AcDbEntity
   8
0
 100
AcDbLine
   6
CONTINUOUS
  62
7
  10
 232.80919556818
  20
 199.28564956330
  30
0.0
  11
 232.80919556818
  21
 198.98642161961
  31
0.0
   0
LINE
   5
56C
 100
AcDbEntity
   8
0
 100
AcDbLine
   6
CONTINUOUS
  62
7
  10
 241.30919556818
  20
 212.28564956330
  30
0.0
  11
 241.30919556818
  21
 200.28564956330
  31
0.0
   0
LINE
   5
56D
 100
AcDbEntity
   8
0
 100
AcDbLine
   6
CONTINUOUS
  62
7
  10
 239.30919556818
  20
 212.28564956330
  30
0.0
  11
 239.30919556818
  21
 200.28564956330
  31
0.0
   0
LINE
   5
56E
 100
AcDbEntity
   8
0
 100
AcDbLine
   6
CONTINUOUS
  62
7
  10
 237.30919556818
  20
 212.28564956330
  30
0.0
  11
 237.30919556818
  21
 200.28564956330
  31
0.0
   0
LINE
   5
56F
 100
AcDbEntity
   8
0
 100
AcDbLine
   6
CONTINUOUS
  62
7
  10
 235.30919556818
  20
 200.28564956330
  30
0.0
  11
 235.30919556818
  21
 212.28564956330
  31
0.0
   0
LINE
   5
570
 100
AcDbEntity
   8
0
 100
AcDbLine
   6
CONTINUOUS
  62
7
  10
 235.30919556818
  20
 197.73587507451
  30
0.0
  11
 237.30919556818
  21
 197.98642161961
  31
0.0
   0
LINE
   5
571
 100
AcDbEntity
   8
0
 100
AcDbLine
   6
CONTINUOUS
  62
7
  10
 232.80919556818
  20
 198.98903320682
  30
0.0
  11
 244.80919556818
  21
 198.98903320682
  31
0.0
   0
LINE
   5
572
 100
AcDbEntity
   8
0
 100
AcDbLine
   6
CONTINUOUS
  62
7
  10
 240.30919556818
  20
 213.58226591978
  30
0.0
  11
 240.30919556818
  21
 212.28564956330
  31
0.0
   0
LINE
   5
573
 100
AcDbEntity
   8
0
 100
AcDbLine
   6
CONTINUOUS
  62
7
  10
 242.30919556818
  20
 213.58226591978
  30
0.0
  11
 242.30919556818
  21
 212.28564956330
  31
0.0
   0
LINE
   5
574
 100
AcDbEntity
   8
0
 100
AcDbLine
   6
CONTINUOUS
  62
7
  10
 240.30919556818
  20
 198.98903320682
  30
0.0
  11
 240.30919556818
  21
 200.28564956330
  31
0.0
   0
LINE
   5
575
 100
AcDbEntity
   8
0
 100
AcDbLine
   6
CONTINUOUS
  62
7
  10
 242.30919556818
  20
 200.28564956330
  30
0.0
  11
 242.30919556818
  21
 198.98903320682
  31
0.0
   0
LINE
   5
576
 100
AcDbEntity
   8
0
 100
AcDbLine
   6
CONTINUOUS
  62
7
  10
 244.76122396548
  20
 191.67194339110
  30
0.0
  11
 244.80919556818
  21
 191.68564956330
  31
0.0
   0
LINE
   5
577
 100
AcDbEntity
   8
0
 100
AcDbLine
   6
CONTINUOUS
  62
7
  10
 244.80919556818
  20
 206.28564956330
  30
0.0
  11
 244.80919556818
  21
 212.28564956330
  31
0.0
   0
LINE
   5
578
 100
AcDbEntity
   8
0
 100
AcDbLine
   6
CONTINUOUS
  62
7
  10
 244.80919556818
  20
 206.28564956330
  30
0.0
  11
 244.80919556818
  21
 200.28564956330
  31
0.0
   0
LINE
   5
579
 100
AcDbEntity
   8
0
 100
AcDbLine
   6
CONTINUOUS
  62
7
  10
 244.80919556818
  20
 214.58487750699
  30
0.0
  11
 244.80919556818
  21
 220.88564956330
  31
0.0
   0
LINE
   5
57A
 100
AcDbEntity
   8
0
 100
AcDbLine
   6
CONTINUOUS
  62
7
  10
 244.80919556818
  20
 197.98642161961
  30
0.0
  11
 244.80919556818
  21
 191.68564956330
  31
0.0
   0
LINE
   5
57B
 100
AcDbEntity
   8
0
 100
AcDbLine
   6
CONTINUOUS
  62
7
  10
 244.80919556818
  20
 213.58226591978
  30
0.0
  11
 244.80919556818
  21
 214.58487750699
  31
0.0
   0
LINE
   5
57C
 100
AcDbEntity
   8
0
 100
AcDbLine
   6
CONTINUOUS
  62
7
  10
 244.80919556818
  20
 197.98642161961
  30
0.0
  11
 244.80919556818
  21
 198.98903320682
  31
0.0
   0
LINE
   5
57D
 100
AcDbEntity
   8
0
 100
AcDbLine
   6
CONTINUOUS
  62
7
  10
 244.80919556818
  20
 198.98903320682
  30
0.0
  11
 244.80919556818
  21
 200.28564956330
  31
0.0
   0
LINE
   5
57E
 100
AcDbEntity
   8
0
 100
AcDbLine
   6
CONTINUOUS
  62
7
  10
 244.80919556818
  20
 213.58226591978
  30
0.0
  11
 244.80919556818
  21
 212.28564956330
  31
0.0
   0
LINE
   5
57F
 100
AcDbEntity
   8
0
 100
AcDbLine
   6
CONTINUOUS
  62
7
  10
 244.80919556818
  20
 216.88564956330
  30
0.0
  11
 256.30919556818
  21
 216.88564956330
  31
0.0
   0
LINE
   5
580
 100
AcDbEntity
   8
0
 100
AcDbLine
   6
CONTINUOUS
  62
7
  10
 244.80919556818
  20
 195.68564956330
  30
0.0
  11
 256.30919556818
  21
 195.68564956330
  31
0.0
   0
POINT
   5
581
 100
AcDbEntity
   8
0
 100
AcDbPoint
  62
7
  10
 256.80919556818
  20
 196.68564956330
  30
0.0
   0
POINT
   5
582
 100
AcDbEntity
   8
0
 100
AcDbPoint
  62
7
  10
 256.80919556818
  20
 215.88564956330
  30
0.0
   0
LINE
   5
583
 100
AcDbEntity
   8
0
 100
AcDbLine
   6
CONTINUOUS
  62
7
  10
 256.80919556818
  20
 216.38564956330
  30
0.0
  11
 256.80919556818
  21
 196.18564956330
  31
0.0
   0
ARC
   5
584
 100
AcDbEntity
   8
0
   6
CONTINUOUS
  62
7
 100
AcDbCircle
  10
 256.30919556817
  20
 216.38564956330
  30
0.0
  40
 0.50000000000000
 100
AcDbArc
  50
0.0
  51
 89.999999998749
   0
POINT
   5
585
 100
AcDbEntity
   8
0
 100
AcDbPoint
  62
7
  10
 256.80919556818
  20
 216.88564956330
  30
0.0
   0
ARC
   5
586
 100
AcDbEntity
   8
0
   6
CONTINUOUS
  62
7
 100
AcDbCircle
  10
 256.30919556818
  20
 196.18564956330
  30
0.0
  40
 0.50000000000000
 100
AcDbArc
  50
 270.00000000083
  51
0.0
   0
POINT
   5
587
 100
AcDbEntity
   8
0
 100
AcDbPoint
  62
7
  10
 256.80919556818
  20
 195.68564956330
  30
0.0
   0
DIMENSION
   5
588
 100
AcDbEntity
   8
0
   6
CONTINUOUS
  62
2
 100
AcDbDimension
   2
*D17
  10
 244.80919556818
  20
 228.60217988717
  30
0.0
  11
 238.05919556818
  21
 228.60217988717
  31
0.0
  70
0
   3
GMM008
 100
AcDbAlignedDimension
  13
 231.30919556818
  23
 223.78564956324
  33
0.0
  14
 244.80919556818
  24
 220.88564956324
  34
0.0
 100
AcDbRotatedDimension
   0
DIMENSION
   5
589
 100
AcDbEntity
   8
0
   6
CONTINUOUS
  62
2
 100
AcDbDimension
   2
*D18
  10
 256.80919556818
  20
 228.60217988717
  30
0.0
  11
 250.80919556818
  21
 228.60217988717
  31
0.0
  70
0
   3
GMM008
 100
AcDbAlignedDimension
  13
 244.80919556818
  23
 220.88564956324
  33
0.0
  14
 256.80919556818
  24
 216.88564956324
  34
0.0
 100
AcDbRotatedDimension
   0
LINE
   5
58A
 100
AcDbEntity
   8
0
 100
AcDbLine
   6
CONTINUOUS
  62
7
  10
 322.06940733656
  20
 223.78564956330
  30
0.0
  11
 322.06940733656
  21
 206.28564956330
  31
0.0
   0
LINE
   5
58B
 100
AcDbEntity
   8
0
 100
AcDbLine
   6
CONTINUOUS
  62
7
  10
 321.36940733656
  20
 223.78564956330
  30
0.0
  11
 321.36940733656
  21
 206.28564956330
  31
0.0
   0
LWPOLYLINE
   5
58C
 100
AcDbEntity
   8
0
   6
CONTINUOUS
  62
7
 100
AcDbPolyline
  90
4
  70
0
  10
 322.86940733656
  20
 206.28564956330
  10
 322.86940733656
  20
 222.98564956330
  10
 322.06940733656
  20
 223.78564956330
  10
 321.36940733656
  20
 223.78564956330
   0
LINE
   5
58D
 100
AcDbEntity
   8
0
 100
AcDbLine
   6
CONTINUOUS
  62
7
  10
 322.06940733656
  20
 188.78564956330
  30
0.0
  11
 322.06940733656
  21
 206.28564956330
  31
0.0
   0
LINE
   5
58E
 100
AcDbEntity
   8
0
 100
AcDbLine
   6
CONTINUOUS
  62
7
  10
 321.36940733656
  20
 188.78564956330
  30
0.0
  11
 321.36940733656
  21
 206.28564956330
  31
0.0
   0
LWPOLYLINE
   5
58F
 100
AcDbEntity
   8
0
   6
CONTINUOUS
  62
7
 100
AcDbPolyline
  90
4
  70
0
  10
 322.86940733656
  20
 206.28564956330
  10
 322.86940733656
  20
 189.58564956330
  10
 322.06940733656
  20
 188.78564956330
  10
 321.36940733656
  20
 188.78564956330
   0
ARC
   5
590
 100
AcDbEntity
   8
0
   6
CONTINUOUS
  62
7
 100
AcDbCircle
  10
 308.36940733656
  20
 191.88564956330
  30
0.0
  40
 0.50000000000000
 100
AcDbArc
  50
 180.00000000000
  51
 270.00000000056
   0
LINE
   5
591
 100
AcDbEntity
   8
0
 100
AcDbLine
   6
CONTINUOUS
  62
7
  10
 308.36940733656
  20
 191.38564956330
  30
0.0
  11
 321.36940733656
  21
 191.38564956330
  31
0.0
   0
LINE
   5
592
 100
AcDbEntity
   8
0
 100
AcDbLine
   6
CONTINUOUS
  62
7
  10
 308.36940733656
  20
 221.18564956330
  30
0.0
  11
 321.36940733656
  21
 221.18564956330
  31
0.0
   0
LINE
   5
593
 100
AcDbEntity
   8
0
 100
AcDbLine
   6
DOT
  62
7
  10
 308.91940733656
  20
 191.38564956330
  30
0.0
  11
 308.23204677262
  21
 191.58203829586
  31
0.0
   0
LINE
   5
594
 100
AcDbEntity
   8
0
 100
AcDbLine
   6
CONTINUOUS
  62
7
  10
 319.86940733656
  20
 221.15205464321
  30
0.0
  11
 319.86940733656
  21
 221.18564956330
  31
0.0
   0
LINE
   5
595
 100
AcDbEntity
   8
0
 100
AcDbLine
   6
CONTINUOUS
  62
7
  10
 319.86940733656
  20
 191.41924448339
  30
0.0
  11
 319.86940733656
  21
 191.38564956330
  31
0.0
   0
LINE
   5
596
 100
AcDbEntity
   8
0
 100
AcDbLine
   6
CONTINUOUS
  62
7
  10
 317.36940733656
  20
 214.58487750699
  30
0.0
  11
 317.36940733656
  21
 221.15205464321
  31
0.0
   0
LINE
   5
597
 100
AcDbEntity
   8
0
 100
AcDbLine
   6
CONTINUOUS
  62
7
  10
 315.36940733656
  20
 214.58487750699
  30
0.0
  11
 315.36940733656
  21
 221.15205464321
  31
0.0
   0
LINE
   5
598
 100
AcDbEntity
   8
0
 100
AcDbLine
   6
CONTINUOUS
  62
7
  10
 317.36940733656
  20
 197.98642161961
  30
0.0
  11
 317.36940733656
  21
 191.41924448339
  31
0.0
   0
LINE
   5
599
 100
AcDbEntity
   8
0
 100
AcDbLine
   6
CONTINUOUS
  62
7
  10
 315.36940733656
  20
 197.98642161961
  30
0.0
  11
 315.36940733656
  21
 191.41924448339
  31
0.0
   0
LINE
   5
59A
 100
AcDbEntity
   8
0
 100
AcDbLine
   6
CONTINUOUS
  62
7
  10
 319.86940733656
  20
 221.15205464321
  30
0.0
  11
 308.18922326002
  21
 221.15205464321
  31
0.0
   0
LINE
   5
59B
 100
AcDbEntity
   8
0
 100
AcDbLine
   6
CONTINUOUS
  62
7
  10
 319.86940733656
  20
 191.41924448339
  30
0.0
  11
 308.18922326002
  21
 191.41924448339
  31
0.0
   0
ARC
   5
59C
 100
AcDbEntity
   8
0
   6
CONTINUOUS
  62
7
 100
AcDbCircle
  10
 318.86940733656
  20
 213.58487750699
  30
0.0
  40
 1.0000000000000
 100
AcDbArc
  50
0.0
  51
 89.999999999915
   0
POINT
   5
59D
 100
AcDbEntity
   8
0
 100
AcDbPoint
  62
7
  10
 319.86940733656
  20
 214.58487750699
  30
0.0
   0
LINE
   5
59E
 100
AcDbEntity
   8
0
 100
AcDbLine
   6
CONTINUOUS
  62
7
  10
 318.86940733656
  20
 214.58487750699
  30
0.0
  11
 307.86940733656
  21
 214.58487750699
  31
0.0
   0
ARC
   5
59F
 100
AcDbEntity
   8
0
   6
CONTINUOUS
  62
7
 100
AcDbCircle
  10
 318.86940733656
  20
 198.98642161961
  30
0.0
  40
 1.0000000000000
 100
AcDbArc
  50
 270.00000000007
  51
0.0
   0
POINT
   5
5A0
 100
AcDbEntity
   8
0
 100
AcDbPoint
  62
7
  10
 319.86940733656
  20
 197.98642161961
  30
0.0
   0
LINE
   5
5A1
 100
AcDbEntity
   8
0
 100
AcDbLine
   6
CONTINUOUS
  62
7
  10
 318.86940733656
  20
 197.98642161961
  30
0.0
  11
 307.86940733656
  21
 197.98642161961
  31
0.0
   0
LINE
   5
5A2
 100
AcDbEntity
   8
0
 100
AcDbLine
   6
DOT
  62
7
  10
 308.91940733656
  20
 221.18564956330
  30
0.0
  11
 307.91737893927
  21
 220.89935573550
  31
0.0
   0
ARC
   5
5A3
 100
AcDbEntity
   8
0
   6
CONTINUOUS
  62
7
 100
AcDbCircle
  10
 308.36940733656
  20
 220.68564956330
  30
0.0
  40
 0.50000000000000
 100
AcDbArc
  50
 89.999999999948
  51
 180.00000000001
   0
LINE
   5
5A4
 100
AcDbEntity
   8
0
 100
AcDbLine
   6
CONTINUOUS
  62
7
  10
 307.91737893927
  20
 220.89935573550
  30
0.0
  11
 307.86940733656
  21
 220.88564956330
  31
0.0
   0
LINE
   5
5A5
 100
AcDbEntity
   8
0
 100
AcDbLine
   6
DOT
  62
7
  10
 308.91940733656
  20
 191.38564956330
  30
0.0
  11
 307.91737893927
  21
 191.67194339110
  31
0.0
   0
LINE
   5
5A6
 100
AcDbEntity
   8
0
 100
AcDbLine
   6
CONTINUOUS
  62
7
  10
 307.91737893927
  20
 191.67194339110
  30
0.0
  11
 307.86940733656
  21
 191.68564956330
  31
0.0
   0
LINE
   5
5A7
 100
AcDbEntity
   8
0
 100
AcDbLine
   6
CONTINUOUS
  62
7
  10
 317.36940733656
  20
 214.83542405210
  30
0.0
  11
 315.36940733656
  21
 214.58487750699
  31
0.0
   0
LINE
   5
5A8
 100
AcDbEntity
   8
0
 100
AcDbLine
   6
CONTINUOUS
  62
7
  10
 319.86940733656
  20
 213.58226591978
  30
0.0
  11
 307.86940733656
  21
 213.58226591978
  31
0.0
   0
LINE
   5
5A9
 100
AcDbEntity
   8
0
 100
AcDbLine
   6
CONTINUOUS
  62
7
  10
 319.86940733656
  20
 213.58487750699
  30
0.0
  11
 319.86940733656
  21
 213.28564956330
  31
0.0
   0
ARC
   5
5AA
 100
AcDbEntity
   8
0
   6
CONTINUOUS
  62
7
 100
AcDbCircle
  10
 318.86940733656
  20
 213.28564956330
  30
0.0
  40
 1.0000000000000
 100
AcDbArc
  50
 270.00000000021
  51
0.0
   0
POINT
   5
5AB
 100
AcDbEntity
   8
0
 100
AcDbPoint
  62
7
  10
 319.86940733656
  20
 212.28564956330
  30
0.0
   0
LINE
   5
5AC
 100
AcDbEntity
   8
0
 100
AcDbLine
   6
CONTINUOUS
  62
7
  10
 318.86940733656
  20
 212.28564956330
  30
0.0
  11
 307.86940733656
  21
 212.28564956330
  31
0.0
   0
LINE
   5
5AD
 100
AcDbEntity
   8
0
 100
AcDbLine
   6
CONTINUOUS
  62
7
  10
 307.86940733656
  20
 206.28564956330
  30
0.0
  11
 307.86940733656
  21
 212.28564956330
  31
0.0
   0
LINE
   5
5AE
 100
AcDbEntity
   8
0
 100
AcDbLine
   6
CONTINUOUS
  62
7
  10
 318.86940733656
  20
 200.28564956330
  30
0.0
  11
 307.86940733656
  21
 200.28564956330
  31
0.0
   0
ARC
   5
5AF
 100
AcDbEntity
   8
0
   6
CONTINUOUS
  62
7
 100
AcDbCircle
  10
 318.86940733656
  20
 199.28564956330
  30
0.0
  40
 1.0000000000000
 100
AcDbArc
  50
0.0
  51
 90.000000000000
   0
POINT
   5
5B0
 100
AcDbEntity
   8
0
 100
AcDbPoint
  62
7
  10
 319.86940733656
  20
 200.28564956330
  30
0.0
   0
LINE
   5
5B1
 100
AcDbEntity
   8
0
 100
AcDbLine
   6
CONTINUOUS
  62
7
  10
 319.86940733656
  20
 199.28564956330
  30
0.0
  11
 319.86940733656
  21
 198.98642161961
  31
0.0
   0
LINE
   5
5B2
 100
AcDbEntity
   8
0
 100
AcDbLine
   6
CONTINUOUS
  62
7
  10
 307.86940733656
  20
 206.28564956330
  30
0.0
  11
 307.86940733656
  21
 200.28564956330
  31
0.0
   0
LINE
   5
5B3
 100
AcDbEntity
   8
0
 100
AcDbLine
   6
CONTINUOUS
  62
7
  10
 311.36940733656
  20
 212.28564956330
  30
0.0
  11
 311.36940733656
  21
 200.28564956330
  31
0.0
   0
LINE
   5
5B4
 100
AcDbEntity
   8
0
 100
AcDbLine
   6
CONTINUOUS
  62
7
  10
 313.36940733656
  20
 212.28564956330
  30
0.0
  11
 313.36940733656
  21
 200.28564956330
  31
0.0
   0
LINE
   5
5B5
 100
AcDbEntity
   8
0
 100
AcDbLine
   6
CONTINUOUS
  62
7
  10
 315.36940733656
  20
 212.28564956330
  30
0.0
  11
 315.36940733656
  21
 200.28564956330
  31
0.0
   0
LINE
   5
5B6
 100
AcDbEntity
   8
0
 100
AcDbLine
   6
CONTINUOUS
  62
7
  10
 317.36940733656
  20
 200.28564956330
  30
0.0
  11
 317.36940733656
  21
 212.28564956330
  31
0.0
   0
LINE
   5
5B7
 100
AcDbEntity
   8
0
 100
AcDbLine
   6
CONTINUOUS
  62
7
  10
 317.36940733656
  20
 197.73587507451
  30
0.0
  11
 315.36940733656
  21
 197.98642161961
  31
0.0
   0
LINE
   5
5B8
 100
AcDbEntity
   8
0
 100
AcDbLine
   6
CONTINUOUS
  62
7
  10
 319.86940733656
  20
 198.98903320682
  30
0.0
  11
 307.86940733656
  21
 198.98903320682
  31
0.0
   0
LINE
   5
5B9
 100
AcDbEntity
   8
0
 100
AcDbLine
   6
CONTINUOUS
  62
7
  10
 307.86940733656
  20
 214.58487750699
  30
0.0
  11
 307.86940733656
  21
 220.88564956330
  31
0.0
   0
LINE
   5
5BA
 100
AcDbEntity
   8
0
 100
AcDbLine
   6
CONTINUOUS
  62
7
  10
 307.86940733656
  20
 197.98642161961
  30
0.0
  11
 307.86940733656
  21
 191.68564956330
  31
0.0
   0
LINE
   5
5BB
 100
AcDbEntity
   8
0
 100
AcDbLine
   6
CONTINUOUS
  62
7
  10
 307.86940733656
  20
 213.58226591978
  30
0.0
  11
 307.86940733656
  21
 214.58487750699
  31
0.0
   0
LINE
   5
5BC
 100
AcDbEntity
   8
0
 100
AcDbLine
   6
CONTINUOUS
  62
7
  10
 307.86940733656
  20
 197.98642161961
  30
0.0
  11
 307.86940733656
  21
 198.98903320682
  31
0.0
   0
LINE
   5
5BD
 100
AcDbEntity
   8
0
 100
AcDbLine
   6
CONTINUOUS
  62
7
  10
 312.36940733656
  20
 213.58226591978
  30
0.0
  11
 312.36940733656
  21
 212.28564956330
  31
0.0
   0
LINE
   5
5BE
 100
AcDbEntity
   8
0
 100
AcDbLine
   6
CONTINUOUS
  62
7
  10
 310.36940733656
  20
 213.58226591978
  30
0.0
  11
 310.36940733656
  21
 212.28564956330
  31
0.0
   0
LINE
   5
5BF
 100
AcDbEntity
   8
0
 100
AcDbLine
   6
CONTINUOUS
  62
7
  10
 312.36940733656
  20
 198.98903320682
  30
0.0
  11
 312.36940733656
  21
 200.28564956330
  31
0.0
   0
LINE
   5
5C0
 100
AcDbEntity
   8
0
 100
AcDbLine
   6
CONTINUOUS
  62
7
  10
 310.36940733656
  20
 200.28564956330
  30
0.0
  11
 310.36940733656
  21
 198.98903320682
  31
0.0
   0
LINE
   5
5C1
 100
AcDbEntity
   8
0
 100
AcDbLine
   6
CONTINUOUS
  62
7
  10
 307.86940733656
  20
 198.98903320682
  30
0.0
  11
 307.86940733656
  21
 200.28564956330
  31
0.0
   0
LINE
   5
5C2
 100
AcDbEntity
   8
0
 100
AcDbLine
   6
CONTINUOUS
  62
7
  10
 307.86940733656
  20
 213.58226591978
  30
0.0
  11
 307.86940733656
  21
 212.28564956330
  31
0.0
   0
DIMENSION
   5
5C3
 100
AcDbEntity
   8
0
   6
CONTINUOUS
  62
2
 100
AcDbDimension
   2
*D19
  10
 321.36940733656
  20
 229.60217988729
  30
0.0
  11
 314.61940733656
  21
 229.60217988729
  31
0.0
  70
0
   3
GMM008
 100
AcDbAlignedDimension
  13
 307.86940733656
  23
 220.88564956336
  33
0.0
  14
 321.36940733656
  24
 223.78564956336
  34
0.0
 100
AcDbRotatedDimension
   0
TEXT
   5
5C4
 100
AcDbEntity
   8
0
  62
2
 100
AcDbText
  10
 22.500000000000
  20
 59.623482664101
  30
0.0
  40
 4.0000000000000
   1
２５０－３１１
   7
STANDARD
  11
 22.500000000000
  21
 61.623482664101
  31
0.0
 100
AcDbText
  73
2
   0
TEXT
   5
5C5
 100
AcDbEntity
   8
0
  62
2
 100
AcDbText
  10
 55.500000000000
  20
 65.623482664101
  30
0.0
  40
 4.0000000000000
   1
色調
   7
STANDARD
  11
 55.500000000000
  21
 67.623482664101
  31
0.0
 100
AcDbText
  73
2
   0
TEXT
   5
5C6
 100
AcDbEntity
   8
0
  62
2
 100
AcDbText
  10
 55.500000000000
  20
 23.623482664101
  30
0.0
  40
 4.0000000000000
   1
塗装シルバー
   7
STANDARD
  11
 55.500000000000
  21
 25.623482664101
  31
0.0
 100
AcDbText
  73
2
   0
TEXT
   5
5C7
 100
AcDbEntity
   8
0
  62
2
 100
AcDbText
  10
 22.500000000000
  20
 53.623482664101
  30
0.0
  40
 4.0000000000000
   1
２５０－３１２
   7
STANDARD
  11
 22.500000000000
  21
 55.623482664101
  31
0.0
 100
AcDbText
  73
2
   0
TEXT
   5
5C8
 100
AcDbEntity
   8
0
  62
2
 100
AcDbText
  10
 22.500000000000
  20
 47.623482664101
  30
0.0
  40
 4.0000000000000
   1
２５０－３１３
   7
STANDARD
  11
 22.500000000000
  21
 49.623482664101
  31
0.0
 100
AcDbText
  73
2
   0
TEXT
   5
5C9
 100
AcDbEntity
   8
0
  62
2
 100
AcDbText
  10
 22.500000000000
  20
 41.623482664101
  30
0.0
  40
 4.0000000000000
   1
２５０－３１４
   7
STANDARD
  11
 22.500000000000
  21
 43.623482664101
  31
0.0
 100
AcDbText
  73
2
   0
TEXT
   5
5CA
 100
AcDbEntity
   8
0
  62
2
 100
AcDbText
  10
 22.500000000000
  20
 35.623482664101
  30
0.0
  40
 4.0000000000000
   1
２５０－３１５
   7
STANDARD
  11
 22.500000000000
  21
 37.623482664101
  31
0.0
 100
AcDbText
  73
2
   0
TEXT
   5
5CB
 100
AcDbEntity
   8
0
  62
2
 100
AcDbText
  10
 22.500000000000
  20
 29.623482664101
  30
0.0
  40
 4.0000000000000
   1
２５０－３１６
   7
STANDARD
  11
 22.500000000000
  21
 31.623482664101
  31
0.0
 100
AcDbText
  73
2
   0
TEXT
   5
5CC
 100
AcDbEntity
   8
0
  62
2
 100
AcDbText
  10
 22.500000000000
  20
 23.623482664101
  30
0.0
  40
 4.0000000000000
   1
２５０－３１７
   7
STANDARD
  11
 22.500000000000
  21
 25.623482664101
  31
0.0
 100
AcDbText
  73
2
   0
LINE
   5
5CD
 100
AcDbEntity
   8
0
 100
AcDbLine
   6
CONTINUOUS
  62
3
  10
 21.000000000000
  20
 22.623482664101
  30
0.0
  11
 21.000000000000
  21
 70.623482664101
  31
0.0
   0
LINE
   5
5CE
 100
AcDbEntity
   8
0
 100
AcDbLine
   6
CONTINUOUS
  62
3
  10
 54.000000000000
  20
 70.623482664101
  30
0.0
  11
 54.000000000000
  21
 22.623482664101
  31
0.0
   0
LINE
   5
5CF
 100
AcDbEntity
   8
0
 100
AcDbLine
   6
DOT
  62
2
  10
 320.16940733656
  20
 217.08564956330
  30
0.0
  11
 307.86940733656
  21
 217.08564956330
  31
0.0
   0
LINE
   5
5D0
 100
AcDbEntity
   8
0
 100
AcDbLine
   6
DOT
  62
2
  10
 320.36940733656
  20
 216.88564956330
  30
0.0
  11
 320.36940733656
  21
 195.68564956330
  31
0.0
   0
ARC
   5
5D1
 100
AcDbEntity
   8
0
   6
DOT
  62
2
 100
AcDbCircle
  10
 320.16940733657
  20
 216.88564956330
  30
0.0
  40
 0.20000000000000
 100
AcDbArc
  50
0.0
  51
 90.000000000798
   0
POINT
   5
5D2
 100
AcDbEntity
   8
0
 100
AcDbPoint
  62
2
  10
 320.36940733656
  20
 217.08564956330
  30
0.0
   0
LINE
   5
5D3
 100
AcDbEntity
   8
0
 100
AcDbLine
   6
DOT
  62
2
  10
 320.16940733656
  20
 195.48564956330
  30
0.0
  11
 307.86940733656
  21
 195.48564956330
  31
0.0
   0
ARC
   5
5D4
 100
AcDbEntity
   8
0
   6
DOT
  62
2
 100
AcDbCircle
  10
 320.16940733657
  20
 195.68564956330
  30
0.0
  40
 0.20000000000000
 100
AcDbArc
  50
 269.99999999979
  51
0.0
   0
POINT
   5
5D5
 100
AcDbEntity
   8
0
 100
AcDbPoint
  62
2
  10
 320.36940733656
  20
 195.48564956330
  30
0.0
   0
LINE
   5
5D6
 100
AcDbEntity
   8
0
 100
AcDbLine
   6
DOT
  62
2
  10
 232.50919556818
  20
 215.88564956330
  30
0.0
  11
 256.30919556818
  21
 215.88564956330
  31
0.0
   0
LINE
   5
5D7
 100
AcDbEntity
   8
0
 100
AcDbLine
   6
DOT
  62
2
  10
 232.30919556818
  20
 215.68564956330
  30
0.0
  11
 232.30919556818
  21
 206.28564956330
  31
0.0
   0
ARC
   5
5D8
 100
AcDbEntity
   8
0
   6
DOT
  62
2
 100
AcDbCircle
  10
 232.50919556818
  20
 215.68564956330
  30
0.0
  40
 0.20000000000000
 100
AcDbArc
  50
 89.999999999226
  51
 179.99999999999
   0
POINT
   5
5D9
 100
AcDbEntity
   8
0
 100
AcDbPoint
  62
2
  10
 232.30919556818
  20
 215.88564956330
  30
0.0
   0
LINE
   5
5DA
 100
AcDbEntity
   8
0
 100
AcDbLine
   6
DOT
  62
2
  10
 256.30919556818
  20
 196.68564956330
  30
0.0
  11
 232.50919556818
  21
 196.68564956330
  31
0.0
   0
ARC
   5
5DB
 100
AcDbEntity
   8
0
   6
DOT
  62
2
 100
AcDbCircle
  10
 232.50919556818
  20
 196.88564956330
  30
0.0
  40
 0.20000000000000
 100
AcDbArc
  50
 180.00000000024
  51
 270.00000000000
   0
POINT
   5
5DC
 100
AcDbEntity
   8
0
 100
AcDbPoint
  62
2
  10
 232.30919556818
  20
 196.68564956330
  30
0.0
   0
LINE
   5
5DD
 100
AcDbEntity
   8
0
 100
AcDbLine
   6
DOT
  62
2
  10
 232.30919556818
  20
 196.88564956330
  30
0.0
  11
 232.30919556818
  21
 206.28564956330
  31
0.0
   0
ARC
   5
5DE
 100
AcDbEntity
   8
0
   6
DOT
  62
2
 100
AcDbCircle
  10
 256.30919556818
  20
 216.38564956329
  30
0.0
  40
 0.50000000000000
 100
AcDbArc
  50
 270.00000000000
  51
 0.11399107978365E-8
   0
ARC
   5
5DF
 100
AcDbEntity
   8
0
   6
DOT
  62
2
 100
AcDbCircle
  10
 256.30919556818
  20
 196.18564956331
  30
0.0
  40
 0.50000000000000
 100
AcDbArc
  50
0.0
  51
 90.000000000000
   0
LINE
   5
5E0
 100
AcDbEntity
   8
0
 100
AcDbLine
   6
DOT
  62
2
  10
 361.83449251373
  20
 163.46500002964
  30
0.0
  11
 361.83449251373
  21
 151.16500002964
  31
0.0
   0
ARC
   5
5E1
 100
AcDbEntity
   8
0
   6
DOT
  62
2
 100
AcDbCircle
  10
 362.03449251373
  20
 163.46500002964
  30
0.0
  40
 0.20000000000000
 100
AcDbArc
  50
 90.000000000016
  51
 180.00000000200
   0
POINT
   5
5E2
 100
AcDbEntity
   8
0
 100
AcDbPoint
  62
2
  10
 361.83449251373
  20
 163.66500002964
  30
0.0
   0
LINE
   5
5E3
 100
AcDbEntity
   8
0
 100
AcDbLine
   6
DOT
  62
2
  10
 362.03449251373
  20
 163.66500002964
  30
0.0
  11
 383.23449251373
  21
 163.66500002964
  31
0.0
   0
LINE
   5
5E4
 100
AcDbEntity
   8
0
 100
AcDbLine
   6
DOT
  62
2
  10
 383.43449251373
  20
 163.46500002964
  30
0.0
  11
 383.43449251373
  21
 151.16500002964
  31
0.0
   0
ARC
   5
5E5
 100
AcDbEntity
   8
0
   6
DOT
  62
2
 100
AcDbCircle
  10
 383.23449251373
  20
 163.46500002967
  30
0.0
  40
 0.20000000000000
 100
AcDbArc
  50
0.0
  51
 89.999999999984
   0
POINT
   5
5E6
 100
AcDbEntity
   8
0
 100
AcDbPoint
  62
2
  10
 383.43449251373
  20
 163.66500002964
  30
0.0
   0
DIMENSION
   5
5E7
 100
AcDbEntity
   8
0
   6
CONTINUOUS
  62
2
 100
AcDbDimension
   2
*D20
  10
 229.80919556818
  20
 228.60217988717
  30
0.0
  11
 221.25513050095
  21
 228.60217988717
  31
0.0
  70
128
   3
GMM009
 100
AcDbAlignedDimension
  13
 231.30919556818
  23
 223.78564956324
  33
0.0
  14
 229.80919556818
  24
 222.98564956330
  34
0.0
  50
 180.00000000000
 100
AcDbRotatedDimension
   0
DIMENSION
   5
5E8
 100
AcDbEntity
   8
0
   6
CONTINUOUS
  62
2
 100
AcDbDimension
   2
*D21
  10
 322.86940733656
  20
 229.60217988729
  30
0.0
  11
 331.35531923737
  21
 229.60217988729
  31
0.0
  70
128
   3
GMM009
 100
AcDbAlignedDimension
  13
 321.36940733656
  23
 223.78564956336
  33
0.0
  14
 322.86940733656
  24
 222.98564956330
  34
0.0
 100
AcDbRotatedDimension
   0
DIMENSION
   5
5E9
 100
AcDbEntity
   8
0
   6
CONTINUOUS
  62
6
 100
AcDbDimension
   2
*D22
  10
 266.49706426198
  20
 191.38564956330
  30
0.0
  11
 266.49706426198
  21
 206.28564956330
  31
0.0
  70
0
   3
GMM010
 100
AcDbAlignedDimension
  13
 244.30919556818
  23
 221.18564956330
  33
0.0
  14
 244.30919556818
  24
 191.38564956330
  34
0.0
  50
 270.00000000000
 100
AcDbRotatedDimension
   0
DIMENSION
   5
5EA
 100
AcDbEntity
   8
0
   6
CONTINUOUS
  62
6
 100
AcDbDimension
   2
*D23
  10
 302.72266707939
  20
 191.38564956330
  30
0.0
  11
 302.72266707939
  21
 206.28564956330
  31
0.0
  70
0
   3
GMM010
 100
AcDbAlignedDimension
  13
 309.91940733656
  23
 221.18564956330
  33
0.0
  14
 309.91940733656
  24
 191.38564956330
  34
0.0
  50
 270.00000000000
 100
AcDbRotatedDimension
   0
LINE
   5
5EB
 100
AcDbEntity
   8
0
 100
AcDbLine
   6
DOT
  62
7
  10
 241.30919556818
  20
 221.88564956330
  30
0.0
  11
 241.30919556818
  21
 221.18564956330
  31
0.0
   0
LINE
   5
5EC
 100
AcDbEntity
   8
0
 100
AcDbLine
   6
DOT
  62
7
  10
 241.30919556818
  20
 221.18564956330
  30
0.0
  11
 239.30919556818
  21
 221.88564956330
  31
0.0
   0
LINE
   5
5ED
 100
AcDbEntity
   8
0
 100
AcDbLine
   6
DOT
  62
7
  10
 239.30919556818
  20
 221.88564956330
  30
0.0
  11
 239.30919556818
  21
 221.18564956330
  31
0.0
   0
LINE
   5
5EE
 100
AcDbEntity
   8
0
 100
AcDbLine
   6
DOT
  62
7
  10
 239.30919556818
  20
 221.18564956330
  30
0.0
  11
 237.30919556818
  21
 221.68564956330
  31
0.0
   0
LINE
   5
5EF
 100
AcDbEntity
   8
0
 100
AcDbLine
   6
DOT
  62
7
  10
 237.30919556818
  20
 221.68564956330
  30
0.0
  11
 237.30919556818
  21
 221.18564956330
  31
0.0
   0
LINE
   5
5F0
 100
AcDbEntity
   8
0
 100
AcDbLine
   6
DOT
  62
7
  10
 237.30919556818
  20
 221.18564956330
  30
0.0
  11
 235.30919556818
  21
 221.68564956330
  31
0.0
   0
LINE
   5
5F1
 100
AcDbEntity
   8
0
 100
AcDbLine
   6
DOT
  62
7
  10
 235.30919556818
  20
 221.68564956330
  30
0.0
  11
 235.30919556818
  21
 221.18564956330
  31
0.0
   0
LINE
   5
5F2
 100
AcDbEntity
   8
0
 100
AcDbLine
   6
DOT
  62
7
  10
 243.75919556818
  20
 221.18564956330
  30
0.0
  11
 241.30919556818
  21
 221.88564956330
  31
0.0
   0
LINE
   5
5F3
 100
AcDbEntity
   8
0
 100
AcDbLine
   6
DOT
  62
7
  10
 311.36940733656
  20
 221.88564956330
  30
0.0
  11
 311.36940733656
  21
 221.18564956330
  31
0.0
   0
LINE
   5
5F4
 100
AcDbEntity
   8
0
 100
AcDbLine
   6
DOT
  62
7
  10
 311.36940733656
  20
 221.18564956330
  30
0.0
  11
 313.36940733656
  21
 221.88564956330
  31
0.0
   0
LINE
   5
5F5
 100
AcDbEntity
   8
0
 100
AcDbLine
   6
DOT
  62
7
  10
 313.36940733656
  20
 221.88564956330
  30
0.0
  11
 313.36940733656
  21
 221.18564956330
  31
0.0
   0
LINE
   5
5F6
 100
AcDbEntity
   8
0
 100
AcDbLine
   6
DOT
  62
7
  10
 313.36940733656
  20
 221.18564956330
  30
0.0
  11
 315.36940733656
  21
 221.68564956330
  31
0.0
   0
LINE
   5
5F7
 100
AcDbEntity
   8
0
 100
AcDbLine
   6
DOT
  62
7
  10
 315.36940733656
  20
 221.68564956330
  30
0.0
  11
 315.36940733656
  21
 221.18564956330
  31
0.0
   0
LINE
   5
5F8
 100
AcDbEntity
   8
0
 100
AcDbLine
   6
DOT
  62
7
  10
 315.36940733656
  20
 221.18564956330
  30
0.0
  11
 317.36940733656
  21
 221.68564956330
  31
0.0
   0
LINE
   5
5F9
 100
AcDbEntity
   8
0
 100
AcDbLine
   6
DOT
  62
7
  10
 317.36940733656
  20
 221.68564956330
  30
0.0
  11
 317.36940733656
  21
 221.18564956330
  31
0.0
   0
LINE
   5
5FA
 100
AcDbEntity
   8
0
 100
AcDbLine
   6
DOT
  62
7
  10
 308.91940733656
  20
 221.18564956330
  30
0.0
  11
 311.36940733656
  21
 221.88564956330
  31
0.0
   0
LINE
   5
5FB
 100
AcDbEntity
   8
0
 100
AcDbLine
   6
DOT
  62
7
  10
 241.30919556818
  20
 190.68564956330
  30
0.0
  11
 241.30919556818
  21
 191.38564956330
  31
0.0
   0
LINE
   5
5FC
 100
AcDbEntity
   8
0
 100
AcDbLine
   6
DOT
  62
7
  10
 241.30919556818
  20
 191.38564956330
  30
0.0
  11
 239.30919556818
  21
 190.68564956330
  31
0.0
   0
LINE
   5
5FD
 100
AcDbEntity
   8
0
 100
AcDbLine
   6
DOT
  62
7
  10
 239.30919556818
  20
 190.68564956330
  30
0.0
  11
 239.30919556818
  21
 191.38564956330
  31
0.0
   0
LINE
   5
5FE
 100
AcDbEntity
   8
0
 100
AcDbLine
   6
DOT
  62
7
  10
 239.30919556818
  20
 191.38564956330
  30
0.0
  11
 237.30919556818
  21
 190.88564956330
  31
0.0
   0
LINE
   5
5FF
 100
AcDbEntity
   8
0
 100
AcDbLine
   6
DOT
  62
7
  10
 237.30919556818
  20
 190.88564956330
  30
0.0
  11
 237.30919556818
  21
 191.38564956330
  31
0.0
   0
LINE
   5
600
 100
AcDbEntity
   8
0
 100
AcDbLine
   6
DOT
  62
7
  10
 237.30919556818
  20
 191.38564956330
  30
0.0
  11
 235.30919556818
  21
 190.88564956330
  31
0.0
   0
LINE
   5
601
 100
AcDbEntity
   8
0
 100
AcDbLine
   6
DOT
  62
7
  10
 235.30919556818
  20
 190.88564956330
  30
0.0
  11
 235.30919556818
  21
 191.38564956330
  31
0.0
   0
LINE
   5
602
 100
AcDbEntity
   8
0
 100
AcDbLine
   6
DOT
  62
7
  10
 243.75919556818
  20
 191.38564956330
  30
0.0
  11
 241.30919556818
  21
 190.68564956330
  31
0.0
   0
LINE
   5
603
 100
AcDbEntity
   8
0
 100
AcDbLine
   6
DOT
  62
7
  10
 311.36940733656
  20
 190.68564956330
  30
0.0
  11
 311.36940733656
  21
 191.38564956330
  31
0.0
   0
LINE
   5
604
 100
AcDbEntity
   8
0
 100
AcDbLine
   6
DOT
  62
7
  10
 311.36940733656
  20
 191.38564956330
  30
0.0
  11
 313.36940733656
  21
 190.68564956330
  31
0.0
   0
LINE
   5
605
 100
AcDbEntity
   8
0
 100
AcDbLine
   6
DOT
  62
7
  10
 313.36940733656
  20
 190.68564956330
  30
0.0
  11
 313.36940733656
  21
 191.38564956330
  31
0.0
   0
LINE
   5
606
 100
AcDbEntity
   8
0
 100
AcDbLine
   6
DOT
  62
7
  10
 313.36940733656
  20
 191.38564956330
  30
0.0
  11
 315.36940733656
  21
 190.88564956330
  31
0.0
   0
LINE
   5
607
 100
AcDbEntity
   8
0
 100
AcDbLine
   6
DOT
  62
7
  10
 315.36940733656
  20
 190.88564956330
  30
0.0
  11
 315.36940733656
  21
 191.38564956330
  31
0.0
   0
LINE
   5
608
 100
AcDbEntity
   8
0
 100
AcDbLine
   6
DOT
  62
7
  10
 315.36940733656
  20
 191.38564956330
  30
0.0
  11
 317.36940733656
  21
 190.88564956330
  31
0.0
   0
LINE
   5
609
 100
AcDbEntity
   8
0
 100
AcDbLine
   6
DOT
  62
7
  10
 317.36940733656
  20
 190.88564956330
  30
0.0
  11
 317.36940733656
  21
 191.38564956330
  31
0.0
   0
LINE
   5
60A
 100
AcDbEntity
   8
0
 100
AcDbLine
   6
DOT
  62
7
  10
 308.91940733656
  20
 191.38564956330
  30
0.0
  11
 311.36940733656
  21
 190.68564956330
  31
0.0
   0
LINE
   5
60B
 100
AcDbEntity
   8
0
 100
AcDbLine
   6
CONTINUOUS
  62
3
  10
 21.000000000000
  20
 70.623482664101
  30
0.0
  11
 106.00000000000
  21
 70.623482664101
  31
0.0
   0
LINE
   5
60C
 100
AcDbEntity
   8
0
 100
AcDbLine
   6
CONTINUOUS
  62
3
  10
 21.000000000000
  20
 64.623482664101
  30
0.0
  11
 106.00000000000
  21
 64.623482664101
  31
0.0
   0
LINE
   5
60D
 100
AcDbEntity
   8
0
 100
AcDbLine
   6
CONTINUOUS
  62
3
  10
 21.000000000000
  20
 58.623482664101
  30
0.0
  11
 106.00000000000
  21
 58.623482664101
  31
0.0
   0
LINE
   5
60E
 100
AcDbEntity
   8
0
 100
AcDbLine
   6
CONTINUOUS
  62
3
  10
 21.000000000000
  20
 52.623482664101
  30
0.0
  11
 106.00000000000
  21
 52.623482664101
  31
0.0
   0
LINE
   5
60F
 100
AcDbEntity
   8
0
 100
AcDbLine
   6
CONTINUOUS
  62
3
  10
 106.00000000000
  20
 46.623482664101
  30
0.0
  11
 21.000000000000
  21
 46.623482664101
  31
0.0
   0
LINE
   5
610
 100
AcDbEntity
   8
0
 100
AcDbLine
   6
CONTINUOUS
  62
3
  10
 21.000000000000
  20
 40.623482664101
  30
0.0
  11
 106.00000000000
  21
 40.623482664101
  31
0.0
   0
LINE
   5
611
 100
AcDbEntity
   8
0
 100
AcDbLine
   6
CONTINUOUS
  62
3
  10
 21.000000000000
  20
 28.623482664101
  30
0.0
  11
 106.00000000000
  21
 28.623482664101
  31
0.0
   0
LINE
   5
612
 100
AcDbEntity
   8
0
 100
AcDbLine
   6
CONTINUOUS
  62
3
  10
 106.00000000000
  20
 34.623482664101
  30
0.0
  11
 21.000000000000
  21
 34.623482664101
  31
0.0
   0
LINE
   5
613
 100
AcDbEntity
   8
0
 100
AcDbLine
   6
CONTINUOUS
  62
3
  10
 21.000000000000
  20
 22.623482664101
  30
0.0
  11
 106.00000000000
  21
 22.623482664101
  31
0.0
   0
LINE
   5
614
 100
AcDbEntity
   8
0
 100
AcDbLine
   6
CONTINUOUS
  62
3
  10
 106.00000000000
  20
 70.623482664101
  30
0.0
  11
 106.00000000000
  21
 22.623482664101
  31
0.0
   0
TEXT
   5
615
 100
AcDbEntity
   8
0
  62
2
 100
AcDbText
  10
 96.000000000000
  20
 58.623482664101
  30
0.0
  40
 4.0000000000000
   1
Ｋ
   7
STANDARD
 100
AcDbText
   0
TEXT
   5
616
 100
AcDbEntity
   8
0
  62
2
 100
AcDbText
  10
 96.000000000000
  20
 52.623482664101
  30
0.0
  40
 4.0000000000000
   1
Ｎ
   7
STANDARD
 100
AcDbText
   0
TEXT
   5
617
 100
AcDbEntity
   8
0
  62
2
 100
AcDbText
  10
 96.000000000000
  20
 46.623482664101
  30
0.0
  40
 4.0000000000000
   1
Ｃ
   7
STANDARD
 100
AcDbText
   0
TEXT
   5
618
 100
AcDbEntity
   8
0
  62
2
 100
AcDbText
  10
 96.000000000000
  20
 40.623482664101
  30
0.0
  40
 4.0000000000000
   1
Ｂ
   7
STANDARD
 100
AcDbText
   0
TEXT
   5
619
 100
AcDbEntity
   8
0
  62
2
 100
AcDbText
  10
 96.000000000000
  20
 34.623482664101
  30
0.0
  40
 4.0000000000000
   1
Ｄ
   7
STANDARD
 100
AcDbText
   0
TEXT
   5
61A
 100
AcDbEntity
   8
0
  62
2
 100
AcDbText
  10
 96.000000000000
  20
 28.623482664101
  30
0.0
  40
 4.0000000000000
   1
Ｗ
   7
STANDARD
 100
AcDbText
   0
TEXT
   5
61B
 100
AcDbEntity
   8
0
  62
2
 100
AcDbText
  10
 96.000000000000
  20
 22.623482664101
  30
0.0
  40
 4.0000000000000
   1
ＨＬ
   7
STANDARD
 100
AcDbText
   0
LINE
   5
61C
 100
AcDbEntity
   8
0
 100
AcDbLine
   6
DOT
  62
2
  10
 96.000000000000
  20
 64.623482664101
  30
0.0
  11
 96.000000000000
  21
 22.623482664101
  31
0.0
   0
TEXT
   5
61D
 100
AcDbEntity
   8
0
  62
2
 100
AcDbText
  10
 55.500000000000
  20
 59.623482664101
  30
0.0
  40
 4.0000000000000
   1
材着バーチ
   7
STANDARD
  11
 55.500000000000
  21
 61.623482664101
  31
0.0
 100
AcDbText
  73
2
   0
TEXT
   5
61E
 100
AcDbEntity
   8
0
  62
2
 100
AcDbText
  10
 55.500000000000
  20
 53.623482664101
  30
0.0
  40
 4.0000000000000
   1
材着ナチュラル
   7
STANDARD
  11
 55.500000000000
  21
 55.623482664101
  31
0.0
 100
AcDbText
  73
2
   0
TEXT
   5
61F
 100
AcDbEntity
   8
0
  62
2
 100
AcDbText
  10
 55.500000000000
  20
 47.623482664101
  30
0.0
  40
 4.0000000000000
   1
材着ホワイト
   7
STANDARD
  11
 55.500000000000
  21
 49.623482664101
  31
0.0
 100
AcDbText
  73
2
   0
TEXT
   5
620
 100
AcDbEntity
   8
0
  62
2
 100
AcDbText
  10
 55.500000000000
  20
 41.623482664101
  30
0.0
  40
 4.0000000000000
   1
材着チェリー
   7
STANDARD
  11
 55.500000000000
  21
 43.623482664101
  31
0.0
 100
AcDbText
  73
2
   0
TEXT
   5
621
 100
AcDbEntity
   8
0
  62
2
 100
AcDbText
  10
 55.500000000000
  20
 35.623482664101
  30
0.0
  40
 4.0000000000000
   1
材着ブラウン
   7
STANDARD
  11
 55.500000000000
  21
 37.623482664101
  31
0.0
 100
AcDbText
  73
2
   0
TEXT
   5
622
 100
AcDbEntity
   8
0
  62
2
 100
AcDbText
  10
 55.500000000000
  20
 29.623482664101
  30
0.0
  40
 4.0000000000000
   1
材着ダーク
   7
STANDARD
  11
 55.500000000000
  21
 31.623482664101
  31
0.0
 100
AcDbText
  73
2
   0
LINE
   5
623
 100
AcDbEntity
   8
0
 100
AcDbLine
   6
DASHDOT
  62
2
  10
 225.85595335302
  20
 206.28564956330
  30
0.0
  11
 260.77148145186
  21
 206.28564956330
  31
0.0
   0
LINE
   5
624
 100
AcDbEntity
   8
0
 100
AcDbLine
   6
DASHDOT
  62
2
  10
 305.16865903194
  20
 206.28564956330
  30
0.0
  11
 326.82264955172
  21
 206.28564956330
  31
0.0
   0
LEADER
   5
625
 100
AcDbEntity
   8
0
   6
CONTINUOUS
  62
2
 100
AcDbLeader
   3
GMM011
  73
0
  74
1
  75
0
  40
 4.0000000000000
  41
 12.000000000000
  76
2
  10
 368.54963263668
  20
 202.85207757465
  30
0.0
  10
 362.60050128120
  20
 185.47349430105
  30
0.0
  77
2
 340
626
 213
 12.000000000000
 223
 2.0000000000000
 233
0.0
   0
MTEXT
   5
626
 102
{ACAD_REACTORS
 330
625
 102
}
 100
AcDbEntity
   8
0
  62
2
 100
AcDbMText
  10
 350.60050128120
  20
 183.47349430105
  30
0.0
  40
 4.0000000000000
  41
0.0
  71
7
  72
1
   1
\A1;シボ面
   7
GMM001
   0
TEXT
   5
627
 100
AcDbEntity
   8
0
  62
7
 100
AcDbText
  10
 240.09903069972
  20
 33.998437965356
  30
0.0
  40
 4.0000000000000
   1
 '０９
   7
STANDARD
 100
AcDbText
   0
TEXT
   5
628
 100
AcDbEntity
   8
0
  62
7
 100
AcDbText
  10
 256.89212431220
  20
 33.998437965356
  30
0.0
  40
 4.0000000000000
   1
０２
   7
STANDARD
 100
AcDbText
   0
TEXT
   5
629
 100
AcDbEntity
   8
0
  62
7
 100
AcDbText
  10
 269.11633533994
  20
 33.998437965356
  30
0.0
  40
 4.0000000000000
   1
０３
   7
STANDARD
 100
AcDbText
   0
ENDSEC
  0
SECTION
  2
OBJECTS
  0
DICTIONARY
  5
C
100
AcDbDictionary
  3
ACAD_GROUP
350
D
  3
ACAD_MLINESTYLE
350
1B
  0
DICTIONARY
  5
D
102
{ACAD_REACTORS
330
C
102
}
100
AcDbDictionary
  0
DICTIONARY
  5
1B
102
{ACAD_REACTORS
330
C
102
}
100
AcDbDictionary
  3
STANDARD
350
1C
  0
MLINESTYLE
  5
1C
102
{ACAD_REACTORS
330
1B
102
}
100
AcDbMlineStyle
  2
STANDARD
 70
     0
  3

 62
   256
 51
90.0
 52
90.0
 71
     2
 49
0.5
 62
   256
  6
BYLAYER
 49
-0.5
 62
   256
  6
BYLAYER
  0
ENDSEC
   0
EOF
