  0
SECTION
  2
HEADER
  9
$ACADVER
  1
AC1009
  9
$INSBASE
 10
0.0
 20
0.0
 30
0.0
  9
$EXTMIN
 10
15.0
 20
10.623482664100999
 30
0.0
  9
$EXTMAX
 10
403.99881737529012
 20
277.5
 30
0.0
  9
$LIMMIN
 10
0.0
 20
0.0
  9
$LIMMAX
 10
427.0
 20
297.0
  9
$ORTHOMODE
 70
     0
  9
$REGENMODE
 70
     1
  9
$FILLMODE
 70
     1
  9
$QTEXTMODE
 70
     0
  9
$MIRRTEXT
 70
     0
  9
$DRAGMODE
 70
     2
  9
$LTSCALE
 40
8.5399999999999991
  9
$OSMODE
 70
    37
  9
$ATTMODE
 70
     1
  9
$TEXTSIZE
 40
0.2
  9
$TRACEWID
 40
0.05
  9
$TEXTSTYLE
  7
STANDARD
  9
$CLAYER
  8
0
  9
$CELTYPE
  6
CONTINUOUS
  9
$CECOLOR
 62
   256
  9
$DIMSCALE
 40
1.0
  9
$DIMASZ
 40
0.18
  9
$DIMEXO
 40
0.0625
  9
$DIMDLI
 40
0.38
  9
$DIMRND
 40
0.0
  9
$DIMDLE
 40
0.0
  9
$DIMEXE
 40
0.18
  9
$DIMTP
 40
0.0
  9
$DIMTM
 40
0.0
  9
$DIMTXT
 40
0.18
  9
$DIMCEN
 40
0.09
  9
$DIMTSZ
 40
0.0
  9
$DIMTOL
 70
     0
  9
$DIMLIM
 70
     0
  9
$DIMTIH
 70
     1
  9
$DIMTOH
 70
     1
  9
$DIMSE1
 70
     0
  9
$DIMSE2
 70
     0
  9
$DIMTAD
 70
     0
  9
$DIMZIN
 70
     0
  9
$DIMBLK
  1

  9
$DIMASO
 70
     1
  9
$DIMSHO
 70
     1
  9
$DIMPOST
  1

  9
$DIMAPOST
  1

  9
$DIMALT
 70
     0
  9
$DIMALTD
 70
     2
  9
$DIMALTF
 40
25.399999999999999
  9
$DIMLFAC
 40
1.0
  9
$DIMTOFL
 70
     0
  9
$DIMTVP
 40
0.0
  9
$DIMTIX
 70
     0
  9
$DIMSOXD
 70
     0
  9
$DIMSAH
 70
     0
  9
$DIMBLK1
  1

  9
$DIMBLK2
  1

  9
$DIMSTYLE
  2
STANDARD
  9
$DIMCLRD
 70
     0
  9
$DIMCLRE
 70
     0
  9
$DIMCLRT
 70
     0
  9
$DIMTFAC
 40
1.0
  9
$DIMGAP
 40
0.09
  9
$LUNITS
 70
     2
  9
$LUPREC
 70
     4
  9
$SKETCHINC
 40
0.1
  9
$FILLETRAD
 40
0.0
  9
$AUNITS
 70
     0
  9
$AUPREC
 70
     0
  9
$MENU
  1
.
  9
$ELEVATION
 40
0.0
  9
$PELEVATION
 40
0.0
  9
$THICKNESS
 40
0.0
  9
$LIMCHECK
 70
     0
  9
$BLIPMODE
 70
     0
  9
$CHAMFERA
 40
0.0
  9
$CHAMFERB
 40
0.0
  9
$SKPOLY
 70
     0
  9
$TDCREATE
 40
2459081.666458461
  9
$TDUPDATE
 40
2459081.6666328819
  9
$TDINDWG
 40
0.0001777778
  9
$TDUSRTIMER
 40
0.0001777778
  9
$USRTIMER
 70
     1
  9
$ANGBASE
 50
0.0
  9
$ANGDIR
 70
     0
  9
$PDMODE
 70
     0
  9
$PDSIZE
 40
0.0
  9
$PLINEWID
 40
0.0
  9
$COORDS
 70
     1
  9
$SPLFRAME
 70
     0
  9
$SPLINETYPE
 70
     6
  9
$SPLINESEGS
 70
     8
  9
$ATTDIA
 70
     1
  9
$ATTREQ
 70
     1
  9
$HANDLING
 70
     1
  9
$HANDSEED
  5
62F
  9
$SURFTAB1
 70
     6
  9
$SURFTAB2
 70
     6
  9
$SURFTYPE
 70
     6
  9
$SURFU
 70
     6
  9
$SURFV
 70
     6
  9
$UCSNAME
  2

  9
$UCSORG
 10
0.0
 20
0.0
 30
0.0
  9
$UCSXDIR
 10
1.0
 20
0.0
 30
0.0
  9
$UCSYDIR
 10
0.0
 20
1.0
 30
0.0
  9
$PUCSNAME
  2

  9
$PUCSORG
 10
0.0
 20
0.0
 30
0.0
  9
$PUCSXDIR
 10
1.0
 20
0.0
 30
0.0
  9
$PUCSYDIR
 10
0.0
 20
1.0
 30
0.0
  9
$USERI1
 70
     0
  9
$USERI2
 70
     0
  9
$USERI3
 70
     0
  9
$USERI4
 70
     0
  9
$USERI5
 70
     0
  9
$USERR1
 40
0.0
  9
$USERR2
 40
0.0
  9
$USERR3
 40
0.0
  9
$USERR4
 40
0.0
  9
$USERR5
 40
0.0
  9
$WORLDVIEW
 70
     1
  9
$SHADEDGE
 70
     3
  9
$SHADEDIF
 70
    70
  9
$TILEMODE
 70
     1
  9
$MAXACTVP
 70
    64
  9
$PLIMCHECK
 70
     0
  9
$PEXTMIN
 10
1.0000000000000000E+020
 20
1.0000000000000000E+020
 30
1.0000000000000000E+020
  9
$PEXTMAX
 10
-1.0000000000000000E+020
 20
-1.0000000000000000E+020
 30
-1.0000000000000000E+020
  9
$PLIMMIN
 10
0.0
 20
0.0
  9
$PLIMMAX
 10
12.0
 20
9.0
  9
$UNITMODE
 70
     0
  9
$VISRETAIN
 70
     1
  9
$PLINEGEN
 70
     0
  9
$PSLTSCALE
 70
     1
  0
ENDSEC
  0
SECTION
  2
TABLES
  0
TABLE
  2
VPORT
 70
     1
  0
VPORT
  2
*ACTIVE
 70
     0
 10
0.0
 20
0.0
 11
1.0
 21
1.0
 12
298.6480507438738
 22
148.5
 13
0.0
 23
0.0
 14
1.0
 24
1.0
 15
0.0
 25
0.0
 16
0.0
 26
0.0
 36
1.0
 17
0.0
 27
0.0
 37
0.0
 40
427.0
 41
1.8776077885952711
 42
50.0
 43
0.0
 44
0.0
 50
0.0
 51
0.0
 71
     0
 72
   100
 73
     1
 74
     1
 75
     0
 76
     0
 77
     0
 78
     0
  0
ENDTAB
  0
TABLE
  2
LTYPE
 70
    25
  0
LTYPE
  2
CONTINUOUS
 70
     0
  3
Solid line
 72
    65
 73
     0
 40
0.0
  0
LTYPE
  2
BORDER
 70
     0
  3
__ __ . __ __ . __ __ . __ __ . __ __ . __ __ .
 72
    65
 73
     6
 40
1.75
 49
0.5
 49
-0.25
 49
0.5
 49
-0.25
 49
0.0
 49
-0.25
  0
LTYPE
  2
BORDER2
 70
     0
  3
__.__.__.__.__.__.__.__.__.__.__.__.__.__.__.__
 72
    65
 73
     6
 40
0.875
 49
0.25
 49
-0.125
 49
0.25
 49
-0.125
 49
0.0
 49
-0.125
  0
LTYPE
  2
BORDERX2
 70
     0
  3
____  ____  .  ____  ____  .  ____  ____  .  __
 72
    65
 73
     6
 40
3.5
 49
1.0
 49
-0.5
 49
1.0
 49
-0.5
 49
0.0
 49
-0.5
  0
LTYPE
  2
CENTER
 70
     0
  3
____ _ ____ _ ____ _ ____ _ ____ _ ____ _ ____ 
 72
    65
 73
     4
 40
2.0
 49
1.25
 49
-0.25
 49
0.25
 49
-0.25
  0
LTYPE
  2
CENTER2
 70
     0
  3
___ _ ___ _ ___ _ ___ _ ___ _ ___ _ ___ _ ___ _
 72
    65
 73
     4
 40
1.125
 49
0.75
 49
-0.125
 49
0.125
 49
-0.125
  0
LTYPE
  2
CENTERX2
 70
     0
  3
________  __  ________  __  ________  __  _____
 72
    65
 73
     4
 40
4.0
 49
2.5
 49
-0.5
 49
0.5
 49
-0.5
  0
LTYPE
  2
DASHDOT
 70
     0
  3
__ . __ . __ . __ . __ . __ . __ . __ . __ . __
 72
    65
 73
     4
 40
1.0
 49
0.5
 49
-0.25
 49
0.0
 49
-0.25
  0
LTYPE
  2
DASHDOT2
 70
     0
  3
_._._._._._._._._._._._._._._._._._._._._._._._
 72
    65
 73
     4
 40
0.5
 49
0.25
 49
-0.125
 49
0.0
 49
-0.125
  0
LTYPE
  2
DASHDOTX2
 70
     0
  3
____  .  ____  .  ____  .  ____  .  ____  .  __
 72
    65
 73
     4
 40
2.0
 49
1.0
 49
-0.5
 49
0.0
 49
-0.5
  0
LTYPE
  2
DASHED
 70
     0
  3
__ __ __ __ __ __ __ __ __ __ __ __ __ __ __ __
 72
    65
 73
     2
 40
0.75
 49
0.5
 49
-0.25
  0
LTYPE
  2
DASHED2
 70
     0
  3
_ _ _ _ _ _ _ _ _ _ _ _ _ _ _ _ _ _ _ _ _ _ _ _
 72
    65
 73
     2
 40
0.375
 49
0.25
 49
-0.125
  0
LTYPE
  2
DASHEDX2
 70
     0
  3
____  ____  ____  ____  ____  ____  ____  ____ 
 72
    65
 73
     2
 40
1.5
 49
1.0
 49
-0.5
  0
LTYPE
  2
DIVIDE
 70
     0
  3
____ . . ____ . . ____ . . ____ . . ____ . . __
 72
    65
 73
     6
 40
1.25
 49
0.5
 49
-0.25
 49
0.0
 49
-0.25
 49
0.0
 49
-0.25
  0
LTYPE
  2
DIVIDE2
 70
     0
  3
__..__..__..__..__..__..__..__..__..__..__..__.
 72
    65
 73
     6
 40
0.625
 49
0.25
 49
-0.125
 49
0.0
 49
-0.125
 49
0.0
 49
-0.125
  0
LTYPE
  2
DIVIDEX2
 70
     0
  3
________  .  .  ________  .  .  ________  .  . 
 72
    65
 73
     6
 40
2.5
 49
1.0
 49
-0.5
 49
0.0
 49
-0.5
 49
0.0
 49
-0.5
  0
LTYPE
  2
DOT
 70
     0
  3
. . . . . . . . . . . . . . . . . . . . . . . .
 72
    65
 73
     2
 40
0.25
 49
0.0
 49
-0.25
  0
LTYPE
  2
DOT2
 70
     0
  3
...............................................
 72
    65
 73
     2
 40
0.125
 49
0.0
 49
-0.125
  0
LTYPE
  2
DOTX2
 70
     0
  3
.  .  .  .  .  .  .  .  .  .  .  .  .  .  .  . 
 72
    65
 73
     2
 40
0.5
 49
0.0
 49
-0.5
  0
LTYPE
  2
HIDDEN
 70
     0
  3
__ __ __ __ __ __ __ __ __ __ __ __ __ __ __ __
 72
    65
 73
     2
 40
0.375
 49
0.25
 49
-0.125
  0
LTYPE
  2
HIDDEN2
 70
     0
  3
_ _ _ _ _ _ _ _ _ _ _ _ _ _ _ _ _ _ _ _ _ _ _ _
 72
    65
 73
     2
 40
0.1875
 49
0.125
 49
-0.0625
  0
LTYPE
  2
HIDDENX2
 70
     0
  3
____ ____ ____ ____ ____ ____ ____ ____ ____ __
 72
    65
 73
     2
 40
0.75
 49
0.5
 49
-0.25
  0
LTYPE
  2
PHANTOM
 70
     0
  3
______  __  __  ______  __  __  ______  __  __ 
 72
    65
 73
     6
 40
2.5
 49
1.25
 49
-0.25
 49
0.25
 49
-0.25
 49
0.25
 49
-0.25
  0
LTYPE
  2
PHANTOM2
 70
     0
  3
___ _ _ ___ _ _ ___ _ _ ___ _ _ ___ _ _ ___ _ _
 72
    65
 73
     6
 40
1.25
 49
0.625
 49
-0.125
 49
0.125
 49
-0.125
 49
0.125
 49
-0.125
  0
LTYPE
  2
PHANTOMX2
 70
     0
  3
____________    ____    ____    ____________   
 72
    65
 73
     6
 40
5.0
 49
2.5
 49
-0.5
 49
0.5
 49
-0.5
 49
0.5
 49
-0.5
  0
ENDTAB
  0
TABLE
  2
LAYER
 70
     2
  0
LAYER
  2
0
 70
     0
 62
     7
  6
CONTINUOUS
  0
LAYER
  2
LEVEL001
 70
     0
 62
     7
  6
CONTINUOUS
  0
ENDTAB
  0
TABLE
  2
STYLE
 70
     3
  0
STYLE
  2
STANDARD
 70
     0
 40
0.0
 41
1.0
 50
0.0
 71
     0
 42
0.2
  3
TXT
  4
BIGFONT
  0
STYLE
  2
STANDARD1
 70
     4
 40
0.0
 41
1.0
 50
0.0
 71
     0
 42
0.2
  3
TXT
  4
BIGFONT
  0
STYLE
  2
GMM001
 70
     0
 40
0.0
 41
1.0
 50
0.0
 71
     0
 42
1.0
  3
txt.shx
  4
bigfont.shx
  0
ENDTAB
  0
TABLE
  2
VIEW
 70
     0
  0
ENDTAB
  0
TABLE
  2
UCS
 70
     0
  0
ENDTAB
  0
TABLE
  2
APPID
 70
     3
  0
APPID
  2
ACAD
 70
     0
  0
APPID
  2
ACAD_NAV_VCDISPLAY
 70
     0
  0
APPID
  2
ACAD_MLEADERVER
 70
     0
  0
ENDTAB
  0
TABLE
  2
DIMSTYLE
 70
    25
  0
DIMSTYLE
  2
STANDARD
 70
     0
  3

  4

  5

  6

  7

 40
1.0
 41
0.18
 42
0.0625
 43
0.38
 44
0.18
 45
0.0
 46
0.0
 47
0.0
 48
0.0
140
0.18
141
0.09
142
0.0
143
25.399999999999999
144
1.0
145
0.0
146
1.0
147
0.09
 71
     0
 72
     0
 73
     1
 74
     1
 75
     0
 76
     0
 77
     0
 78
     0
170
     0
171
     2
172
     0
173
     0
174
     0
175
     0
176
     0
177
     0
178
     0
  0
DIMSTYLE
  2
GMM001
 70
     0
  3

  4

  5

  6
OPEN30
  7
OPEN30
 40
1.0
 41
2.0
 42
1.0
 43
8.0
 44
1.0
 45
0.0
 46
2.5
 47
0.2
 48
0.0
140
4.0
141
1.0
142
0.0
143
0.0394
144
1.0
145
0.0
146
0.625
147
1.7142857142857
 71
     1
 72
     0
 73
     0
 74
     0
 75
     0
 76
     0
 77
     1
 78
     8
170
     0
171
     2
172
     1
173
     1
174
     0
175
     0
176
     2
177
     2
178
     2
  0
DIMSTYLE
  2
GMM002
 70
     0
  3

  4

  5

  6
OPEN30
  7
OPEN30
 40
1.0
 41
2.0
 42
1.0
 43
8.0
 44
1.0
 45
0.0
 46
2.5
 47
0.0
 48
0.0
140
4.0
141
1.0
142
0.0
143
0.0394
144
1.0
145
0.0
146
0.625
147
1.7142857142857
 71
     0
 72
     0
 73
     0
 74
     0
 75
     0
 76
     0
 77
     1
 78
     8
170
     0
171
     2
172
     1
173
     1
174
     0
175
     0
176
     2
177
     2
178
     2
  0
DIMSTYLE
  2
GMM003
 70
     0
  3

  4

  5

  6
OPEN30
  7
OPEN30
 40
1.0
 41
2.0
 42
1.0
 43
8.0
 44
1.0
 45
0.0
 46
2.5
 47
0.0
 48
0.0
140
4.0
141
1.0
142
0.0
143
0.0394
144
1.0
145
0.0
146
0.625
147
0.0
 71
     0
 72
     0
 73
     0
 74
     0
 75
     1
 76
     1
 77
     1
 78
     8
170
     0
171
     2
172
     1
173
     1
174
     0
175
     0
176
     2
177
     2
178
     2
  0
DIMSTYLE
  2
GMM004
 70
     0
  3
下穴:2-%%c<>
  4

  5

  6
NONE
  7
OPEN30
 40
1.0
 41
2.0
 42
1.0
 43
8.0
 44
1.0
 45
0.0
 46
0.0
 47
0.0
 48
0.0
140
4.0
141
1.0
142
0.0
143
0.0394
144
1.0
145
0.0
146
0.625
147
1.7142857142857
 71
     0
 72
     0
 73
     1
 74
     1
 75
     1
 76
     1
 77
     1
 78
     8
170
     0
171
     2
172
     0
173
     1
174
     0
175
     0
176
     2
177
     2
178
     2
  0
DIMSTYLE
  2
GMM005
 70
     0
  3
4-R<>
  4

  5

  6
NONE
  7
OPEN30
 40
1.0
 41
2.0
 42
1.0
 43
8.0
 44
1.0
 45
0.0
 46
14.959991104655
 47
0.0
 48
0.0
140
4.0
141
1.0
142
0.0
143
0.0394
144
1.0
145
0.0
146
0.625
147
1.7142857142857
 71
     0
 72
     0
 73
     0
 74
     0
 75
     1
 76
     1
 77
     1
 78
     8
170
     0
171
     2
172
     1
173
     1
174
     0
175
     0
176
     2
177
     2
178
     2
  0
DIMSTYLE
  2
GMM006
 70
     0
  3

  4

  5

  6
OPEN30
  7
OPEN30
 40
1.0
 41
2.0
 42
1.0
 43
8.0
 44
1.0
 45
0.0
 46
2.5
 47
0.0
 48
0.0
140
4.0
141
1.0
142
0.0
143
0.0394
144
1.0
145
0.0
146
0.625
147
1.6756096434142
 71
     0
 72
     0
 73
     0
 74
     0
 75
     0
 76
     0
 77
     1
 78
     8
170
     0
171
     2
172
     1
173
     1
174
     0
175
     0
176
     2
177
     2
178
     2
  0
DIMSTYLE
  2
GMM007
 70
     0
  3

  4

  5

  6
OPEN30
  7
OPEN30
 40
1.0
 41
2.0
 42
1.0
 43
8.0
 44
1.0
 45
0.0
 46
2.5
 47
0.0
 48
0.0
140
4.0
141
1.0
142
0.0
143
0.0394
144
1.0
145
0.0
146
0.625
147
1.6613129498051999
 71
     0
 72
     0
 73
     0
 74
     0
 75
     0
 76
     0
 77
     1
 78
     8
170
     0
171
     2
172
     1
173
     1
174
     0
175
     0
176
     2
177
     2
178
     2
  0
DIMSTYLE
  2
GMM008
 70
     0
  3

  4

  5

  6
OPEN30
  7
OPEN30
 40
1.0
 41
2.0
 42
1.0
 43
8.0
 44
1.0
 45
0.0
 46
2.5
 47
0.0
 48
0.2
140
4.0
141
1.0
142
0.0
143
0.0394
144
1.0
145
0.0
146
0.625
147
1.7142857142857
 71
     1
 72
     0
 73
     0
 74
     0
 75
     0
 76
     0
 77
     1
 78
     8
170
     0
171
     2
172
     1
173
     1
174
     0
175
     0
176
     2
177
     2
178
     2
  0
DIMSTYLE
  2
GMM009
 70
     0
  3

  4

  5

  6
OPEN30
  7
OPEN30
 40
1.0
 41
2.0
 42
1.0
 43
8.0
 44
1.0
 45
0.0
 46
2.5
 47
0.0
 48
0.0
140
4.0
141
1.0
142
0.0
143
0.0394
144
1.0
145
0.0
146
0.625
147
1.7142857142857
 71
     0
 72
     0
 73
     0
 74
     0
 75
     0
 76
     1
 77
     1
 78
     8
170
     0
171
     2
172
     1
173
     1
174
     0
175
     0
176
     2
177
     2
178
     2
  0
DIMSTYLE
  2
GMM010
 70
     0
  3
下穴:3-%%c<>
  4

  5

  6
NONE
  7
OPEN30
 40
1.0
 41
2.0
 42
1.0
 43
8.0
 44
1.0
 45
0.0
 46
0.0
 47
0.0
 48
0.0
140
4.0
141
1.0
142
0.0
143
0.0394
144
1.0
145
0.0
146
0.625
147
1.7142857142857
 71
     0
 72
     0
 73
     1
 74
     1
 75
     1
 76
     1
 77
     1
 78
     8
170
     0
171
     2
172
     0
173
     1
174
     0
175
     0
176
     2
177
     2
178
     2
  0
DIMSTYLE
  2
GMM011
 70
     0
  3

  4

  5

  6
OPEN30
  7
OPEN30
 40
1.0
 41
2.0
 42
1.0
 43
8.0
 44
1.0
 45
0.0
 46
2.5
 47
0.0
 48
0.0
140
4.0
141
1.0
142
0.0
143
0.0394
144
1.0
145
0.0
146
0.625
147
2.1149583330988002
 71
     0
 72
     0
 73
     0
 74
     0
 75
     0
 76
     0
 77
     1
 78
     8
170
     0
171
     2
172
     1
173
     1
174
     0
175
     0
176
     2
177
     2
178
     2
  0
DIMSTYLE
  2
GMM012
 70
     0
  3
R<>
  4

  5

  6
NONE
  7
OPEN30
 40
1.0
 41
2.0
 42
1.0
 43
8.0
 44
1.0
 45
0.0
 46
2.5
 47
0.0
 48
0.0
140
4.0
141
1.0
142
0.0
143
0.0394
144
1.0
145
0.0
146
0.625
147
1.7142857142857
 71
     0
 72
     0
 73
     1
 74
     1
 75
     1
 76
     1
 77
     1
 78
     8
170
     0
171
     2
172
     0
173
     1
174
     0
175
     0
176
     2
177
     2
178
     2
  0
DIMSTYLE
  2
GMM013
 70
     0
  3
2-R<>
  4

  5

  6
NONE
  7
OPEN30
 40
1.0
 41
2.0
 42
1.0
 43
8.0
 44
1.0
 45
0.0
 46
2.5
 47
0.0
 48
0.0
140
4.0
141
1.0
142
0.0
143
0.0394
144
1.0
145
0.0
146
0.625
147
1.7142857142857
 71
     0
 72
     0
 73
     1
 74
     1
 75
     1
 76
     1
 77
     1
 78
     8
170
     0
171
     2
172
     0
173
     1
174
     0
175
     0
176
     2
177
     2
178
     2
  0
DIMSTYLE
  2
GMM014
 70
     0
  3
3-%%c<>穴、%%c7
  4

  5

  6
NONE
  7
OPEN30
 40
1.0
 41
2.0
 42
1.0
 43
8.0
 44
1.0
 45
0.0
 46
0.0
 47
0.0
 48
0.0
140
4.0
141
1.0
142
0.0
143
0.0394
144
1.0
145
0.0
146
0.625
147
1.7142857142857
 71
     0
 72
     0
 73
     1
 74
     1
 75
     1
 76
     1
 77
     1
 78
     8
170
     0
171
     2
172
     0
173
     1
174
     0
175
     0
176
     2
177
     2
178
     2
  0
DIMSTYLE
  2
GMM015
 70
     0
  3

  4

  5

  6
OPEN30
  7
OPEN30
 40
1.0
 41
2.0
 42
1.0
 43
8.0
 44
1.0
 45
0.0
 46
2.5
 47
0.0
 48
0.0
140
4.0
141
1.0
142
0.0
143
0.0394
144
1.0
145
0.0
146
0.625
147
1.7142857142857
 71
     0
 72
     0
 73
     0
 74
     0
 75
     0
 76
     0
 77
     1
 78
     8
170
     0
171
     2
172
     1
173
     1
174
     0
175
     0
176
     2
177
     2
178
     2
  0
DIMSTYLE
  2
GMM016
 70
     0
  3

  4

  5

  6
OPEN30
  7
OPEN30
 40
1.0
 41
2.0
 42
1.0
 43
8.0
 44
1.0
 45
0.0
 46
2.5
 47
0.0
 48
0.0
140
4.0
141
1.0
142
0.0
143
0.0394
144
1.0
145
0.0
146
0.625
147
1.3290503598440999
 71
     0
 72
     0
 73
     0
 74
     0
 75
     0
 76
     0
 77
     1
 78
     8
170
     0
171
     2
172
     1
173
     1
174
     0
175
     0
176
     2
177
     2
178
     2
  0
DIMSTYLE
  2
GMM017
 70
     0
  3

  4

  5

  6
OPEN30
  7
OPEN30
 40
1.0
 41
3.0
 42
0.0
 43
8.0
 44
2.0
 45
0.0
 46
0.0
 47
0.0
 48
0.0
140
4.0
141
1.0
142
0.0
143
0.0394
144
1.0
145
0.0
146
0.625
147
0.0
 71
     0
 72
     0
 73
     0
 74
     0
 75
     0
 76
     0
 77
     1
 78
     8
170
     0
171
     2
172
     1
173
     1
174
     0
175
     0
176
     2
177
     7
178
     7
  0
DIMSTYLE
  2
GMM018
 70
     0
  3
R<>
  4

  5

  6
NONE
  7
OPEN30
 40
1.0
 41
2.0
 42
1.0
 43
8.0
 44
1.0
 45
0.0
 46
11.536503667551999
 47
0.0
 48
0.0
140
4.0
141
1.0
142
0.0
143
0.0394
144
1.0
145
0.0
146
0.625
147
1.7142857142857
 71
     0
 72
     0
 73
     0
 74
     0
 75
     1
 76
     1
 77
     1
 78
     8
170
     0
171
     2
172
     1
173
     1
174
     0
175
     0
176
     2
177
     2
178
     2
  0
DIMSTYLE
  2
GMM019
 70
     0
  3

  4

  5

  6
OPEN30
  7
OPEN30
 40
1.0
 41
2.0
 42
1.0
 43
8.0
 44
1.0
 45
0.0
 46
2.5
 47
0.0
 48
0.0
140
4.0
141
1.0
142
0.0
143
0.0394
144
1.0
145
0.0
146
0.625
147
1.6463744874429991
 71
     0
 72
     0
 73
     0
 74
     0
 75
     0
 76
     0
 77
     1
 78
     8
170
     0
171
     2
172
     1
173
     1
174
     0
175
     0
176
     2
177
     2
178
     2
  0
DIMSTYLE
  2
GMM020
 70
     0
  3

  4

  5

  6
OPEN30
  7
OPEN30
 40
1.0
 41
2.0
 42
1.0
 43
8.0
 44
1.0
 45
0.0
 46
2.5
 47
0.2
 48
0.0
140
4.0
141
1.0
142
0.0
143
0.0394
144
1.0
145
0.0
146
0.625
147
1.7142857142857
 71
     1
 72
     0
 73
     0
 74
     0
 75
     0
 76
     0
 77
     1
 78
     8
170
     0
171
     2
172
     1
173
     1
174
     0
175
     0
176
     2
177
     2
178
     2
  0
DIMSTYLE
  2
GMM021
 70
     0
  3

  4

  5

  6
OPEN30
  7
OPEN30
 40
1.0
 41
2.0
 42
1.0
 43
8.0
 44
1.0
 45
0.0
 46
2.5
 47
0.0
 48
0.0
140
4.0
141
1.0
142
0.0
143
0.0394
144
1.0
145
0.0
146
0.625
147
2.1662876648505991
 71
     0
 72
     0
 73
     0
 74
     0
 75
     0
 76
     0
 77
     1
 78
     8
170
     0
171
     2
172
     1
173
     1
174
     0
175
     0
176
     2
177
     2
178
     2
  0
DIMSTYLE
  2
GMM022
 70
     0
  3
%%c<>
  4

  5

  6
NONE
  7
OPEN30
 40
1.0
 41
2.0
 42
1.0
 43
8.0
 44
1.0
 45
0.0
 46
0.0
 47
0.0
 48
0.0
140
4.0
141
1.0
142
0.0
143
0.0394
144
1.0
145
0.0
146
0.625
147
1.7142857142857
 71
     0
 72
     0
 73
     1
 74
     1
 75
     1
 76
     1
 77
     1
 78
     8
170
     0
171
     2
172
     0
173
     1
174
     0
175
     0
176
     2
177
     2
178
     2
  0
DIMSTYLE
  2
GMM023
 70
     0
  3
ストローク:15<>
  4

  5

  6
OPEN30
  7
OPEN30
 40
1.0
 41
2.0
 42
1.0
 43
8.0
 44
1.0
 45
0.0
 46
2.5
 47
0.0
 48
0.0
140
4.0
141
1.0
142
0.0
143
0.0394
144
1.0
145
0.0
146
0.625
147
1.7142857142857
 71
     0
 72
     0
 73
     0
 74
     0
 75
     0
 76
     0
 77
     1
 78
     8
170
     0
171
     2
172
     1
173
     1
174
     0
175
     0
176
     2
177
     2
178
     2
  0
DIMSTYLE
  2
GMM024
 70
     0
  3

  4

  5

  6
OPEN30
  7
OPEN30
 40
1.0
 41
2.0
 42
1.0
 43
8.0
 44
1.0
 45
0.0
 46
2.5
 47
0.0
 48
0.0
140
4.0
141
1.0
142
0.0
143
0.0394
144
1.0
145
0.0
146
0.625
147
1.8921117026440999
 71
     0
 72
     0
 73
     0
 74
     0
 75
     0
 76
     0
 77
     1
 78
     8
170
     0
171
     2
172
     1
173
     1
174
     0
175
     0
176
     2
177
     2
178
     2
  0
ENDTAB
  0
ENDSEC
  0
SECTION
  2
BLOCKS
  0
BLOCK
  8
0
  2
$MODEL_SPACE
 70
     0
 10
0.0
 20
0.0
 30
0.0
  3
$MODEL_SPACE
  1

  0
ENDBLK
  5
1A
  8
0
  0
BLOCK
 67
     1
  8
0
  2
$PAPER_SPACE
 70
     0
 10
0.0
 20
0.0
 30
0.0
  3
$PAPER_SPACE
  1

  0
ENDBLK
  5
17
 67
     1
  8
0
  0
BLOCK
  8
0
  2
BLOCK001
 70
     0
 10
0.0
 20
0.0
 30
0.0
  3
BLOCK001
  1

  0
POLYLINE
  5
D8
  8
0
  6
CONTINUOUS
 62
     8
 66
     1
 10
0.0
 20
0.0
 30
0.0
 70
     1
  0
VERTEX
  5
4EE
  8
0
  6
CONTINUOUS
 62
     8
 10
308.57933271356001
 20
18.501906399220001
 30
0.0
  0
VERTEX
  5
4EF
  8
0
  6
CONTINUOUS
 62
     8
 10
311.87601195884002
 20
23.726906399219999
 30
0.0
  0
VERTEX
  5
4F0
  8
0
  6
CONTINUOUS
 62
     8
 10
315.22001195884002
 20
23.726906399219999
 30
0.0
  0
VERTEX
  5
4F1
  8
0
  6
CONTINUOUS
 62
     8
 10
311.92333271356
 20
18.501906399220001
 30
0.0
  0
VERTEX
  5
4F2
  8
0
  6
CONTINUOUS
 62
     8
 10
312.56465346828003
 20
16.191906399219999
 30
0.0
  0
VERTEX
  5
4F3
  8
0
  6
CONTINUOUS
 62
     8
 10
335.37201195884001
 20
16.191906399219999
 30
0.0
  0
VERTEX
  5
4F4
  8
0
  6
CONTINUOUS
 62
     8
 10
335.37201195884001
 20
15.83990639922
 30
0.0
  0
VERTEX
  5
4F5
  8
0
  6
CONTINUOUS
 62
     8
 10
312.66237853566003
 20
15.83990639922
 30
0.0
  0
VERTEX
  5
4F6
  8
0
  6
CONTINUOUS
 62
     8
 10
313.54801195883999
 20
12.649906399220001
 30
0.0
  0
VERTEX
  5
4F7
  8
0
  6
CONTINUOUS
 62
     8
 10
309.78601195883999
 20
12.649906399220001
 30
0.0
  0
VERTEX
  5
4F8
  8
0
  6
CONTINUOUS
 62
     8
 10
309.12823567852001
 20
15.83990639922
 30
0.0
  0
VERTEX
  5
4F9
  8
0
  6
CONTINUOUS
 62
     8
 10
308.17752139280998
 20
15.83990639922
 30
0.0
  0
VERTEX
  5
4FA
  8
0
  6
CONTINUOUS
 62
     8
 10
307.69601195884002
 20
12.649906399220001
 30
0.0
  0
VERTEX
  5
4FB
  8
0
  6
CONTINUOUS
 62
     8
 10
304.35201195884002
 20
12.649906399220001
 30
0.0
  0
VERTEX
  5
4FC
  8
0
  6
CONTINUOUS
 62
     8
 10
304.83352139280998
 20
15.83990639922
 30
0.0
  0
VERTEX
  5
4FD
  8
0
  6
CONTINUOUS
 62
     8
 10
303.25201195884
 20
15.83990639922
 30
0.0
  0
VERTEX
  5
4FE
  8
0
  6
CONTINUOUS
 62
     8
 10
303.25201195884
 20
16.191906399219999
 30
0.0
  0
VERTEX
  5
4FF
  8
0
  6
CONTINUOUS
 62
     8
 10
304.88665346827997
 20
16.191906399219999
 30
0.0
  0
VERTEX
  5
500
  8
0
  6
CONTINUOUS
 62
     8
 10
306.02401195883999
 20
23.726906399219999
 30
0.0
  0
VERTEX
  5
501
  8
0
  6
CONTINUOUS
 62
     8
 10
309.36801195883999
 20
23.726906399219999
 30
0.0
  0
VERTEX
  5
502
  8
0
  6
CONTINUOUS
 62
     8
 10
308.23065346828002
 20
16.191906399219999
 30
0.0
  0
VERTEX
  5
503
  8
0
  6
CONTINUOUS
 62
     8
 10
309.05565346828001
 20
16.191906399219999
 30
0.0
  0
SEQEND
  5
504
  8
0
  6
CONTINUOUS
 62
     8
  0
ENDBLK
  5
D9
  8
0
  0
BLOCK
  8
0
  2
*D1
 70
     1
 10
0.0
 20
0.0
 30
0.0
  3
*D1
  1

  0
LINE
  5
DB
  8
0
  6
CONTINUOUS
 62
     2
 10
62.506323835832013
 20
60.822728122893992
 30
0.0
 11
48.267475744834996
 21
60.822728122893992
 31
0.0
  0
LINE
  5
DC
  8
0
  6
CONTINUOUS
 62
     2
 10
62.106323835832008
 20
35.622728122894003
 30
0.0
 11
48.267475744834996
 21
35.622728122894003
 31
0.0
  0
LINE
  5
DD
  8
0
  6
CONTINUOUS
 62
     2
 10
49.267475744834989
 20
60.822728122893992
 30
0.0
 11
49.267475744834989
 21
35.622728122894003
 31
0.0
  0
INSERT
  5
DE
  8
0
  6
CONTINUOUS
 62
     2
  2
_OPEN30
 10
49.267475744834989
 20
60.822728122893992
 30
0.0
 41
2.0
 42
2.0
 43
2.0
 50
90.0
  0
INSERT
  5
DF
  8
0
  6
CONTINUOUS
 62
     2
  2
_OPEN30
 10
49.267475744834989
 20
35.622728122894003
 30
0.0
 41
2.0
 42
2.0
 43
2.0
 50
270.0
  0
INSERT
  5
E0
  8
0
  6
CONTINUOUS
  2
*U50
 10
0.0
 20
0.0
 30
0.0
  0
ENDBLK
  5
E1
  8
0
  0
BLOCK
  8
0
  2
*D2
 70
     1
 10
0.0
 20
0.0
 30
0.0
  3
*D2
  1

  0
LINE
  5
E3
  8
0
  6
CONTINUOUS
 62
     2
 10
57.138075613692003
 20
66.222728122893983
 30
0.0
 11
39.213335842467998
 21
66.222728122893983
 31
0.0
  0
LINE
  5
E4
  8
0
  6
CONTINUOUS
 62
     2
 10
57.138075613692003
 20
30.222728122894001
 30
0.0
 11
39.213335842467998
 21
30.222728122894001
 31
0.0
  0
LINE
  5
E5
  8
0
  6
CONTINUOUS
 62
     2
 10
40.213335842467991
 20
66.222728122893983
 30
0.0
 11
40.213335842467991
 21
30.222728122894001
 31
0.0
  0
INSERT
  5
E6
  8
0
  6
CONTINUOUS
 62
     2
  2
_OPEN30
 10
40.213335842467991
 20
66.222728122893983
 30
0.0
 41
2.0
 42
2.0
 43
2.0
 50
90.0
  0
INSERT
  5
E7
  8
0
  6
CONTINUOUS
 62
     2
  2
_OPEN30
 10
40.213335842467991
 20
30.222728122894001
 30
0.0
 41
2.0
 42
2.0
 43
2.0
 50
270.0
  0
INSERT
  5
E8
  8
0
  6
CONTINUOUS
  2
*U51
 10
0.0
 20
0.0
 30
0.0
  0
ENDBLK
  5
E9
  8
0
  0
BLOCK
  8
0
  2
*D3
 70
     1
 10
0.0
 20
0.0
 30
0.0
  3
*D3
  1

  0
POLYLINE
  5
EB
  8
0
  6
CONTINUOUS
 62
     2
 66
     1
 10
0.0
 20
0.0
 30
0.0
  0
VERTEX
  5
50F
  8
0
  6
CONTINUOUS
 62
     2
 10
67.635062623704997
 20
30.759802371717999
 30
0.0
  0
VERTEX
  5
510
  8
0
  6
CONTINUOUS
 62
     2
 10
81.938368634168995
 20
37.565573037003013
 30
0.0
  0
VERTEX
  5
511
  8
0
  6
CONTINUOUS
 62
     2
 10
113.93836863417
 20
37.565573037003013
 30
0.0
  0
SEQEND
  5
512
  8
0
  6
CONTINUOUS
 62
     2
  0
INSERT
  5
F0
  8
0
  6
CONTINUOUS
 62
     2
  2
_OPEN30
 10
67.635062623704997
 20
30.759802371717999
 30
0.0
 41
2.0
 42
2.0
 43
2.0
 50
205.44594669590001
  0
INSERT
  5
F1
  8
0
  6
CONTINUOUS
  2
*U52
 10
0.0
 20
0.0
 30
0.0
  0
ENDBLK
  5
F2
  8
0
  0
BLOCK
  8
0
  2
*D4
 70
     1
 10
0.0
 20
0.0
 30
0.0
  3
*D4
  1

  0
LINE
  5
F4
  8
0
  6
CONTINUOUS
 62
     2
 10
69.506323835832006
 20
54.822728122893999
 30
0.0
 11
73.652257254847001
 21
59.159920311983001
 31
0.0
  0
INSERT
  5
F5
  8
0
  6
CONTINUOUS
 62
     2
  2
_OPEN30
 10
73.652257254847001
 20
59.159920311983001
 30
0.0
 41
2.0
 42
2.0
 43
2.0
 50
226.29155981431001
  0
LINE
  5
F6
  8
0
  6
CONTINUOUS
 62
     2
 10
73.652257254847001
 20
59.159920311983001
 30
0.0
 11
93.663289744043027
 21
80.094094847847998
 31
0.0
  0
INSERT
  5
F7
  8
0
  6
CONTINUOUS
  2
*U53
 10
0.0
 20
0.0
 30
0.0
  0
ENDBLK
  5
F8
  8
0
  0
BLOCK
  8
0
  2
*D5
 70
     1
 10
0.0
 20
0.0
 30
0.0
  3
*D5
  1

  0
LINE
  5
FA
  8
0
  6
CONTINUOUS
 62
     2
 10
57.506323835832013
 20
55.822728122893992
 30
0.0
 11
57.506323835832013
 21
73.150612224304993
 31
0.0
  0
LINE
  5
FB
  8
0
  6
CONTINUOUS
 62
     2
 10
75.506323835832006
 20
55.822728122893992
 30
0.0
 11
75.506323835832006
 21
73.150612224304993
 31
0.0
  0
LINE
  5
FC
  8
0
  6
CONTINUOUS
 62
     2
 10
57.506323835832013
 20
72.150612224305007
 30
0.0
 11
75.506323835832006
 21
72.150612224305007
 31
0.0
  0
INSERT
  5
FD
  8
0
  6
CONTINUOUS
 62
     2
  2
_OPEN30
 10
57.506323835832013
 20
72.150612224305007
 30
0.0
 41
2.0
 42
2.0
 43
2.0
 50
180.0
  0
INSERT
  5
FE
  8
0
  6
CONTINUOUS
 62
     2
  2
_OPEN30
 10
75.506323835832006
 20
72.150612224305007
 30
0.0
 41
2.0
 42
2.0
 43
2.0
  0
INSERT
  5
FF
  8
0
  6
CONTINUOUS
  2
*U54
 10
0.0
 20
0.0
 30
0.0
  0
ENDBLK
  5
100
  8
0
  0
BLOCK
  8
0
  2
*D6
 70
     1
 10
0.0
 20
0.0
 30
0.0
  3
*D6
  1

  0
LINE
  5
102
  8
0
  6
CONTINUOUS
 62
     2
 10
60.506323835831999
 20
137.31359510498999
 30
0.0
 11
60.506323835831999
 21
130.90429812374001
 31
0.0
  0
LINE
  5
103
  8
0
  6
CONTINUOUS
 62
     2
 10
72.506323835832006
 20
137.31359510498999
 30
0.0
 11
72.506323835832006
 21
130.90429812374001
 31
0.0
  0
LINE
  5
104
  8
0
  6
CONTINUOUS
 62
     2
 10
60.506323835831999
 20
131.90429812374001
 30
0.0
 11
72.506323835832006
 21
131.90429812374001
 31
0.0
  0
LINE
  5
105
  8
0
  6
CONTINUOUS
 62
     2
 10
72.506323835832006
 20
131.90429812374001
 30
0.0
 11
87.167408707290988
 21
131.90429812374001
 31
0.0
  0
INSERT
  5
106
  8
0
  6
CONTINUOUS
 62
     2
  2
_OPEN30
 10
60.506323835831999
 20
131.90429812374001
 30
0.0
 41
2.0
 42
2.0
 43
2.0
 50
180.0
  0
INSERT
  5
107
  8
0
  6
CONTINUOUS
 62
     2
  2
_OPEN30
 10
72.506323835832006
 20
131.90429812374001
 30
0.0
 41
2.0
 42
2.0
 43
2.0
  0
INSERT
  5
108
  8
0
  6
CONTINUOUS
  2
*U55
 10
0.0
 20
0.0
 30
0.0
  0
ENDBLK
  5
109
  8
0
  0
BLOCK
  8
0
  2
*D7
 70
     1
 10
0.0
 20
0.0
 30
0.0
  3
*D7
  1

  0
LINE
  5
10B
  8
0
  6
CONTINUOUS
 62
     2
 10
50.406323835832012
 20
116.82945581536001
 30
0.0
 11
31.53621147027
 21
116.82945581536001
 31
0.0
  0
LINE
  5
10C
  8
0
  6
CONTINUOUS
 62
     2
 10
65.506323835832006
 20
252.82945581536001
 30
0.0
 11
31.53621147027
 21
252.82945581536001
 31
0.0
  0
LINE
  5
10D
  8
0
  6
CONTINUOUS
 62
     2
 10
32.536211470269997
 20
116.82945581536001
 30
0.0
 11
32.536211470269997
 21
252.82945581536001
 31
0.0
  0
INSERT
  5
10E
  8
0
  6
CONTINUOUS
 62
     2
  2
_OPEN30
 10
32.536211470269997
 20
116.82945581536001
 30
0.0
 41
2.0
 42
2.0
 43
2.0
 50
270.0
  0
INSERT
  5
10F
  8
0
  6
CONTINUOUS
 62
     2
  2
_OPEN30
 10
32.536211470269997
 20
252.82945581536001
 30
0.0
 41
2.0
 42
2.0
 43
2.0
 50
90.0
  0
INSERT
  5
110
  8
0
  6
CONTINUOUS
  2
*U56
 10
0.0
 20
0.0
 30
0.0
  0
ENDBLK
  5
111
  8
0
  0
BLOCK
  8
0
  2
BLOCK002
 70
     0
 10
0.0
 20
0.0
 30
0.0
  3
BLOCK002
  1

  0
LINE
  5
113
  8
0
  6
CONTINUOUS
 62
     1
 10
51.406323835831998
 20
226.34218615135001
 30
0.0
 11
56.406323835831998
 21
231.34218615135001
 31
0.0
  0
LINE
  5
114
  8
0
  6
CONTINUOUS
 62
     1
 10
74.262675040857985
 20
249.19853735637
 30
0.0
 11
81.606323835832001
 21
256.54218615134999
 31
0.0
  0
LINE
  5
115
  8
0
  6
CONTINUOUS
 62
     1
 10
51.406323835831998
 20
230.58482683847001
 30
0.0
 11
56.406323835831998
 21
235.58482683847001
 31
0.0
  0
LINE
  5
116
  8
0
  6
CONTINUOUS
 62
     1
 10
72.015872793577003
 20
251.19437579621001
 30
0.0
 11
78.550952812725001
 21
257.72945581535998
 31
0.0
  0
LINE
  5
117
  8
0
  6
CONTINUOUS
 62
     1
 10
51.406323835831998
 20
234.82746752559001
 30
0.0
 11
56.406323835831998
 21
239.82746752559001
 31
0.0
  0
LINE
  5
118
  8
0
  6
CONTINUOUS
 62
     1
 10
69.075961012606996
 20
252.49710470235999
 30
0.0
 11
74.308312125606008
 21
257.72945581535998
 31
0.0
  0
LINE
  5
119
  8
0
  6
CONTINUOUS
 62
     1
 10
51.406323835831998
 20
239.07010821271001
 30
0.0
 11
56.510150565434003
 21
244.17393494231001
 31
0.0
  0
LINE
  5
11A
  8
0
  6
CONTINUOUS
 62
     1
 10
65.061844708883996
 20
252.72562908576
 30
0.0
 11
70.065671438487001
 21
257.72945581535998
 31
0.0
  0
LINE
  5
11B
  8
0
  6
CONTINUOUS
 62
     1
 10
51.406323835831998
 20
243.31274889982001
 30
0.0
 11
65.823030751366986
 21
257.72945581535998
 31
0.0
  0
LINE
  5
11C
  8
0
  6
CONTINUOUS
 62
     1
 10
51.406323835831998
 20
247.55538958694001
 30
0.0
 11
61.580390064248
 21
257.72945581535998
 31
0.0
  0
LINE
  5
11D
  8
0
  6
CONTINUOUS
 62
     1
 10
51.406323835831998
 20
251.79803027406001
 30
0.0
 11
57.337749377129001
 21
257.72945581535998
 31
0.0
  0
LINE
  5
11E
  8
0
  6
CONTINUOUS
 62
     1
 10
51.406323835831998
 20
256.0406709611799
 30
0.0
 11
53.095108690010001
 21
257.72945581535998
 31
0.0
  0
LINE
  5
11F
  8
0
  6
CONTINUOUS
 62
     1
 10
51.406323835831998
 20
188.15841996726999
 30
0.0
 11
56.406323835831998
 21
193.15841996726999
 31
0.0
  0
LINE
  5
120
  8
0
  6
CONTINUOUS
 62
     1
 10
76.606323835832001
 20
213.35841996727001
 30
0.0
 11
81.606323835832001
 21
218.35841996727001
 31
0.0
  0
LINE
  5
121
  8
0
  6
CONTINUOUS
 62
     1
 10
51.406323835831998
 20
192.40106065438999
 30
0.0
 11
56.406323835831998
 21
197.40106065438999
 31
0.0
  0
LINE
  5
122
  8
0
  6
CONTINUOUS
 62
     1
 10
76.606323835832001
 20
217.60106065439001
 30
0.0
 11
81.606323835832001
 21
222.60106065439001
 31
0.0
  0
LINE
  5
123
  8
0
  6
CONTINUOUS
 62
     1
 10
51.406323835831998
 20
196.64370134151
 30
0.0
 11
56.406323835831998
 21
201.64370134151
 31
0.0
  0
LINE
  5
124
  8
0
  6
CONTINUOUS
 62
     1
 10
76.606323835832001
 20
221.84370134151001
 30
0.0
 11
81.606323835832001
 21
226.84370134151001
 31
0.0
  0
LINE
  5
125
  8
0
  6
CONTINUOUS
 62
     1
 10
51.406323835831998
 20
200.88634202863
 30
0.0
 11
56.406323835831998
 21
205.88634202863
 31
0.0
  0
LINE
  5
126
  8
0
  6
CONTINUOUS
 62
     1
 10
76.606323835832001
 20
226.08634202863001
 30
0.0
 11
81.606323835832001
 21
231.08634202863001
 31
0.0
  0
LINE
  5
127
  8
0
  6
CONTINUOUS
 62
     1
 10
51.406323835831998
 20
205.12898271575
 30
0.0
 11
56.406323835831998
 21
210.12898271575
 31
0.0
  0
LINE
  5
128
  8
0
  6
CONTINUOUS
 62
     1
 10
76.606323835832001
 20
230.32898271574999
 30
0.0
 11
81.606323835832001
 21
235.32898271574999
 31
0.0
  0
LINE
  5
129
  8
0
  6
CONTINUOUS
 62
     1
 10
51.406323835831998
 20
209.37162340287
 30
0.0
 11
56.406323835831998
 21
214.37162340287
 31
0.0
  0
LINE
  5
12A
  8
0
  6
CONTINUOUS
 62
     1
 10
76.606323835832001
 20
234.57162340286999
 30
0.0
 11
81.606323835832001
 21
239.57162340286999
 31
0.0
  0
LINE
  5
12B
  8
0
  6
CONTINUOUS
 62
     1
 10
51.406323835831998
 20
213.61426408999
 30
0.0
 11
56.406323835831998
 21
218.61426408999
 31
0.0
  0
LINE
  5
12C
  8
0
  6
CONTINUOUS
 62
     1
 10
76.606323835832001
 20
238.81426408998999
 30
0.0
 11
81.606323835832001
 21
243.81426408998999
 31
0.0
  0
LINE
  5
12D
  8
0
  6
CONTINUOUS
 62
     1
 10
51.406323835831998
 20
217.85690477711
 30
0.0
 11
56.406323835831998
 21
222.85690477711
 31
0.0
  0
LINE
  5
12E
  8
0
  6
CONTINUOUS
 62
     1
 10
76.601179924670006
 20
243.05176086595
 30
0.0
 11
81.606323835832001
 21
248.05690477710999
 31
0.0
  0
LINE
  5
12F
  8
0
  6
CONTINUOUS
 62
     1
 10
51.406323835831998
 20
222.09954546423
 30
0.0
 11
56.406323835831998
 21
227.09954546423
 31
0.0
  0
LINE
  5
130
  8
0
  6
CONTINUOUS
 62
     1
 10
75.856111801766005
 20
246.54933343016009
 30
0.0
 11
81.606323835832001
 21
252.29954546422999
 31
0.0
  0
LINE
  5
131
  8
0
  6
CONTINUOUS
 62
     1
 10
51.406323835831998
 20
183.91577928014999
 30
0.0
 11
56.406323835831998
 21
188.91577928014999
 31
0.0
  0
LINE
  5
132
  8
0
  6
CONTINUOUS
 62
     1
 10
76.606323835832001
 20
209.11577928015001
 30
0.0
 11
81.606323835832001
 21
214.11577928015001
 31
0.0
  0
LINE
  5
133
  8
0
  6
CONTINUOUS
 62
     1
 10
51.406323835831998
 20
141.48937240896001
 30
0.0
 11
56.406323835831998
 21
146.48937240896001
 31
0.0
  0
LINE
  5
134
  8
0
  6
CONTINUOUS
 62
     1
 10
76.606323835832001
 20
166.68937240896
 30
0.0
 11
81.606323835832001
 21
171.68937240896
 31
0.0
  0
LINE
  5
135
  8
0
  6
CONTINUOUS
 62
     1
 10
51.406323835831998
 20
145.73201309608001
 30
0.0
 11
56.406323835831998
 21
150.73201309608001
 31
0.0
  0
LINE
  5
136
  8
0
  6
CONTINUOUS
 62
     1
 10
76.606323835832001
 20
170.93201309608
 30
0.0
 11
81.606323835832001
 21
175.93201309608
 31
0.0
  0
LINE
  5
137
  8
0
  6
CONTINUOUS
 62
     1
 10
51.406323835831998
 20
149.97465378320001
 30
0.0
 11
56.406323835831998
 21
154.97465378320001
 31
0.0
  0
LINE
  5
138
  8
0
  6
CONTINUOUS
 62
     1
 10
76.606323835832001
 20
175.1746537832
 30
0.0
 11
81.606323835832001
 21
180.1746537832
 31
0.0
  0
LINE
  5
139
  8
0
  6
CONTINUOUS
 62
     1
 10
51.406323835831998
 20
154.21729447032001
 30
0.0
 11
56.406323835831998
 21
159.2172944703199
 31
0.0
  0
LINE
  5
13A
  8
0
  6
CONTINUOUS
 62
     1
 10
76.606323835832001
 20
179.41729447031989
 30
0.0
 11
81.606323835832001
 21
184.41729447031989
 31
0.0
  0
LINE
  5
13B
  8
0
  6
CONTINUOUS
 62
     1
 10
51.406323835831998
 20
158.45993515743999
 30
0.0
 11
56.406323835831998
 21
163.45993515743999
 31
0.0
  0
LINE
  5
13C
  8
0
  6
CONTINUOUS
 62
     1
 10
76.606323835832001
 20
183.65993515744
 30
0.0
 11
81.606323835832001
 21
188.65993515744
 31
0.0
  0
LINE
  5
13D
  8
0
  6
CONTINUOUS
 62
     1
 10
51.406323835831998
 20
162.70257584455999
 30
0.0
 11
56.406323835831998
 21
167.70257584455999
 31
0.0
  0
LINE
  5
13E
  8
0
  6
CONTINUOUS
 62
     1
 10
76.606323835832001
 20
187.90257584456
 30
0.0
 11
81.606323835832001
 21
192.90257584456
 31
0.0
  0
LINE
  5
13F
  8
0
  6
CONTINUOUS
 62
     1
 10
51.406323835831998
 20
166.94521653167999
 30
0.0
 11
56.406323835831998
 21
171.94521653167999
 31
0.0
  0
LINE
  5
140
  8
0
  6
CONTINUOUS
 62
     1
 10
76.606323835832001
 20
192.14521653168001
 30
0.0
 11
81.606323835832001
 21
197.14521653168001
 31
0.0
  0
LINE
  5
141
  8
0
  6
CONTINUOUS
 62
     1
 10
51.406323835831998
 20
171.18785721879999
 30
0.0
 11
56.406323835831998
 21
176.18785721879999
 31
0.0
  0
LINE
  5
142
  8
0
  6
CONTINUOUS
 62
     1
 10
76.606323835832001
 20
196.38785721880001
 30
0.0
 11
81.606323835832001
 21
201.38785721880001
 31
0.0
  0
LINE
  5
143
  8
0
  6
CONTINUOUS
 62
     1
 10
51.406323835831998
 20
175.43049790591999
 30
0.0
 11
56.406323835831998
 21
180.43049790591999
 31
0.0
  0
LINE
  5
144
  8
0
  6
CONTINUOUS
 62
     1
 10
76.606323835832001
 20
200.63049790592001
 30
0.0
 11
81.606323835832001
 21
205.63049790592001
 31
0.0
  0
LINE
  5
145
  8
0
  6
CONTINUOUS
 62
     1
 10
51.406323835831998
 20
179.67313859303999
 30
0.0
 11
56.406323835831998
 21
184.67313859303999
 31
0.0
  0
LINE
  5
146
  8
0
  6
CONTINUOUS
 62
     1
 10
76.606323835832001
 20
204.87313859304001
 30
0.0
 11
81.606323835832001
 21
209.87313859304001
 31
0.0
  0
LINE
  5
147
  8
0
  6
CONTINUOUS
 62
     1
 10
76.606323835832001
 20
128.50560622488999
 30
0.0
 11
81.606323835832001
 21
133.50560622488999
 31
0.0
  0
LINE
  5
148
  8
0
  6
CONTINUOUS
 62
     1
 10
76.606323835832001
 20
132.74824691200999
 30
0.0
 11
81.606323835832001
 21
137.74824691200999
 31
0.0
  0
LINE
  5
149
  8
0
  6
CONTINUOUS
 62
     1
 10
76.606323835832001
 20
136.99088759912999
 30
0.0
 11
81.606323835832001
 21
141.99088759912999
 31
0.0
  0
LINE
  5
14A
  8
0
  6
CONTINUOUS
 62
     1
 10
52.202251364946001
 20
116.82945581536001
 30
0.0
 11
56.406323835831998
 21
121.03352828625
 31
0.0
  0
LINE
  5
14B
  8
0
  6
CONTINUOUS
 62
     1
 10
76.606323835832001
 20
141.23352828624999
 30
0.0
 11
81.606323835832001
 21
146.23352828624999
 31
0.0
  0
LINE
  5
14C
  8
0
  6
CONTINUOUS
 62
     1
 10
51.406323835831998
 20
120.27616897337001
 30
0.0
 11
56.406323835831998
 21
125.27616897337001
 31
0.0
  0
LINE
  5
14D
  8
0
  6
CONTINUOUS
 62
     1
 10
76.606323835832001
 20
145.47616897336999
 30
0.0
 11
81.606323835832001
 21
150.47616897336999
 31
0.0
  0
LINE
  5
14E
  8
0
  6
CONTINUOUS
 62
     1
 10
51.406323835831998
 20
124.51880966048
 30
0.0
 11
56.406323835831998
 21
129.51880966048
 31
0.0
  0
LINE
  5
14F
  8
0
  6
CONTINUOUS
 62
     1
 10
76.606323835832001
 20
149.71880966047999
 30
0.0
 11
81.606323835832001
 21
154.71880966047999
 31
0.0
  0
LINE
  5
150
  8
0
  6
CONTINUOUS
 62
     1
 10
51.406323835831998
 20
128.7614503476
 30
0.0
 11
56.406323835831998
 21
133.7614503476
 31
0.0
  0
LINE
  5
151
  8
0
  6
CONTINUOUS
 62
     1
 10
76.606323835832001
 20
153.96145034759999
 30
0.0
 11
81.606323835832001
 21
158.96145034759999
 31
0.0
  0
LINE
  5
152
  8
0
  6
CONTINUOUS
 62
     1
 10
51.406323835831998
 20
133.00409103472001
 30
0.0
 11
56.406323835831998
 21
138.00409103472001
 31
0.0
  0
LINE
  5
153
  8
0
  6
CONTINUOUS
 62
     1
 10
76.606323835832001
 20
158.20409103471999
 30
0.0
 11
81.606323835832001
 21
163.20409103471999
 31
0.0
  0
LINE
  5
154
  8
0
  6
CONTINUOUS
 62
     1
 10
51.406323835831998
 20
137.24673172184001
 30
0.0
 11
56.406323835831998
 21
142.24673172184001
 31
0.0
  0
LINE
  5
155
  8
0
  6
CONTINUOUS
 62
     1
 10
76.606323835832001
 20
162.44673172183991
 30
0.0
 11
81.606323835832001
 21
167.44673172183991
 31
0.0
  0
LINE
  5
156
  8
0
  6
CONTINUOUS
 62
     1
 10
76.606323835832001
 20
124.26296553777
 30
0.0
 11
81.606323835832001
 21
129.26296553776999
 31
0.0
  0
LINE
  5
157
  8
0
  6
CONTINUOUS
 62
     1
 10
77.658095487661996
 20
116.82945581536001
 30
0.0
 11
81.606323835832001
 21
120.77768416353
 31
0.0
  0
LINE
  5
158
  8
0
  6
CONTINUOUS
 62
     1
 10
76.606323835832001
 20
120.02032485065
 30
0.0
 11
81.606323835832001
 21
125.02032485065
 31
0.0
  0
ENDBLK
  5
159
  8
0
  0
BLOCK
  8
0
  2
*D9
 70
     1
 10
0.0
 20
0.0
 30
0.0
  3
*D9
  1

  0
LINE
  5
15B
  8
0
  6
CONTINUOUS
 62
     2
 10
50.406323835832012
 20
116.82945581536001
 30
0.0
 11
40.386844580462999
 21
116.82945581536001
 31
0.0
  0
LINE
  5
15C
  8
0
  6
CONTINUOUS
 62
     2
 10
46.787525252525988
 20
151.82945581536001
 30
0.0
 11
40.386844580462999
 21
151.82945581536001
 31
0.0
  0
LINE
  5
15D
  8
0
  6
CONTINUOUS
 62
     2
 10
41.386844580462999
 20
116.82945581536001
 30
0.0
 11
41.386844580462999
 21
151.82945581536001
 31
0.0
  0
INSERT
  5
15E
  8
0
  6
CONTINUOUS
 62
     2
  2
_OPEN30
 10
41.386844580462999
 20
116.82945581536001
 30
0.0
 41
2.0
 42
2.0
 43
2.0
 50
270.0
  0
INSERT
  5
15F
  8
0
  6
CONTINUOUS
 62
     2
  2
_OPEN30
 10
41.386844580462999
 20
151.82945581536001
 30
0.0
 41
2.0
 42
2.0
 43
2.0
 50
90.0
  0
INSERT
  5
160
  8
0
  6
CONTINUOUS
  2
*U57
 10
0.0
 20
0.0
 30
0.0
  0
ENDBLK
  5
161
  8
0
  0
BLOCK
  8
0
  2
*D10
 70
     1
 10
0.0
 20
0.0
 30
0.0
  3
*D10
  1

  0
LINE
  5
163
  8
0
  6
CONTINUOUS
 62
     2
 10
46.787525252525988
 20
151.82945581536001
 30
0.0
 11
40.386844580462999
 21
151.82945581536001
 31
0.0
  0
LINE
  5
164
  8
0
  6
CONTINUOUS
 62
     2
 10
47.952505366568012
 20
245.32945581536001
 30
0.0
 11
40.386844580462999
 21
245.32945581536001
 31
0.0
  0
LINE
  5
165
  8
0
  6
CONTINUOUS
 62
     2
 10
41.386844580462999
 20
151.82945581536001
 30
0.0
 11
41.386844580462999
 21
245.32945581536001
 31
0.0
  0
INSERT
  5
166
  8
0
  6
CONTINUOUS
 62
     2
  2
_OPEN30
 10
41.386844580462999
 20
151.82945581536001
 30
0.0
 41
2.0
 42
2.0
 43
2.0
 50
270.0
  0
INSERT
  5
167
  8
0
  6
CONTINUOUS
 62
     2
  2
_OPEN30
 10
41.386844580462999
 20
245.32945581536001
 30
0.0
 41
2.0
 42
2.0
 43
2.0
 50
90.0
  0
INSERT
  5
168
  8
0
  6
CONTINUOUS
  2
*U58
 10
0.0
 20
0.0
 30
0.0
  0
ENDBLK
  5
169
  8
0
  0
BLOCK
  8
0
  2
*D11
 70
     1
 10
0.0
 20
0.0
 30
0.0
  3
*D11
  1

  0
POLYLINE
  5
16B
  8
0
  6
CONTINUOUS
 62
     2
 66
     1
 10
0.0
 20
0.0
 30
0.0
  0
VERTEX
  5
533
  8
0
  6
CONTINUOUS
 62
     2
 10
67.368386286578001
 20
244.42427719707001
 30
0.0
  0
VERTEX
  5
534
  8
0
  6
CONTINUOUS
 62
     2
 10
83.135442429865989
 20
227.86862965438999
 30
0.0
  0
VERTEX
  5
535
  8
0
  6
CONTINUOUS
 62
     2
 10
115.13544242987
 20
227.86862965438999
 30
0.0
  0
SEQEND
  5
536
  8
0
  6
CONTINUOUS
 62
     2
  0
INSERT
  5
170
  8
0
  6
CONTINUOUS
 62
     2
  2
_OPEN30
 10
67.368386286578001
 20
244.42427719707001
 30
0.0
 41
2.0
 42
2.0
 43
2.0
 50
133.60240660085
  0
INSERT
  5
171
  8
0
  6
CONTINUOUS
  2
*U59
 10
0.0
 20
0.0
 30
0.0
  0
ENDBLK
  5
172
  8
0
  0
BLOCK
  8
0
  2
*D12
 70
     1
 10
0.0
 20
0.0
 30
0.0
  3
*D12
  1

  0
LINE
  5
174
  8
0
  6
CONTINUOUS
 62
     2
 10
56.406323835831998
 20
243.72945581536001
 30
0.0
 11
56.406323835831998
 21
265.56170737080998
 31
0.0
  0
LINE
  5
175
  8
0
  6
CONTINUOUS
 62
     2
 10
76.606323835832001
 20
243.72945581536001
 30
0.0
 11
76.606323835832001
 21
265.56170737080998
 31
0.0
  0
LINE
  5
176
  8
0
  6
CONTINUOUS
 62
     2
 10
56.406323835831998
 20
264.5617073708101
 30
0.0
 11
76.606323835832001
 21
264.5617073708101
 31
0.0
  0
LINE
  5
177
  8
0
  6
CONTINUOUS
 62
     2
 10
76.606323835832001
 20
264.5617073708101
 30
0.0
 11
101.92821005151001
 21
264.5617073708101
 31
0.0
  0
INSERT
  5
178
  8
0
  6
CONTINUOUS
 62
     2
  2
_OPEN30
 10
56.406323835831998
 20
264.5617073708101
 30
0.0
 41
2.0
 42
2.0
 43
2.0
 50
180.0
  0
INSERT
  5
179
  8
0
  6
CONTINUOUS
 62
     2
  2
_OPEN30
 10
76.606323835832001
 20
264.5617073708101
 30
0.0
 41
2.0
 42
2.0
 43
2.0
  0
INSERT
  5
17A
  8
0
  6
CONTINUOUS
  2
*U60
 10
0.0
 20
0.0
 30
0.0
  0
ENDBLK
  5
17B
  8
0
  0
BLOCK
  8
0
  2
*D13
 70
     1
 10
0.0
 20
0.0
 30
0.0
  3
*D13
  1

  0
POLYLINE
  5
17D
  8
0
  6
CONTINUOUS
 62
     2
 66
     1
 10
0.0
 20
0.0
 30
0.0
  0
VERTEX
  5
541
  8
0
  6
CONTINUOUS
 62
     2
 10
58.504269925830997
 20
248.89201479856001
 30
0.0
  0
VERTEX
  5
542
  8
0
  6
CONTINUOUS
 62
     2
 10
46.120139252066998
 20
258.42930817236999
 30
0.0
  0
VERTEX
  5
543
  8
0
  6
CONTINUOUS
 62
     2
 10
28.120139252066998
 20
258.42930817236999
 30
0.0
  0
SEQEND
  5
544
  8
0
  6
CONTINUOUS
 62
     2
  0
INSERT
  5
182
  8
0
  6
CONTINUOUS
 62
     2
  2
_OPEN30
 10
58.504269925830997
 20
248.89201479856001
 30
0.0
 41
2.0
 42
2.0
 43
2.0
 50
322.39933534348
  0
INSERT
  5
183
  8
0
  6
CONTINUOUS
  2
*U61
 10
0.0
 20
0.0
 30
0.0
  0
ENDBLK
  5
184
  8
0
  0
BLOCK
  8
0
  2
*D14
 70
     1
 10
0.0
 20
0.0
 30
0.0
  3
*D14
  1

  0
LINE
  5
186
  8
0
  6
CONTINUOUS
 62
     2
 10
167.28489629556
 20
134.66376815863001
 30
0.0
 11
167.28489629556
 21
128.25447117738989
 31
0.0
  0
LINE
  5
187
  8
0
  6
CONTINUOUS
 62
     2
 10
179.28489629556
 20
134.66376815863001
 30
0.0
 11
179.28489629556
 21
128.25447117738989
 31
0.0
  0
LINE
  5
188
  8
0
  6
CONTINUOUS
 62
     2
 10
167.28489629556
 20
129.25447117738989
 30
0.0
 11
179.28489629556
 21
129.25447117738989
 31
0.0
  0
LINE
  5
189
  8
0
  6
CONTINUOUS
 62
     2
 10
179.28489629556
 20
129.25447117738989
 30
0.0
 11
193.94598116701999
 21
129.25447117738989
 31
0.0
  0
INSERT
  5
18A
  8
0
  6
CONTINUOUS
 62
     2
  2
_OPEN30
 10
167.28489629556
 20
129.25447117738989
 30
0.0
 41
2.0
 42
2.0
 43
2.0
 50
180.0
  0
INSERT
  5
18B
  8
0
  6
CONTINUOUS
 62
     2
  2
_OPEN30
 10
179.28489629556
 20
129.25447117738989
 30
0.0
 41
2.0
 42
2.0
 43
2.0
  0
INSERT
  5
18C
  8
0
  6
CONTINUOUS
  2
*U62
 10
0.0
 20
0.0
 30
0.0
  0
ENDBLK
  5
18D
  8
0
  0
BLOCK
  8
0
  2
*D15
 70
     1
 10
0.0
 20
0.0
 30
0.0
  3
*D15
  1

  0
LINE
  5
18F
  8
0
  6
CONTINUOUS
 62
     2
 10
189.25013785988989
 20
149.179628869
 30
0.0
 11
208.03419718297999
 21
149.179628869
 31
0.0
  0
LINE
  5
190
  8
0
  6
CONTINUOUS
 62
     2
 10
187.55129375902999
 20
242.679628869
 30
0.0
 11
208.03419718297999
 21
242.679628869
 31
0.0
  0
LINE
  5
191
  8
0
  6
CONTINUOUS
 62
     2
 10
207.03419718297999
 20
149.179628869
 30
0.0
 11
207.03419718297999
 21
242.679628869
 31
0.0
  0
INSERT
  5
192
  8
0
  6
CONTINUOUS
 62
     2
  2
_OPEN30
 10
207.03419718297999
 20
149.179628869
 30
0.0
 41
2.0
 42
2.0
 43
2.0
 50
270.0
  0
INSERT
  5
193
  8
0
  6
CONTINUOUS
 62
     2
  2
_OPEN30
 10
207.03419718297999
 20
242.679628869
 30
0.0
 41
2.0
 42
2.0
 43
2.0
 50
90.0
  0
INSERT
  5
194
  8
0
  6
CONTINUOUS
  2
*U63
 10
0.0
 20
0.0
 30
0.0
  0
ENDBLK
  5
195
  8
0
  0
BLOCK
  8
0
  2
*D16
 70
     1
 10
0.0
 20
0.0
 30
0.0
  3
*D16
  1

  0
LINE
  5
197
  8
0
  6
CONTINUOUS
 62
     2
 10
174.28489629556
 20
249.679628869
 30
0.0
 11
208.03419718297999
 21
249.679628869
 31
0.0
  0
LINE
  5
198
  8
0
  6
CONTINUOUS
 62
     2
 10
187.55129375902999
 20
242.679628869
 30
0.0
 11
208.03419718297999
 21
242.679628869
 31
0.0
  0
LINE
  5
199
  8
0
  6
CONTINUOUS
 62
     2
 10
207.03419718297999
 20
249.679628869
 30
0.0
 11
207.03419718297999
 21
242.679628869
 31
0.0
  0
INSERT
  5
19A
  8
0
  6
CONTINUOUS
 62
     2
  2
_OPEN30
 10
207.03419718297999
 20
249.679628869
 30
0.0
 41
2.0
 42
2.0
 43
2.0
 50
90.0
  0
INSERT
  5
19B
  8
0
  6
CONTINUOUS
 62
     2
  2
_OPEN30
 10
207.03419718297999
 20
242.679628869
 30
0.0
 41
2.0
 42
2.0
 43
2.0
 50
270.0
  0
INSERT
  5
19C
  8
0
  6
CONTINUOUS
  2
*U64
 10
0.0
 20
0.0
 30
0.0
  0
ENDBLK
  5
19D
  8
0
  0
BLOCK
  8
0
  2
*D17
 70
     1
 10
0.0
 20
0.0
 30
0.0
  3
*D17
  1

  0
LINE
  5
19F
  8
0
  6
CONTINUOUS
 62
     2
 10
189.25013785988989
 20
149.179628869
 30
0.0
 11
208.03419718297999
 21
149.179628869
 31
0.0
  0
LINE
  5
1A0
  8
0
  6
CONTINUOUS
 62
     2
 10
184.28489629556
 20
114.179628869
 30
0.0
 11
208.03419718297999
 21
114.179628869
 31
0.0
  0
LINE
  5
1A1
  8
0
  6
CONTINUOUS
 62
     2
 10
207.03419718297999
 20
149.179628869
 30
0.0
 11
207.03419718297999
 21
114.179628869
 31
0.0
  0
INSERT
  5
1A2
  8
0
  6
CONTINUOUS
 62
     2
  2
_OPEN30
 10
207.03419718297999
 20
149.179628869
 30
0.0
 41
2.0
 42
2.0
 43
2.0
 50
90.0
  0
INSERT
  5
1A3
  8
0
  6
CONTINUOUS
 62
     2
  2
_OPEN30
 10
207.03419718297999
 20
114.179628869
 30
0.0
 41
2.0
 42
2.0
 43
2.0
 50
270.0
  0
INSERT
  5
1A4
  8
0
  6
CONTINUOUS
  2
*U65
 10
0.0
 20
0.0
 30
0.0
  0
ENDBLK
  5
1A5
  8
0
  0
BLOCK
  8
0
  2
*D18
 70
     1
 10
0.0
 20
0.0
 30
0.0
  3
*D18
  1

  0
POLYLINE
  5
1A7
  8
0
  6
CONTINUOUS
 62
     2
 66
     1
 10
0.0
 20
0.0
 30
0.0
  0
VERTEX
  5
559
  8
0
  6
CONTINUOUS
 62
     2
 10
176.19788298660001
 20
249.24595044722
 30
0.0
  0
VERTEX
  5
55A
  8
0
  6
CONTINUOUS
 62
     2
 10
181.85548536626001
 20
267.82565899578998
 30
0.0
  0
VERTEX
  5
55B
  8
0
  6
CONTINUOUS
 62
     2
 10
199.85548536626001
 20
267.82565899578998
 30
0.0
  0
SEQEND
  5
55C
  8
0
  6
CONTINUOUS
 62
     2
  0
INSERT
  5
1AC
  8
0
  6
CONTINUOUS
 62
     2
  2
_OPEN30
 10
176.19788298660001
 20
249.24595044722
 30
0.0
 41
2.0
 42
2.0
 43
2.0
 50
253.06427855022
  0
INSERT
  5
1AD
  8
0
  6
CONTINUOUS
  2
*U66
 10
0.0
 20
0.0
 30
0.0
  0
ENDBLK
  5
1AE
  8
0
  0
BLOCK
  8
0
  2
*D19
 70
     1
 10
0.0
 20
0.0
 30
0.0
  3
*D19
  1

  0
POLYLINE
  5
1B0
  8
0
  6
CONTINUOUS
 62
     2
 66
     1
 10
0.0
 20
0.0
 30
0.0
  0
VERTEX
  5
561
  8
0
  6
CONTINUOUS
 62
     2
 10
174.62905387488999
 20
244.02247673899001
 30
0.0
  0
VERTEX
  5
562
  8
0
  6
CONTINUOUS
 62
     2
 10
187.2612387154
 20
256.64235313386001
 30
0.0
  0
VERTEX
  5
563
  8
0
  6
CONTINUOUS
 62
     2
 10
227.2612387154
 20
256.64235313386001
 30
0.0
  0
SEQEND
  5
564
  8
0
  6
CONTINUOUS
 62
     2
  0
INSERT
  5
1B5
  8
0
  6
CONTINUOUS
 62
     2
  2
_OPEN30
 10
174.62905387488999
 20
244.02247673899001
 30
0.0
 41
2.0
 42
2.0
 43
2.0
 50
224.97207269832001
  0
INSERT
  5
1B6
  8
0
  6
CONTINUOUS
  2
*U67
 10
0.0
 20
0.0
 30
0.0
  0
ENDBLK
  5
1B7
  8
0
  0
BLOCK
  8
0
  2
*D20
 70
     1
 10
0.0
 20
0.0
 30
0.0
  3
*D20
  1

  0
LINE
  5
1B9
  8
0
  6
CONTINUOUS
 62
     2
 10
172.28489629556
 20
249.679628869
 30
0.0
 11
138.50958008839001
 21
249.679628869
 31
0.0
  0
LINE
  5
1BA
  8
0
  6
CONTINUOUS
 62
     2
 10
162.28489629556
 20
114.179628869
 30
0.0
 11
138.50958008839001
 21
114.179628869
 31
0.0
  0
LINE
  5
1BB
  8
0
  6
CONTINUOUS
 62
     2
 10
139.50958008839001
 20
249.679628869
 30
0.0
 11
139.50958008839001
 21
114.179628869
 31
0.0
  0
INSERT
  5
1BC
  8
0
  6
CONTINUOUS
 62
     2
  2
_OPEN30
 10
139.50958008839001
 20
249.679628869
 30
0.0
 41
2.0
 42
2.0
 43
2.0
 50
90.0
  0
INSERT
  5
1BD
  8
0
  6
CONTINUOUS
 62
     2
  2
_OPEN30
 10
139.50958008839001
 20
114.179628869
 30
0.0
 41
2.0
 42
2.0
 43
2.0
 50
270.0
  0
INSERT
  5
1BE
  8
0
  6
CONTINUOUS
  2
*U68
 10
0.0
 20
0.0
 30
0.0
  0
ENDBLK
  5
1BF
  8
0
  0
BLOCK
  8
0
  2
*D21
 70
     1
 10
0.0
 20
0.0
 30
0.0
  3
*D21
  1

  0
LINE
  5
1C1
  8
0
  6
CONTINUOUS
 62
     2
 10
163.28489629556
 20
240.679628869
 30
0.0
 11
163.28489629556
 21
258.01126718799998
 31
0.0
  0
LINE
  5
1C2
  8
0
  6
CONTINUOUS
 62
     2
 10
183.28489629556
 20
240.679628869
 30
0.0
 11
183.28489629556
 21
258.01126718799998
 31
0.0
  0
LINE
  5
1C3
  8
0
  6
CONTINUOUS
 62
     2
 10
163.28489629556
 20
257.01126718799998
 30
0.0
 11
183.28489629556
 21
257.01126718799998
 31
0.0
  0
LINE
  5
1C4
  8
0
  6
CONTINUOUS
 62
     2
 10
163.28489629556
 20
257.01126718799998
 30
0.0
 11
143.55682872872001
 21
257.01126718799998
 31
0.0
  0
INSERT
  5
1C5
  8
0
  6
CONTINUOUS
 62
     2
  2
_OPEN30
 10
163.28489629556
 20
257.01126718799998
 30
0.0
 41
2.0
 42
2.0
 43
2.0
 50
180.0
  0
INSERT
  5
1C6
  8
0
  6
CONTINUOUS
 62
     2
  2
_OPEN30
 10
183.28489629556
 20
257.01126718799998
 30
0.0
 41
2.0
 42
2.0
 43
2.0
  0
INSERT
  5
1C7
  8
0
  6
CONTINUOUS
  2
*U69
 10
0.0
 20
0.0
 30
0.0
  0
ENDBLK
  5
1C8
  8
0
  0
BLOCK
  8
0
  2
BLOCK003
 70
     0
 10
0.0
 20
0.0
 30
0.0
  3
BLOCK003
  1

  0
LINE
  5
1CA
  8
0
  6
CONTINUOUS
 62
     1
 10
180.38489629556
 20
94.384563454306985
 30
0.0
 11
181.78489629556
 21
92.984563454306993
 31
0.0
  0
LINE
  5
1CB
  8
0
  6
CONTINUOUS
 62
     1
 10
180.38489629556
 20
95.798777016681015
 30
0.0
 11
181.78489629556
 21
94.398777016680995
 31
0.0
  0
LINE
  5
1CC
  8
0
  6
CONTINUOUS
 62
     1
 10
180.38489629556
 20
97.212990579053994
 30
0.0
 11
181.78489629556
 21
95.812990579053988
 31
0.0
  0
LINE
  5
1CD
  8
0
  6
CONTINUOUS
 62
     1
 10
180.38489629556
 20
98.627204141427001
 30
0.0
 11
181.78489629556
 21
97.227204141426995
 31
0.0
  0
LINE
  5
1CE
  8
0
  6
CONTINUOUS
 62
     1
 10
180.38489629556
 20
100.04141770379999
 30
0.0
 11
181.78489629556
 21
98.641417703799988
 31
0.0
  0
LINE
  5
1CF
  8
0
  6
CONTINUOUS
 62
     1
 10
181.66089869273
 20
100.179628869
 30
0.0
 11
181.78489629556
 21
100.05563126617
 31
0.0
  0
LINE
  5
1D0
  8
0
  6
CONTINUOUS
 62
     1
 10
164.78489629556
 20
97.256641392950002
 30
0.0
 11
166.18489629556001
 21
95.856641392949996
 31
0.0
  0
LINE
  5
1D1
  8
0
  6
CONTINUOUS
 62
     1
 10
174.66190881950001
 20
87.379628869004009
 30
0.0
 11
175.8619088195
 21
86.179628869004006
 31
0.0
  0
LINE
  5
1D2
  8
0
  6
CONTINUOUS
 62
     1
 10
164.78489629556
 20
98.670854955322994
 30
0.0
 11
166.18489629556001
 21
97.270854955323003
 31
0.0
  0
LINE
  5
1D3
  8
0
  6
CONTINUOUS
 62
     1
 10
176.07612238188
 20
87.379628869004009
 30
0.0
 11
177.27612238187999
 21
86.179628869004006
 31
0.0
  0
LINE
  5
1D4
  8
0
  6
CONTINUOUS
 62
     1
 10
164.78489629556
 20
100.08506851769999
 30
0.0
 11
166.18489629556001
 21
98.685068517695996
 31
0.0
  0
LINE
  5
1D5
  8
0
  6
CONTINUOUS
 62
     1
 10
177.49033594425001
 20
87.379628869004009
 30
0.0
 11
178.69033594424999
 21
86.179628869004006
 31
0.0
  0
LINE
  5
1D6
  8
0
  6
CONTINUOUS
 62
     1
 10
166.10454950661989
 20
100.179628869
 30
0.0
 11
166.18489629556001
 21
100.09928208007
 31
0.0
  0
LINE
  5
1D7
  8
0
  6
CONTINUOUS
 62
     1
 10
178.90454950661999
 20
87.379628869004009
 30
0.0
 11
180.08231187222
 21
86.201866503410002
 31
0.0
  0
LINE
  5
1D8
  8
0
  6
CONTINUOUS
 62
     1
 10
180.11654784125
 20
87.581844096745002
 30
0.0
 11
181.05976905470001
 21
86.638622883297003
 31
0.0
  0
LINE
  5
1D9
  8
0
  6
CONTINUOUS
 62
     1
 10
180.38489629556
 20
88.727709204814985
 30
0.0
 11
181.65140614807001
 21
87.461199352302003
 31
0.0
  0
LINE
  5
1DA
  8
0
  6
CONTINUOUS
 62
     1
 10
180.38489629556
 20
90.141922767188007
 30
0.0
 11
181.78489629556
 21
88.741922767187987
 31
0.0
  0
LINE
  5
1DB
  8
0
  6
CONTINUOUS
 62
     1
 10
180.38489629556
 20
91.556136329560999
 30
0.0
 11
181.78489629556
 21
90.156136329561008
 31
0.0
  0
LINE
  5
1DC
  8
0
  6
CONTINUOUS
 62
     1
 10
180.38489629556
 20
92.970349891933992
 30
0.0
 11
181.78489629556
 21
91.570349891934001
 31
0.0
  0
LINE
  5
1DD
  8
0
  6
CONTINUOUS
 62
     1
 10
164.78489629556
 20
95.842427830576
 30
0.0
 11
166.18489629556001
 21
94.442427830575994
 31
0.0
  0
LINE
  5
1DE
  8
0
  6
CONTINUOUS
 62
     1
 10
173.24769525713
 20
87.379628869004009
 30
0.0
 11
174.44769525712999
 21
86.179628869004006
 31
0.0
  0
LINE
  5
1DF
  8
0
  6
CONTINUOUS
 62
     1
 10
165.28201308167999
 20
86.860029670212015
 30
0.0
 11
165.46529709676
 21
86.676745655131015
 31
0.0
  0
LINE
  5
1E0
  8
0
  6
CONTINUOUS
 62
     1
 10
164.78489629556
 20
88.771360018710979
 30
0.0
 11
167.37662744526
 21
86.179628869004006
 31
0.0
  0
LINE
  5
1E1
  8
0
  6
CONTINUOUS
 62
     1
 10
164.78489629556
 20
90.185573581084014
 30
0.0
 11
166.18489629556001
 21
88.785573581083995
 31
0.0
  0
LINE
  5
1E2
  8
0
  6
CONTINUOUS
 62
     1
 10
167.59084100763999
 20
87.379628869004009
 30
0.0
 11
168.79084100764001
 21
86.179628869004006
 31
0.0
  0
LINE
  5
1E3
  8
0
  6
CONTINUOUS
 62
     1
 10
164.78489629556
 20
91.599787143456993
 30
0.0
 11
166.18489629556001
 21
90.199787143456987
 31
0.0
  0
LINE
  5
1E4
  8
0
  6
CONTINUOUS
 62
     1
 10
169.00505457001
 20
87.379628869004009
 30
0.0
 11
170.20505457000999
 21
86.179628869004006
 31
0.0
  0
LINE
  5
1E5
  8
0
  6
CONTINUOUS
 62
     1
 10
164.78489629556
 20
93.01400070583
 30
0.0
 11
166.18489629556001
 21
91.614000705830009
 31
0.0
  0
LINE
  5
1E6
  8
0
  6
CONTINUOUS
 62
     1
 10
170.41926813238001
 20
87.379628869004009
 30
0.0
 11
171.61926813238
 21
86.179628869004006
 31
0.0
  0
LINE
  5
1E7
  8
0
  6
CONTINUOUS
 62
     1
 10
164.78489629556
 20
94.428214268203007
 30
0.0
 11
166.18489629556001
 21
93.028214268202987
 31
0.0
  0
LINE
  5
1E8
  8
0
  6
CONTINUOUS
 62
     1
 10
171.83348169476
 20
87.379628869004009
 30
0.0
 11
173.03348169476001
 21
86.179628869004006
 31
0.0
  0
ENDBLK
  5
1E9
  8
0
  0
BLOCK
  8
0
  2
BLOCK004
 70
     0
 10
0.0
 20
0.0
 30
0.0
  3
BLOCK004
  1

  0
LINE
  5
1EB
  8
0
  6
CONTINUOUS
 62
     1
 10
179.38489629556
 20
98.975917128725001
 30
0.0
 11
180.38489629556
 21
99.975917128724006
 31
0.0
  0
LINE
  5
1EC
  8
0
  6
CONTINUOUS
 62
     1
 10
180.58860803584
 20
100.179628869
 30
0.0
 11
181.58860803584
 21
101.179628869
 31
0.0
  0
LINE
  5
1ED
  8
0
  6
CONTINUOUS
 62
     1
 10
179.38489629556
 20
100.3901306911
 30
0.0
 11
180.17439447346001
 21
101.179628869
 31
0.0
  0
LINE
  5
1EE
  8
0
  6
CONTINUOUS
 62
     1
 10
179.38489629556
 20
97.561703566351014
 30
0.0
 11
180.38489629556
 21
98.561703566350999
 31
0.0
  0
LINE
  5
1EF
  8
0
  6
CONTINUOUS
 62
     1
 10
182.00282159821001
 20
100.179628869
 30
0.0
 11
183.00282159821001
 21
101.179628869
 31
0.0
  0
LINE
  5
1F0
  8
0
  6
CONTINUOUS
 62
     1
 10
180.33124872296
 20
95.679628869004006
 30
0.0
 11
180.38489629556
 21
95.733276441604986
 31
0.0
  0
LINE
  5
1F1
  8
0
  6
CONTINUOUS
 62
     1
 10
179.38489629556
 20
96.147490003978007
 30
0.0
 11
180.38489629556
 21
97.147490003978021
 31
0.0
  0
LINE
  5
1F2
  8
0
  6
CONTINUOUS
 62
     1
 10
183.41703516058001
 20
100.179628869
 30
0.0
 11
184.28489629556
 21
101.04749000398
 31
0.0
  0
ENDBLK
  5
1F3
  8
0
  0
BLOCK
  8
0
  2
BLOCK005
 70
     0
 10
0.0
 20
0.0
 30
0.0
  3
BLOCK005
  1

  0
LINE
  5
1F5
  8
0
  6
CONTINUOUS
 62
     1
 10
166.18911309923001
 20
95.679628869004006
 30
0.0
 11
167.18489629556001
 21
96.675412065336005
 31
0.0
  0
LINE
  5
1F6
  8
0
  6
CONTINUOUS
 62
     1
 10
166.18489629556001
 20
97.089625627709012
 30
0.0
 11
167.18489629556001
 21
98.089625627709012
 31
0.0
  0
LINE
  5
1F7
  8
0
  6
CONTINUOUS
 62
     1
 10
166.18489629556001
 20
98.503839190082005
 30
0.0
 11
167.18489629556001
 21
99.50383919008199
 31
0.0
  0
LINE
  5
1F8
  8
0
  6
CONTINUOUS
 62
     1
 10
166.18489629556001
 20
99.918052752455992
 30
0.0
 11
167.18489629556001
 21
100.91805275246
 31
0.0
  0
LINE
  5
1F9
  8
0
  6
CONTINUOUS
 62
     1
 10
165.03225884973
 20
100.179628869
 30
0.0
 11
166.03225884973
 21
101.179628869
 31
0.0
  0
LINE
  5
1FA
  8
0
  6
CONTINUOUS
 62
     1
 10
163.61804528735999
 20
100.179628869
 30
0.0
 11
164.61804528735999
 21
101.179628869
 31
0.0
  0
LINE
  5
1FB
  8
0
  6
CONTINUOUS
 62
     1
 10
162.28489629556
 20
100.26069343957001
 30
0.0
 11
163.2038317249899
 21
101.179628869
 31
0.0
  0
ENDBLK
  5
1FC
  8
0
  0
BLOCK
  8
0
  2
*D25
 70
     1
 10
0.0
 20
0.0
 30
0.0
  3
*D25
  1

  0
LINE
  5
1FE
  8
0
  6
CONTINUOUS
 62
     2
 10
267.8015550722601
 20
88.179628869005015
 30
0.0
 11
269.13475979079999
 21
86.688801857423016
 31
0.0
  0
INSERT
  5
1FF
  8
0
  6
CONTINUOUS
 62
     2
  2
_OPEN30
 10
269.13475979079999
 20
86.688801857423016
 30
0.0
 41
2.0
 42
2.0
 43
2.0
 50
131.80537175410001
  0
LINE
  5
200
  8
0
  6
CONTINUOUS
 62
     2
 10
269.13475979079999
 20
86.688801857423016
 30
0.0
 11
282.15783922746999
 21
72.126028167694997
 31
0.0
  0
INSERT
  5
201
  8
0
  6
CONTINUOUS
  2
*U70
 10
0.0
 20
0.0
 30
0.0
  0
ENDBLK
  5
202
  8
0
  0
BLOCK
  8
0
  2
*D26
 70
     1
 10
0.0
 20
0.0
 30
0.0
  3
*D26
  1

  0
LINE
  5
204
  8
0
  6
CONTINUOUS
 62
     2
 10
281.60155507226
 20
101.179628869
 30
0.0
 11
296.60628117558002
 21
101.179628869
 31
0.0
  0
LINE
  5
205
  8
0
  6
CONTINUOUS
 62
     2
 10
269.10155507226
 20
86.179628869004006
 30
0.0
 11
296.60628117558002
 21
86.179628869004006
 31
0.0
  0
LINE
  5
206
  8
0
  6
CONTINUOUS
 62
     2
 10
295.60628117558002
 20
101.179628869
 30
0.0
 11
295.60628117558002
 21
86.179628869004006
 31
0.0
  0
LINE
  5
207
  8
0
  6
CONTINUOUS
 62
     2
 10
295.60628117558002
 20
101.179628869
 30
0.0
 11
295.60628117558002
 21
114.77349834249
 31
0.0
  0
INSERT
  5
208
  8
0
  6
CONTINUOUS
 62
     2
  2
_OPEN30
 10
295.60628117558002
 20
101.179628869
 30
0.0
 41
2.0
 42
2.0
 43
2.0
 50
90.0
  0
INSERT
  5
209
  8
0
  6
CONTINUOUS
 62
     2
  2
_OPEN30
 10
295.60628117558002
 20
86.179628869004006
 30
0.0
 41
2.0
 42
2.0
 43
2.0
 50
270.0
  0
INSERT
  5
20A
  8
0
  6
CONTINUOUS
  2
*U71
 10
0.0
 20
0.0
 30
0.0
  0
ENDBLK
  5
20B
  8
0
  0
BLOCK
  8
0
  2
*D27
 70
     1
 10
0.0
 20
0.0
 30
0.0
  3
*D27
  1

  0
LINE
  5
20D
  8
0
  6
CONTINUOUS
 62
     2
 10
245.10155507226
 20
87.179628869004006
 30
0.0
 11
245.10155507226
 21
73.298332800535007
 31
0.0
  0
LINE
  5
20E
  8
0
  6
CONTINUOUS
 62
     2
 10
270.10155507226
 20
87.179628869005995
 30
0.0
 11
270.10155507226
 21
73.298332800535007
 31
0.0
  0
LINE
  5
20F
  8
0
  6
CONTINUOUS
 62
     2
 10
245.10155507226
 20
74.298332800534993
 30
0.0
 11
270.10155507226
 21
74.298332800534993
 31
0.0
  0
INSERT
  5
210
  8
0
  6
CONTINUOUS
 62
     2
  2
_OPEN30
 10
245.10155507226
 20
74.298332800534993
 30
0.0
 41
2.0
 42
2.0
 43
2.0
 50
180.0
  0
INSERT
  5
211
  8
0
  6
CONTINUOUS
 62
     2
  2
_OPEN30
 10
270.10155507226
 20
74.298332800534993
 30
0.0
 41
2.0
 42
2.0
 43
2.0
  0
INSERT
  5
212
  8
0
  6
CONTINUOUS
  2
*U72
 10
0.0
 20
0.0
 30
0.0
  0
ENDBLK
  5
213
  8
0
  0
BLOCK
  8
0
  2
*D28
 70
     1
 10
0.0
 20
0.0
 30
0.0
  3
*D28
  1

  0
LINE
  5
215
  8
0
  6
CONTINUOUS
 62
     2
 10
281.60155507226
 20
100.179628869
 30
0.0
 11
288.68567271946
 21
100.179628869
 31
0.0
  0
LINE
  5
216
  8
0
  6
CONTINUOUS
 62
     2
 10
281.60155507226
 20
101.179628869
 30
0.0
 11
288.68567271946
 21
101.179628869
 31
0.0
  0
LINE
  5
217
  8
0
  6
CONTINUOUS
 62
     2
 10
287.68567271946
 20
100.179628869
 30
0.0
 11
287.68567271946
 21
101.179628869
 31
0.0
  0
LINE
  5
218
  8
0
  6
CONTINUOUS
 62
     2
 10
287.68567271946
 20
101.179628869
 30
0.0
 11
287.68567271946
 21
105.91850052738
 31
0.0
  0
INSERT
  5
219
  8
0
  6
CONTINUOUS
 62
     2
  2
_OPEN30
 10
287.68567271946
 20
100.179628869
 30
0.0
 41
2.0
 42
2.0
 43
2.0
 50
90.0
  0
INSERT
  5
21A
  8
0
  6
CONTINUOUS
 62
     2
  2
_OPEN30
 10
287.68567271946
 20
101.179628869
 30
0.0
 41
2.0
 42
2.0
 43
2.0
 50
270.0
  0
LINE
  5
21B
  8
0
  6
CONTINUOUS
 62
     2
 10
287.68567271946
 20
100.179628869
 30
0.0
 11
287.68567271946
 21
97.679628869004006
 31
0.0
  0
LINE
  5
21C
  8
0
  6
CONTINUOUS
 62
     2
 10
287.68567271946
 20
101.179628869
 30
0.0
 11
287.68567271946
 21
105.91850052738
 31
0.0
  0
INSERT
  5
21D
  8
0
  6
CONTINUOUS
  2
*U73
 10
0.0
 20
0.0
 30
0.0
  0
ENDBLK
  5
21E
  8
0
  0
BLOCK
  8
0
  2
BLOCK006
 70
     0
 10
0.0
 20
0.0
 30
0.0
  3
BLOCK006
  1

  0
LINE
  5
220
  8
0
  6
CONTINUOUS
 62
     1
 10
167.76339612483
 20
40.355057727785002
 30
0.0
 11
170.41541063411
 21
37.703043218505996
 31
0.0
  0
LINE
  5
221
  8
0
  6
CONTINUOUS
 62
     1
 10
167.30365070004001
 20
42.229016714948003
 30
0.0
 11
171.8296241964799
 21
37.703043218505996
 31
0.0
  0
LINE
  5
222
  8
0
  6
CONTINUOUS
 62
     1
 10
167.35160682359
 20
43.59527415376899
 30
0.0
 11
173.24383775884999
 21
37.703043218505996
 31
0.0
  0
LINE
  5
223
  8
0
  6
CONTINUOUS
 62
     1
 10
167.63591662812999
 20
44.725177911600987
 30
0.0
 11
174.65805132123
 21
37.703043218505996
 31
0.0
  0
LINE
  5
224
  8
0
  6
CONTINUOUS
 62
     1
 10
168.08272102671
 20
45.692587075390989
 30
0.0
 11
176.07226488360001
 21
37.703043218505996
 31
0.0
  0
LINE
  5
225
  8
0
  6
CONTINUOUS
 62
     1
 10
168.66187011213
 20
46.527651552351998
 30
0.0
 11
177.10950462939999
 21
38.080017035075997
 31
0.0
  0
LINE
  5
226
  8
0
  6
CONTINUOUS
 62
     1
 10
170.31490557071999
 20
47.703043218505996
 30
0.0
 11
178.41933846582
 21
39.598610323401999
 31
0.0
  0
LINE
  5
227
  8
0
  6
CONTINUOUS
 62
     1
 10
171.72911913308999
 20
47.703043218505996
 30
0.0
 11
178.88442080313999
 21
40.547741548452997
 31
0.0
  0
LINE
  5
228
  8
0
  6
CONTINUOUS
 62
     1
 10
173.14333269546
 20
47.703043218505996
 30
0.0
 11
179.19246165141999
 21
41.653914262550998
 31
0.0
  0
LINE
  5
229
  8
0
  6
CONTINUOUS
 62
     1
 10
174.55754625783999
 20
47.703043218505996
 30
0.0
 11
179.27839918727
 21
42.982190289070999
 31
0.0
  0
LINE
  5
22A
  8
0
  6
CONTINUOUS
 62
     1
 10
175.97175982021
 20
47.703043218505996
 30
0.0
 11
178.92500061801999
 21
44.749802420698003
 31
0.0
  0
LINE
  5
22B
  8
0
  6
CONTINUOUS
 62
     1
 10
169.36134062981
 20
47.242394597039997
 30
0.0
 11
177.82424767409
 21
38.779487552760003
 31
0.0
  0
LINE
  5
22C
  8
0
  6
CONTINUOUS
 62
     1
 10
172.44590326419001
 20
37.703043218505996
 30
0.0
 11
179.06289964487999
 21
44.320039599200001
 31
0.0
  0
LINE
  5
22D
  8
0
  6
CONTINUOUS
 62
     1
 10
171.03168970182
 20
37.703043218505996
 30
0.0
 11
178.67249048957001
 21
45.343844006261989
 31
0.0
  0
LINE
  5
22E
  8
0
  6
CONTINUOUS
 62
     1
 10
169.76119126047001
 20
37.846758339535
 30
0.0
 11
178.14118117453
 21
46.226748253591012
 31
0.0
  0
LINE
  5
22F
  8
0
  6
CONTINUOUS
 62
     1
 10
169.00163509561
 20
38.501415737041988
 30
0.0
 11
177.48652377702001
 21
46.986304418457003
 31
0.0
  0
LINE
  5
230
  8
0
  6
CONTINUOUS
 62
     1
 10
168.36077699064001
 20
39.274771194448
 30
0.0
 11
176.71316831961991
 21
47.627162523423991
 31
0.0
  0
LINE
  5
231
  8
0
  6
CONTINUOUS
 62
     1
 10
167.84453195165
 20
40.172739717831
 30
0.0
 11
175.37483545232001
 21
47.703043218505996
 31
0.0
  0
LINE
  5
232
  8
0
  6
CONTINUOUS
 62
     1
 10
167.47239435533001
 20
41.214815683881
 30
0.0
 11
173.96062188995
 21
47.703043218505996
 31
0.0
  0
LINE
  5
233
  8
0
  6
CONTINUOUS
 62
     1
 10
167.29036209138999
 20
42.446996982317998
 30
0.0
 11
172.54640832758
 21
47.703043218505996
 31
0.0
  0
LINE
  5
234
  8
0
  6
CONTINUOUS
 62
     1
 10
167.42606547473
 20
43.996913928034992
 30
0.0
 11
171.13219476520001
 21
47.703043218505996
 31
0.0
  0
LINE
  5
235
  8
0
  6
CONTINUOUS
 62
     1
 10
176.89962854667999
 20
37.914127813877002
 30
0.0
 11
178.07381170018991
 21
39.088310967383997
 31
0.0
  0
LINE
  5
236
  8
0
  6
CONTINUOUS
 62
     1
 10
175.27433038894
 20
37.703043218505996
 30
0.0
 11
179.1852219479
 21
41.613934777467001
 31
0.0
  0
LINE
  5
237
  8
0
  6
CONTINUOUS
 62
     1
 10
173.86011682655999
 20
37.703043218505996
 30
0.0
 11
179.27082315071999
 21
43.113749542658987
 31
0.0
  0
ENDBLK
  5
238
  8
0
  0
BLOCK
  8
0
  2
*D30
 70
     1
 10
0.0
 20
0.0
 30
0.0
  3
*D30
  1

  0
POLYLINE
  5
23A
  8
0
  6
CONTINUOUS
 62
     2
 66
     1
 10
0.0
 20
0.0
 30
0.0
  0
VERTEX
  5
589
  8
0
  6
CONTINUOUS
 62
     2
 10
178.91524068272
 20
44.776499772652997
 30
0.0
  0
VERTEX
  5
58A
  8
0
  6
CONTINUOUS
 62
     2
 10
184.0388507152299
 20
46.663343999625987
 30
0.0
  0
VERTEX
  5
58B
  8
0
  6
CONTINUOUS
 62
     2
 10
196.03885071523001
 20
46.663343999625987
 30
0.0
  0
SEQEND
  5
58C
  8
0
  6
CONTINUOUS
 62
     2
  0
INSERT
  5
23F
  8
0
  6
CONTINUOUS
 62
     2
  2
_OPEN30
 10
178.91524068272
 20
44.776499772652997
 30
0.0
 41
2.0
 42
2.0
 43
2.0
 50
200.21696654519999
  0
INSERT
  5
240
  8
0
  6
CONTINUOUS
  2
*U74
 10
0.0
 20
0.0
 30
0.0
  0
ENDBLK
  5
241
  8
0
  0
BLOCK
  8
0
  2
*D31
 70
     1
 10
0.0
 20
0.0
 30
0.0
  3
*D31
  1

  0
LINE
  5
243
  8
0
  6
CONTINUOUS
 62
     2
 10
162.28489629556
 20
114.179628869
 30
0.0
 11
138.50958008839001
 21
114.179628869
 31
0.0
  0
LINE
  5
244
  8
0
  6
CONTINUOUS
 62
     2
 10
166.28489629556
 20
88.979628869003989
 30
0.0
 11
138.50958008839001
 21
88.979628869003989
 31
0.0
  0
LINE
  5
245
  8
0
  6
CONTINUOUS
 62
     2
 10
139.50958008839001
 20
114.179628869
 30
0.0
 11
139.50958008839001
 21
88.979628869003989
 31
0.0
  0
INSERT
  5
246
  8
0
  6
CONTINUOUS
 62
     2
  2
_OPEN30
 10
139.50958008839001
 20
114.179628869
 30
0.0
 41
2.0
 42
2.0
 43
2.0
 50
90.0
  0
INSERT
  5
247
  8
0
  6
CONTINUOUS
 62
     2
  2
_OPEN30
 10
139.50958008839001
 20
88.979628869003989
 30
0.0
 41
2.0
 42
2.0
 43
2.0
 50
270.0
  0
INSERT
  5
248
  8
0
  6
CONTINUOUS
  2
*U75
 10
0.0
 20
0.0
 30
0.0
  0
ENDBLK
  5
249
  8
0
  0
BLOCK
  8
0
  2
*D32
 70
     1
 10
0.0
 20
0.0
 30
0.0
  3
*D32
  1

  0
LINE
  5
24B
  8
0
  6
CONTINUOUS
 62
     2
 10
167.18489629556001
 20
36.703043218505996
 30
0.0
 11
167.18489629556001
 21
12.202409023029
 31
0.0
  0
LINE
  5
24C
  8
0
  6
CONTINUOUS
 62
     2
 10
179.38489629556
 20
36.703043218505996
 30
0.0
 11
179.38489629556
 21
12.202409023029
 31
0.0
  0
LINE
  5
24D
  8
0
  6
CONTINUOUS
 62
     2
 10
167.18489629556001
 20
13.202409023029
 30
0.0
 11
179.38489629556
 21
13.202409023029
 31
0.0
  0
LINE
  5
24E
  8
0
  6
CONTINUOUS
 62
     2
 10
179.38489629556
 20
13.202409023029
 30
0.0
 11
195.63823722153001
 21
13.202409023029
 31
0.0
  0
INSERT
  5
24F
  8
0
  6
CONTINUOUS
 62
     2
  2
_OPEN30
 10
167.18489629556001
 20
13.202409023029
 30
0.0
 41
2.0
 42
2.0
 43
2.0
 50
180.0
  0
INSERT
  5
250
  8
0
  6
CONTINUOUS
 62
     2
  2
_OPEN30
 10
179.38489629556
 20
13.202409023029
 30
0.0
 41
2.0
 42
2.0
 43
2.0
  0
INSERT
  5
251
  8
0
  6
CONTINUOUS
  2
*U76
 10
0.0
 20
0.0
 30
0.0
  0
ENDBLK
  5
252
  8
0
  0
BLOCK
  8
0
  2
_ARCHTICK
 70
     0
 10
0.0
 20
0.0
 30
0.0
  3
_ARCHTICK
  1

  0
POLYLINE
  5
86
  8
0
  6
BYBLOCK
 62
     0
 66
     1
 10
0.0
 20
0.0
 30
0.0
 70
     1
 40
0.15
 41
0.15
  0
VERTEX
  5
4E5
  8
0
  6
BYBLOCK
 62
     0
 10
-0.5
 20
-0.5
 30
0.0
  0
VERTEX
  5
4E6
  8
0
  6
BYBLOCK
 62
     0
 10
0.5
 20
0.5
 30
0.0
  0
SEQEND
  5
4E7
  8
0
  6
BYBLOCK
 62
     0
  0
ENDBLK
  5
8A
  8
0
  0
BLOCK
  8
0
  2
_BOXBLANK
 70
     0
 10
0.0
 20
0.0
 30
0.0
  3
_BOXBLANK
  1

  0
LINE
  5
8F
  8
0
  6
BYBLOCK
 62
     0
 10
-0.5
 20
-0.5
 30
0.0
 11
0.5
 21
-0.5
 31
0.0
  0
LINE
  5
90
  8
0
  6
BYBLOCK
 62
     0
 10
0.5
 20
-0.5
 30
0.0
 11
0.5
 21
0.5
 31
0.0
  0
LINE
  5
91
  8
0
  6
BYBLOCK
 62
     0
 10
0.5
 20
0.5
 30
0.0
 11
-0.5
 21
0.5
 31
0.0
  0
LINE
  5
92
  8
0
  6
BYBLOCK
 62
     0
 10
-0.5
 20
0.5
 30
0.0
 11
-0.5
 21
-0.5
 31
0.0
  0
LINE
  5
93
  8
0
  6
BYBLOCK
 62
     0
 10
-0.5
 20
0.0
 30
0.0
 11
-1.0
 21
0.0
 31
0.0
  0
ENDBLK
  5
94
  8
0
  0
BLOCK
  8
0
  2
_BOXFILLED
 70
     0
 10
0.0
 20
0.0
 30
0.0
  3
_BOXFILLED
  1

  0
SOLID
  5
96
  8
0
  6
BYBLOCK
 62
     0
 10
-0.5
 20
0.5
 30
0.0
 11
0.5
 21
0.5
 31
0.0
 12
-0.5
 22
-0.5
 32
0.0
 13
0.5
 23
-0.5
 33
0.0
  0
LINE
  5
97
  8
0
  6
BYBLOCK
 62
     0
 10
-0.5
 20
0.0
 30
0.0
 11
-1.0
 21
0.0
 31
0.0
  0
ENDBLK
  5
98
  8
0
  0
BLOCK
  8
0
  2
_CLOSED
 70
     0
 10
0.0
 20
0.0
 30
0.0
  3
_CLOSED
  1

  0
LINE
  5
9A
  8
0
  6
BYBLOCK
 62
     0
 10
-1.0
 20
0.16666666666667
 30
0.0
 11
0.0
 21
0.0
 31
0.0
  0
LINE
  5
9B
  8
0
  6
BYBLOCK
 62
     0
 10
0.0
 20
0.0
 30
0.0
 11
-1.0
 21
-0.16666666666667
 31
0.0
  0
LINE
  5
9C
  8
0
  6
BYBLOCK
 62
     0
 10
-1.0
 20
0.16666666666667
 30
0.0
 11
-1.0
 21
-0.16666666666667
 31
0.0
  0
LINE
  5
9D
  8
0
  6
BYBLOCK
 62
     0
 10
0.0
 20
0.0
 30
0.0
 11
-1.0
 21
0.0
 31
0.0
  0
ENDBLK
  5
9E
  8
0
  0
BLOCK
  8
0
  2
_CLOSEDBLANK
 70
     0
 10
0.0
 20
0.0
 30
0.0
  3
_CLOSEDBLANK
  1

  0
LINE
  5
AF
  8
0
  6
BYBLOCK
 62
     0
 10
-1.0
 20
0.16666666666667
 30
0.0
 11
0.0
 21
0.0
 31
0.0
  0
LINE
  5
B0
  8
0
  6
BYBLOCK
 62
     0
 10
0.0
 20
0.0
 30
0.0
 11
-1.0
 21
-0.16666666666667
 31
0.0
  0
LINE
  5
B1
  8
0
  6
BYBLOCK
 62
     0
 10
-1.0
 20
0.16666666666667
 30
0.0
 11
-1.0
 21
-0.16666666666667
 31
0.0
  0
ENDBLK
  5
B2
  8
0
  0
BLOCK
  8
0
  2
_DATUMBLANK
 70
     0
 10
0.0
 20
0.0
 30
0.0
  3
_DATUMBLANK
  1

  0
LINE
  5
C1
  8
0
  6
BYBLOCK
 62
     0
 10
0.0
 20
0.5773502700000001
 30
0.0
 11
-1.0
 21
0.0
 31
0.0
  0
LINE
  5
C2
  8
0
  6
BYBLOCK
 62
     0
 10
-1.0
 20
0.0
 30
0.0
 11
0.0
 21
-0.5773502700000001
 31
0.0
  0
LINE
  5
C3
  8
0
  6
BYBLOCK
 62
     0
 10
0.0
 20
-0.5773502700000001
 30
0.0
 11
0.0
 21
0.5773502700000001
 31
0.0
  0
ENDBLK
  5
C4
  8
0
  0
BLOCK
  8
0
  2
_DATUMFILLED
 70
     0
 10
0.0
 20
0.0
 30
0.0
  3
_DATUMFILLED
  1

  0
SOLID
  5
C6
  8
0
  6
BYBLOCK
 62
     0
 10
0.0
 20
0.5773502700000001
 30
0.0
 11
-1.0
 21
0.0
 31
0.0
 12
0.0
 22
-0.5773502700000001
 32
0.0
 13
0.0
 23
-0.5773502700000001
 33
0.0
  0
ENDBLK
  5
C7
  8
0
  0
BLOCK
  8
0
  2
_DOT
 70
     0
 10
0.0
 20
0.0
 30
0.0
  3
_DOT
  1

  0
POLYLINE
  5
B4
  8
0
  6
BYBLOCK
 62
     0
 66
     1
 10
0.0
 20
0.0
 30
0.0
 70
     1
 40
0.5
 41
0.5
  0
VERTEX
  5
4E8
  8
0
  6
BYBLOCK
 62
     0
 10
-0.25
 20
0.0
 30
0.0
 42
1.0
  0
VERTEX
  5
4E9
  8
0
  6
BYBLOCK
 62
     0
 10
0.25
 20
0.0
 30
0.0
 42
1.0
  0
SEQEND
  5
4EA
  8
0
  6
BYBLOCK
 62
     0
  0
LINE
  5
B8
  8
0
  6
BYBLOCK
 62
     0
 10
-0.5
 20
0.0
 30
0.0
 11
-1.0
 21
0.0
 31
0.0
  0
ENDBLK
  5
B9
  8
0
  0
BLOCK
  8
0
  2
_DOTBLANK
 70
     0
 10
0.0
 20
0.0
 30
0.0
  3
_DOTBLANK
  1

  0
CIRCLE
  5
D0
  8
0
  6
BYBLOCK
 62
     0
 10
0.0
 20
0.0
 30
0.0
 40
0.5
  0
LINE
  5
D1
  8
0
  6
BYBLOCK
 62
     0
 10
-0.5
 20
0.0
 30
0.0
 11
-1.0
 21
0.0
 31
0.0
  0
ENDBLK
  5
D2
  8
0
  0
BLOCK
  8
0
  2
_DOTSMALL
 70
     0
 10
0.0
 20
0.0
 30
0.0
  3
_DOTSMALL
  1

  0
POLYLINE
  5
BB
  8
0
  6
BYBLOCK
 62
     0
 66
     1
 10
0.0
 20
0.0
 30
0.0
 70
     1
 40
0.5
 41
0.5
  0
VERTEX
  5
4EB
  8
0
  6
BYBLOCK
 62
     0
 10
-0.0625
 20
0.0
 30
0.0
 42
1.0
  0
VERTEX
  5
4EC
  8
0
  6
BYBLOCK
 62
     0
 10
0.0625
 20
0.0
 30
0.0
 42
1.0
  0
SEQEND
  5
4ED
  8
0
  6
BYBLOCK
 62
     0
  0
ENDBLK
  5
BF
  8
0
  0
BLOCK
  8
0
  2
_INTEGRAL
 70
     0
 10
0.0
 20
0.0
 30
0.0
  3
_INTEGRAL
  1

  0
ARC
  5
D4
  8
0
  6
BYBLOCK
 62
     0
 10
0.444888
 20
-0.091335
 30
0.0
 40
0.454167
 50
102.0
 51
168.0
  0
ARC
  5
D5
  8
0
  6
BYBLOCK
 62
     0
 10
-0.444888
 20
0.091335
 30
0.0
 40
0.454167
 50
282.0
 51
348.0
  0
ENDBLK
  5
D6
  8
0
  0
BLOCK
  8
0
  2
_NONE
 70
     0
 10
0.0
 20
0.0
 30
0.0
  3
_NONE
  1

  0
CIRCLE
  5
CD
  8
0
  6
BYBLOCK
 62
     0
 10
0.0
 20
0.0
 30
0.0
 40
0.25
  0
ENDBLK
  5
CE
  8
0
  0
BLOCK
  8
0
  2
_OBLIQUE
 70
     0
 10
0.0
 20
0.0
 30
0.0
  3
_OBLIQUE
  1

  0
LINE
  5
8C
  8
0
  6
BYBLOCK
 62
     0
 10
-0.5
 20
-0.5
 30
0.0
 11
0.5
 21
0.5
 31
0.0
  0
ENDBLK
  5
8D
  8
0
  0
BLOCK
  8
0
  2
_OPEN
 70
     0
 10
0.0
 20
0.0
 30
0.0
  3
_OPEN
  1

  0
LINE
  5
A0
  8
0
  6
BYBLOCK
 62
     0
 10
-1.0
 20
0.16666666666667
 30
0.0
 11
0.0
 21
0.0
 31
0.0
  0
LINE
  5
A1
  8
0
  6
BYBLOCK
 62
     0
 10
0.0
 20
0.0
 30
0.0
 11
-1.0
 21
-0.16666666666667
 31
0.0
  0
LINE
  5
A2
  8
0
  6
BYBLOCK
 62
     0
 10
0.0
 20
0.0
 30
0.0
 11
-1.0
 21
0.0
 31
0.0
  0
ENDBLK
  5
A3
  8
0
  0
BLOCK
  8
0
  2
_OPEN30
 70
     0
 10
0.0
 20
0.0
 30
0.0
  3
_OPEN30
  1

  0
LINE
  5
A5
  8
0
  6
BYBLOCK
 62
     0
 10
-1.0
 20
0.2679491924311
 30
0.0
 11
0.0
 21
0.0
 31
0.0
  0
LINE
  5
A6
  8
0
  6
BYBLOCK
 62
     0
 10
0.0
 20
0.0
 30
0.0
 11
-1.0
 21
-0.2679491924311
 31
0.0
  0
LINE
  5
A7
  8
0
  6
BYBLOCK
 62
     0
 10
0.0
 20
0.0
 30
0.0
 11
-1.0
 21
0.0
 31
0.0
  0
ENDBLK
  5
A8
  8
0
  0
BLOCK
  8
0
  2
_OPEN90
 70
     0
 10
0.0
 20
0.0
 30
0.0
  3
_OPEN90
  1

  0
LINE
  5
AA
  8
0
  6
BYBLOCK
 62
     0
 10
-0.5
 20
0.5
 30
0.0
 11
0.0
 21
0.0
 31
0.0
  0
LINE
  5
AB
  8
0
  6
BYBLOCK
 62
     0
 10
0.0
 20
0.0
 30
0.0
 11
-0.5
 21
-0.5
 31
0.0
  0
LINE
  5
AC
  8
0
  6
BYBLOCK
 62
     0
 10
0.0
 20
0.0
 30
0.0
 11
-1.0
 21
0.0
 31
0.0
  0
ENDBLK
  5
AD
  8
0
  0
BLOCK
  8
0
  2
_ORIGIN
 70
     0
 10
0.0
 20
0.0
 30
0.0
  3
_ORIGIN
  1

  0
CIRCLE
  5
C9
  8
0
  6
BYBLOCK
 62
     0
 10
0.0
 20
0.0
 30
0.0
 40
0.5
  0
LINE
  5
CA
  8
0
  6
BYBLOCK
 62
     0
 10
0.0
 20
0.0
 30
0.0
 11
-1.0
 21
0.0
 31
0.0
  0
ENDBLK
  5
CB
  8
0
  0
BLOCK
  8
0
  2
*U50
 70
     1
 10
0.0
 20
0.0
 30
0.0
  3
*U50
  1

  0
TEXT
  5
506
  8
0
  6
CONTINUOUS
 62
     2
 10
46.636523363883327
 20
33.639394789560669
 30
0.0
 40
4.0
  1
25.2
 50
90.0
  7
GMM001
  0
TEXT
  5
507
  8
0
  6
CONTINUOUS
 62
     2
 10
44.219856697216663
 20
46.972728122893997
 30
0.0
 40
2.5
  1
+0.2
 50
90.0
  7
GMM001
  0
TEXT
  5
508
  8
0
  6
CONTINUOUS
 62
     2
 10
47.553190030549999
 20
46.972728122893997
 30
0.0
 40
2.5
  1
-0
 50
90.0
  7
GMM001
  0
ENDBLK
  5
50A
  8
0
  0
BLOCK
  8
0
  2
*U51
 70
     1
 10
0.0
 20
0.0
 30
0.0
  3
*U51
  1

  0
TEXT
  5
50C
  8
0
  6
CONTINUOUS
 62
     2
 10
38.499050128181999
 20
44.889394789560669
 30
0.0
 40
4.0
  1
36
 50
90.0
  7
GMM001
  0
ENDBLK
  5
50E
  8
0
  0
BLOCK
  8
0
  2
*U52
 70
     1
 10
0.0
 20
0.0
 30
0.0
  3
*U52
  1

  0
TEXT
  5
514
  8
0
  6
CONTINUOUS
 62
     2
 10
81.938368634168995
 20
39.279858751288998
 30
0.0
 40
4.0
  1
下穴:2-\U+22052.5
  7
GMM001
  0
ENDBLK
  5
516
  8
0
  0
BLOCK
  8
0
  2
*U53
 70
     1
 10
0.0
 20
0.0
 30
0.0
  3
*U53
  1

  0
TEXT
  5
518
  8
0
  6
CONTINUOUS
 62
     2
 10
82.750247331362999
 20
71.158532145406994
 30
0.0
 40
4.0
  1
4-R6
 50
46.291559814312691
  7
GMM001
  0
ENDBLK
  5
51A
  8
0
  0
BLOCK
  8
0
  2
*U54
 70
     1
 10
0.0
 20
0.0
 30
0.0
  3
*U54
  1

  0
TEXT
  5
51C
  8
0
  6
CONTINUOUS
 62
     2
 10
55.256323835831999
 20
73.826221867719994
 30
0.0
 40
4.0
  1
18
  7
GMM001
  0
TEXT
  5
51D
  8
0
  6
CONTINUOUS
 62
     2
 10
61.922990502498671
 20
76.24288853438668
 30
0.0
 40
2.5
  1
\U+F8FD0.2
  7
GMM001
  0
TEXT
  5
51E
  8
0
  6
CONTINUOUS
 62
     2
 10
61.922990502498671
 20
75.409555201053351
 30
0.0
 40
2.5
  1
 
  7
GMM001
  0
ENDBLK
  5
520
  8
0
  0
BLOCK
  8
0
  2
*U55
 70
     1
 10
0.0
 20
0.0
 30
0.0
  3
*U55
  1

  0
TEXT
  5
522
  8
0
  6
CONTINUOUS
 62
     2
 10
79.167408707291003
 20
133.56561107355
 30
0.0
 40
4.0
  1
12
  7
GMM001
  0
ENDBLK
  5
524
  8
0
  0
BLOCK
  8
0
  2
*U56
 70
     1
 10
0.0
 20
0.0
 30
0.0
  3
*U56
  1

  0
TEXT
  5
526
  8
0
  6
CONTINUOUS
 62
     2
 10
29.90525908931733
 20
171.57945581536001
 30
0.0
 40
4.0
  1
136
 50
90.0
  7
GMM001
  0
TEXT
  5
527
  8
0
  6
CONTINUOUS
 62
     2
 10
27.488592422650669
 20
182.24612248202661
 30
0.0
 40
2.5
  1
+0
 50
90.0
  7
GMM001
  0
TEXT
  5
528
  8
0
  6
CONTINUOUS
 62
     2
 10
30.821925755984001
 20
182.24612248202661
 30
0.0
 40
2.5
  1
-0.2
 50
90.0
  7
GMM001
  0
ENDBLK
  5
52A
  8
0
  0
BLOCK
  8
0
  2
*U57
 70
     1
 10
0.0
 20
0.0
 30
0.0
  3
*U57
  1

  0
TEXT
  5
52C
  8
0
  6
CONTINUOUS
 62
     2
 10
39.672558866176999
 20
130.99612248202661
 30
0.0
 40
4.0
  1
35
 50
90.0
  7
GMM001
  0
ENDBLK
  5
52E
  8
0
  0
BLOCK
  8
0
  2
*U58
 70
     1
 10
0.0
 20
0.0
 30
0.0
  3
*U58
  1

  0
TEXT
  5
530
  8
0
  6
CONTINUOUS
 62
     2
 10
39.672558866176999
 20
192.57945581536001
 30
0.0
 40
4.0
  1
93.5
 50
90.0
  7
GMM001
  0
ENDBLK
  5
532
  8
0
  0
BLOCK
  8
0
  2
*U59
 70
     1
 10
0.0
 20
0.0
 30
0.0
  3
*U59
  1

  0
TEXT
  5
538
  8
0
  6
CONTINUOUS
 62
     2
 10
83.135442429865989
 20
229.58291536868001
 30
0.0
 40
4.0
  1
下穴:3-\U+22052.5
  7
GMM001
  0
ENDBLK
  5
53A
  8
0
  0
BLOCK
  8
0
  2
*U60
 70
     1
 10
0.0
 20
0.0
 30
0.0
  3
*U60
  1

  0
TEXT
  5
53C
  8
0
  6
CONTINUOUS
 62
     2
 10
79.178210051505985
 20
266.67666570390998
 30
0.0
 40
4.0
  1
20.2
  7
GMM001
  0
TEXT
  5
53D
  8
0
  6
CONTINUOUS
 62
     2
 10
91.844876718172671
 20
269.09333237057672
 30
0.0
 40
2.5
  1
\U+F8FD0.1
  7
GMM001
  0
TEXT
  5
53E
  8
0
  6
CONTINUOUS
 62
     2
 10
91.844876718172671
 20
268.2599990372434
 30
0.0
 40
2.5
  1
 
  7
GMM001
  0
ENDBLK
  5
540
  8
0
  0
BLOCK
  8
0
  2
*U61
 70
     1
 10
0.0
 20
0.0
 30
0.0
  3
*U61
  1

  0
TEXT
  5
546
  8
0
  6
CONTINUOUS
 62
     2
 10
28.120139252066998
 20
260.14359388666003
 30
0.0
 40
4.0
  1
R10.1
  7
GMM001
  0
ENDBLK
  5
548
  8
0
  0
BLOCK
  8
0
  2
*U62
 70
     1
 10
0.0
 20
0.0
 30
0.0
  3
*U62
  1

  0
TEXT
  5
54A
  8
0
  6
CONTINUOUS
 62
     2
 10
185.94598116701999
 20
130.91578412718999
 30
0.0
 40
4.0
  1
12
  7
GMM001
  0
ENDBLK
  5
54C
  8
0
  0
BLOCK
  8
0
  2
*U63
 70
     1
 10
0.0
 20
0.0
 30
0.0
  3
*U63
  1

  0
TEXT
  5
54E
  8
0
  6
CONTINUOUS
 62
     2
 10
205.31991146870001
 20
189.929628869
 30
0.0
 40
4.0
  1
93.5
 50
90.0
  7
GMM001
  0
ENDBLK
  5
550
  8
0
  0
BLOCK
  8
0
  2
*U64
 70
     1
 10
0.0
 20
0.0
 30
0.0
  3
*U64
  1

  0
TEXT
  5
552
  8
0
  6
CONTINUOUS
 62
     2
 10
205.31991146870001
 20
244.84629553566671
 30
0.0
 40
4.0
  1
7
 50
90.0
  7
GMM001
  0
ENDBLK
  5
554
  8
0
  0
BLOCK
  8
0
  2
*U65
 70
     1
 10
0.0
 20
0.0
 30
0.0
  3
*U65
  1

  0
TEXT
  5
556
  8
0
  6
CONTINUOUS
 62
     2
 10
205.31991146870001
 20
128.3462955356666
 30
0.0
 40
4.0
  1
35
 50
90.0
  7
GMM001
  0
ENDBLK
  5
558
  8
0
  0
BLOCK
  8
0
  2
*U66
 70
     1
 10
0.0
 20
0.0
 30
0.0
  3
*U66
  1

  0
TEXT
  5
55E
  8
0
  6
CONTINUOUS
 62
     2
 10
181.85548536626001
 20
269.53994471007002
 30
0.0
 40
4.0
  1
2-R10
  7
GMM001
  0
ENDBLK
  5
560
  8
0
  0
BLOCK
  8
0
  2
*U67
 70
     1
 10
0.0
 20
0.0
 30
0.0
  3
*U67
  1

  0
TEXT
  5
566
  8
0
  6
CONTINUOUS
 62
     2
 10
187.2612387154
 20
258.35663884815
 30
0.0
 40
4.0
  1
3-\U+22053.8穴、\U+22057皿
  7
GMM001
  0
ENDBLK
  5
568
  8
0
  0
BLOCK
  8
0
  2
*U68
 70
     1
 10
0.0
 20
0.0
 30
0.0
  3
*U68
  1

  0
TEXT
  5
56A
  8
0
  6
CONTINUOUS
 62
     2
 10
137.7952943741
 20
166.01296220233331
 30
0.0
 40
4.0
  1
135.5
 50
90.0
  7
GMM001
  0
TEXT
  5
56B
  8
0
  6
CONTINUOUS
 62
     2
 10
135.37862770743331
 20
182.0129622023334
 30
0.0
 40
2.5
  1
\U+F8FD0.5
 50
90.0
  7
GMM001
  0
TEXT
  5
56C
  8
0
  6
CONTINUOUS
 62
     2
 10
136.21196104076671
 20
182.0129622023334
 30
0.0
 40
2.5
  1
 
 50
90.0
  7
GMM001
  0
ENDBLK
  5
56E
  8
0
  0
BLOCK
  8
0
  2
*U69
 70
     1
 10
0.0
 20
0.0
 30
0.0
  3
*U69
  1

  0
TEXT
  5
570
  8
0
  6
CONTINUOUS
 62
     2
 10
140.34849539538661
 20
258.34031754784002
 30
0.0
 40
4.0
  1
20
  7
GMM001
  0
TEXT
  5
571
  8
0
  6
CONTINUOUS
 62
     2
 10
147.68182872872001
 20
260.7569842145067
 30
0.0
 40
2.5
  1
\U+F8FD0.2
  7
GMM001
  0
TEXT
  5
572
  8
0
  6
CONTINUOUS
 62
     2
 10
147.68182872872001
 20
259.92365088117339
 30
0.0
 40
2.5
  1
 
  7
GMM001
  0
ENDBLK
  5
574
  8
0
  0
BLOCK
  8
0
  2
*U70
 70
     1
 10
0.0
 20
0.0
 30
0.0
  3
*U70
  1

  0
TEXT
  5
576
  8
0
  6
CONTINUOUS
 62
     2
 10
278.10287207752998
 20
79.232083115628996
 30
0.0
 40
4.0
  1
R2
 50
311.8053717541049
  7
GMM001
  0
ENDBLK
  5
578
  8
0
  0
BLOCK
  8
0
  2
*U71
 70
     1
 10
0.0
 20
0.0
 30
0.0
  3
*U71
  1

  0
TEXT
  5
57A
  8
0
  6
CONTINUOUS
 62
     2
 10
293.95990668812999
 20
102.02349834249
 30
0.0
 40
4.0
  1
H
 50
90.0
  7
GMM001
  0
TEXT
  5
57B
  8
0
  6
CONTINUOUS
 62
     2
 10
291.5432400214633
 20
106.02349834249
 30
0.0
 40
2.5
  1
\U+F8FD0.2
 50
90.0
  7
GMM001
  0
TEXT
  5
57C
  8
0
  6
CONTINUOUS
 62
     2
 10
292.37657335479662
 20
106.02349834249
 30
0.0
 40
2.5
  1
 
 50
90.0
  7
GMM001
  0
ENDBLK
  5
57E
  8
0
  0
BLOCK
  8
0
  2
*U72
 70
     1
 10
0.0
 20
0.0
 30
0.0
  3
*U72
  1

  0
TEXT
  5
580
  8
0
  6
CONTINUOUS
 62
     2
 10
246.1848884055934
 20
76.012618514820005
 30
0.0
 40
4.0
  1
25\U+00B1
  7
GMM001
  0
TEXT
  5
581
  8
0
  6
CONTINUOUS
 62
     2
 10
258.18488840559343
 20
78.429285181486676
 30
0.0
 40
2.5
  1
0.2
  7
GMM001
  0
TEXT
  5
582
  8
0
  6
CONTINUOUS
 62
     2
 10
258.18488840559343
 20
77.595951848153348
 30
0.0
 40
2.5
  1
 
  7
GMM001
  0
ENDBLK
  5
584
  8
0
  0
BLOCK
  8
0
  2
*U73
 70
     1
 10
0.0
 20
0.0
 30
0.0
  3
*U73
  1

  0
TEXT
  5
586
  8
0
  6
CONTINUOUS
 62
     2
 10
285.51938505460998
 20
101.91850052738
 30
0.0
 40
4.0
  1
1
 50
90.0
  7
GMM001
  0
ENDBLK
  5
588
  8
0
  0
BLOCK
  8
0
  2
*U74
 70
     1
 10
0.0
 20
0.0
 30
0.0
  3
*U74
  1

  0
TEXT
  5
58E
  8
0
  6
CONTINUOUS
 62
     2
 10
184.0388507152299
 20
48.377629713912
 30
0.0
 40
4.0
  1
\U+220512
  7
GMM001
  0
ENDBLK
  5
590
  8
0
  0
BLOCK
  8
0
  2
*U75
 70
     1
 10
0.0
 20
0.0
 30
0.0
  3
*U75
  1

  0
TEXT
  5
592
  8
0
  6
CONTINUOUS
 62
     2
 10
137.7952943741
 20
57.979628869000031
 30
0.0
 40
4.0
  1
ストローク:15～25(2.5刻みで止まる)
 50
90.0
  7
GMM001
  0
ENDBLK
  5
594
  8
0
  0
BLOCK
  8
0
  2
*U76
 70
     1
 10
0.0
 20
0.0
 30
0.0
  3
*U76
  1

  0
TEXT
  5
596
  8
0
  6
CONTINUOUS
 62
     2
 10
181.63823722153001
 20
15.094520725673
 30
0.0
 40
4.0
  1
12.2
  7
GMM001
  0
ENDBLK
  5
598
  8
0
  0
BLOCK
  8
0
  2
*U77
 70
     1
 10
0.0
 20
0.0
 30
0.0
  3
*U77
  1

  0
INSERT
  5
59B
  8
0
  6
CONTINUOUS
 62
     2
  2
_OPEN30
 10
61.605953665264998
 20
52.017534657056991
 30
0.0
 41
2.0
 42
2.0
 43
2.0
 50
299.59468571232202
  0
POLYLINE
  5
59C
  8
0
  6
CONTINUOUS
 62
     2
 66
     1
 10
0.0
 20
0.0
 30
0.0
  0
VERTEX
  5
59D
  8
0
  6
CONTINUOUS
 62
     2
 10
60.618231230815468
 20
53.756616136598737
 30
0.0
  0
VERTEX
  5
59E
  8
0
  6
CONTINUOUS
 62
     2
 10
44.057636336103002
 20
82.91483191372501
 30
0.0
  0
VERTEX
  5
59F
  8
0
  6
CONTINUOUS
 62
     2
 10
92.724303002769616
 20
82.91483191372501
 30
0.0
  0
SEQEND
  5
5A0
  8
0
  6
CONTINUOUS
 62
     2
  0
ENDBLK
  5
5A2
  8
0
  0
BLOCK
  8
0
  2
*U78
 70
     1
 10
0.0
 20
0.0
 30
0.0
  3
*U78
  1

  0
TEXT
  5
5A4
  8
0
  6
CONTINUOUS
 62
     2
 10
46.057636336103002
 20
84.629117628011002
 30
0.0
 40
4.0
  1
掘り込み深さ＝Ｈｍｍ
  7
GMM001
  0
ENDBLK
  5
5A6
  8
0
  0
BLOCK
  8
0
  2
*U79
 70
     1
 10
0.0
 20
0.0
 30
0.0
  3
*U79
  1

  0
INSERT
  5
5A8
  8
0
  6
CONTINUOUS
 62
     2
  2
_OPEN30
 10
66.587612969890003
 20
176.39667224227
 30
0.0
 41
2.0
 42
2.0
 43
2.0
 50
224.52919413057771
  0
POLYLINE
  5
5A9
  8
0
  6
CONTINUOUS
 62
     2
 66
     1
 10
0.0
 20
0.0
 30
0.0
  0
VERTEX
  5
5AA
  8
0
  6
CONTINUOUS
 62
     2
 10
68.013399409269141
 20
177.7992174391469
 30
0.0
  0
VERTEX
  5
5AB
  8
0
  6
CONTINUOUS
 62
     2
 10
79.618307550010996
 20
189.21495806022
 30
0.0
  0
VERTEX
  5
5AC
  8
0
  6
CONTINUOUS
 62
     2
 10
108.818307550011
 20
189.21495806022
 30
0.0
  0
SEQEND
  5
5AD
  8
0
  6
CONTINUOUS
 62
     2
  0
ENDBLK
  5
5AF
  8
0
  0
BLOCK
  8
0
  2
*U80
 70
     1
 10
0.0
 20
0.0
 30
0.0
  3
*U80
  1

  0
TEXT
  5
5B1
  8
0
  6
CONTINUOUS
 62
     2
 10
81.618307550010996
 20
197.59591044117329
 30
0.0
 40
4.0
  1
掘り込み深さ
  7
GMM001
  0
TEXT
  5
5B2
  8
0
  6
CONTINUOUS
 62
     2
 10
81.084974216677665
 20
190.92924377450669
 30
0.0
 40
4.0
  1
＝１６ｍｍ
  7
GMM001
  0
ENDBLK
  5
5B4
  8
0
  0
BLOCK
  8
0
  2
*U81
 70
     1
 10
0.0
 20
0.0
 30
0.0
  3
*U81
  1

  0
INSERT
  5
5C1
  8
0
  6
CONTINUOUS
 62
     2
  2
_OPEN30
 10
179.44505545550001
 20
121.68077617861999
 30
0.0
 41
2.0
 42
2.0
 43
2.0
 50
172.46739859906251
  0
POLYLINE
  5
5C2
  8
0
  6
CONTINUOUS
 62
     2
 66
     1
 10
0.0
 20
0.0
 30
0.0
  0
VERTEX
  5
5C3
  8
0
  6
CONTINUOUS
 62
     2
 10
181.42779631798911
 20
121.4185955687044
 30
0.0
  0
VERTEX
  5
5C4
  8
0
  6
CONTINUOUS
 62
     2
 10
212.36614085867001
 20
117.327574803
 30
0.0
  0
VERTEX
  5
5C5
  8
0
  6
CONTINUOUS
 62
     2
 10
244.89947419200331
 20
117.327574803
 30
0.0
  0
SEQEND
  5
5C6
  8
0
  6
CONTINUOUS
 62
     2
  0
ENDBLK
  5
5C8
  8
0
  0
BLOCK
  8
0
  2
*U82
 70
     1
 10
0.0
 20
0.0
 30
0.0
  3
*U82
  1

  0
TEXT
  5
5CA
  8
0
  6
CONTINUOUS
 62
     2
 10
212.36614085867001
 20
119.04186051728
 30
0.0
 40
4.0
  1
正面はシボ加工
  7
GMM001
  0
ENDBLK
  5
5CC
  8
0
  0
BLOCK
  8
0
  2
*U83
 70
     1
 10
0.0
 20
0.0
 30
0.0
  3
*U83
  1

  0
INSERT
  5
5D8
  8
0
  6
CONTINUOUS
 62
     2
  2
_OPEN30
 10
164.78489629556
 20
94.733853582942984
 30
0.0
 41
3.0
 42
3.0
 43
3.0
 50
49.236688548806967
  0
POLYLINE
  5
5D9
  8
0
  6
CONTINUOUS
 62
     2
 66
     1
 10
0.0
 20
0.0
 30
0.0
  0
VERTEX
  5
5DA
  8
0
  6
CONTINUOUS
 62
     2
 10
162.82608907887339
 20
92.461613655502134
 30
0.0
  0
VERTEX
  5
5DB
  8
0
  6
CONTINUOUS
 62
     2
 10
154.62545747783
 20
82.948782379720001
 30
0.0
  0
VERTEX
  5
5DC
  8
0
  6
CONTINUOUS
 62
     2
 10
158.67519986543999
 20
75.708506414067983
 30
0.0
  0
VERTEX
  5
5DD
  8
0
  6
CONTINUOUS
 62
     2
 10
237.1418665321066
 20
75.708506414067983
 30
0.0
  0
SEQEND
  5
5DE
  8
0
  6
CONTINUOUS
 62
     2
  0
ENDBLK
  5
5E0
  8
0
  0
BLOCK
  8
0
  2
*U84
 70
     1
 10
0.0
 20
0.0
 30
0.0
  3
*U84
  1

  0
TEXT
  5
5E2
  8
0
  6
CONTINUOUS
 62
     7
 10
161.67519986543999
 20
77.422792128353976
 30
0.0
 40
4.0
  1
坪が付いていな受けを平受けと呼ぶ
  7
GMM001
  0
ENDBLK
  5
5E4
  8
0
  0
BLOCK
  8
0
  2
*U85
 70
     1
 10
0.0
 20
0.0
 30
0.0
  3
*U85
  1

  0
INSERT
  5
5E6
  8
0
  6
CONTINUOUS
 62
     2
  2
_OPEN30
 10
168.53489629556
 20
209.02962886899999
 30
0.0
 41
2.0
 42
2.0
 43
2.0
 50
327.6079969317895
  0
POLYLINE
  5
5E7
  8
0
  6
CONTINUOUS
 62
     2
 66
     1
 10
0.0
 20
0.0
 30
0.0
  0
VERTEX
  5
5E8
  8
0
  6
CONTINUOUS
 62
     2
 10
166.84609088732319
 20
210.1010467581124
 30
0.0
  0
VERTEX
  5
5E9
  8
0
  6
CONTINUOUS
 62
     2
 10
160.33073755730001
 20
214.23454021901
 30
0.0
  0
VERTEX
  5
5EA
  8
0
  6
CONTINUOUS
 62
     2
 10
144.99740422396661
 20
214.23454021901
 30
0.0
  0
SEQEND
  5
5EB
  8
0
  6
CONTINUOUS
 62
     2
  0
ENDBLK
  5
5ED
  8
0
  0
BLOCK
  8
0
  2
*U86
 70
     1
 10
0.0
 20
0.0
 30
0.0
  3
*U86
  1

  0
TEXT
  5
5EF
  8
0
  6
CONTINUOUS
 62
     2
 10
146.33073755730001
 20
215.94882593329999
 30
0.0
 40
4.0
  1
操作部
  7
GMM001
  0
ENDBLK
  5
5F1
  8
0
  0
ENDSEC
  0
SECTION
  2
ENTITIES
  0
LINE
  5
2BB
  8
LEVEL001
  6
DASHDOT
 62
     2
 10
74.874572057972003
 20
30.222728122894001
 30
0.0
 11
58.231523122071991
 21
30.222728122894001
 31
0.0
  0
LINE
  5
2BC
  8
LEVEL001
  6
DASHDOT
 62
     2
 10
74.874572057972003
 20
66.222728122893983
 30
0.0
 11
58.231523122071991
 21
66.222728122893983
 31
0.0
  0
LINE
  5
2BD
  8
LEVEL001
  6
DASHDOT
 62
     2
 10
81.060646167271997
 20
48.222728122893997
 30
0.0
 11
51.282128520176002
 21
48.222728122893997
 31
0.0
  0
CIRCLE
  5
2BE
  8
0
  6
CONTINUOUS
 62
     7
 10
66.506323835832006
 20
66.222728122893983
 30
0.0
 40
1.25
  0
CIRCLE
  5
2BF
  8
0
  6
CONTINUOUS
 62
     7
 10
66.506323835832006
 20
30.222728122894001
 30
0.0
 40
1.25
  0
LINE
  5
2C0
  8
0
  6
CONTINUOUS
 62
     7
 10
69.506323835832006
 20
60.822728122893992
 30
0.0
 11
63.506323835831999
 21
60.822728122893992
 31
0.0
  0
LINE
  5
2C1
  8
0
  6
CONTINUOUS
 62
     7
 10
75.506323835832006
 20
55.222728122894011
 30
0.0
 11
75.506323835832006
 21
48.222728122893997
 31
0.0
  0
LINE
  5
2C2
  8
0
  6
CONTINUOUS
 62
     7
 10
75.506323835832006
 20
41.222728122893997
 30
0.0
 11
75.506323835832006
 21
48.222728122893997
 31
0.0
  0
ARC
  5
2C3
  8
0
  6
CONTINUOUS
 62
     7
 10
69.906323835831998
 20
41.222728122893997
 30
0.0
 40
5.5999999999999988
 50
270.0
 51
0.0000000000002181
  0
LINE
  5
2C4
  8
0
  6
CONTINUOUS
 62
     7
 10
57.506323835832013
 20
41.222728122893997
 30
0.0
 11
57.506323835832013
 21
48.222728122893997
 31
0.0
  0
ARC
  5
2C5
  8
0
  6
CONTINUOUS
 62
     7
 10
63.106323835832001
 20
41.222728122893997
 30
0.0
 40
5.5999999999999988
 50
180.0
 51
270.0
  0
LINE
  5
2C6
  8
0
  6
CONTINUOUS
 62
     7
 10
57.506323835832013
 20
48.222728122893997
 30
0.0
 11
57.506323835832013
 21
55.222728122894011
 31
0.0
  0
ARC
  5
2C7
  8
0
  6
CONTINUOUS
 62
     7
 10
63.506323835831999
 20
54.822728122893999
 30
0.0
 40
6.0
 50
90.0
 51
180.0
  0
ARC
  5
2C8
  8
0
  6
CONTINUOUS
 62
     7
 10
69.506323835832006
 20
54.822728122893999
 30
0.0
 40
6.0
 50
0.0
 51
90.0
  0
LINE
  5
2C9
  8
0
  6
CONTINUOUS
 62
     7
 10
63.106323835832001
 20
35.622728122894003
 30
0.0
 11
69.906323835831998
 21
35.622728122894003
 31
0.0
  0
LINE
  5
2CA
  8
LEVEL001
  6
DASHDOT
 62
     2
 10
66.506323835832006
 20
20.771251735057
 30
0.0
 11
66.506323835832006
 21
68.690546253462003
 31
0.0
  0
DIMENSION
  5
2CB
  8
0
  6
CONTINUOUS
 62
     2
  2
*D1
 10
49.267475744834989
 20
35.622728122894003
 30
0.0
 11
49.267475744834989
 21
43.847728122893997
 31
0.0
 13
63.506323835831999
 23
60.822728122893992
 33
0.0
 14
63.106323835832001
 24
35.622728122894003
 34
0.0
 50
270.0
  0
DIMENSION
  5
2CC
  8
0
  6
CONTINUOUS
 62
     2
  2
*D2
 10
40.213335842467991
 20
30.222728122894001
 30
0.0
 11
40.213335842467991
 21
48.222728122893997
 31
0.0
 13
58.138075613691989
 23
66.222728122893983
 33
0.0
 14
58.138075613691989
 24
30.222728122894001
 34
0.0
 50
270.0
  0
INSERT
  5
2CD
  8
0
  6
CONTINUOUS
  2
*U77
 10
0.0
 20
0.0
 30
0.0
  0
INSERT
  5
2CE
  8
0
  6
CONTINUOUS
  2
*U78
 10
0.0
 20
0.0
 30
0.0
  0
DIMENSION
  5
2CF
  8
0
  6
CONTINUOUS
 62
     2
  2
*D3
 10
65.377585047957993
 20
29.685653874069999
 30
0.0
 11
81.938368634168995
 21
37.565573037003013
 31
0.0
 70
   131
 15
67.635062623704997
 25
30.759802371717999
 35
0.0
 40
15.839920365249
  0
DIMENSION
  5
2D0
  8
0
  6
CONTINUOUS
 62
     2
  2
*D4
 10
69.506323835832006
 20
54.822728122893999
 30
0.0
 11
83.989445099674001
 21
69.973979739973998
 31
0.0
 70
   132
 15
73.652257254847001
 25
59.159920311983001
 35
0.0
 40
6.0
  0
DIMENSION
  5
2D1
  8
0
  6
CONTINUOUS
 62
     2
  2
*D5
 10
75.506323835832006
 20
72.150612224305007
 30
0.0
 11
62.131323835831999
 21
72.150612224305007
 31
0.0
  1
\A1;18{\H0.625x;\S%%p0.2^  ;}
 13
57.506323835832013
 23
54.822728122893999
 33
0.0
 14
75.506323835832006
 24
54.822728122893999
 34
0.0
  0
LINE
  5
2D2
  8
LEVEL001
  6
DASHDOT
 62
     2
 10
81.471565400168984
 20
151.82945581536001
 30
0.0
 11
47.787525252525988
 21
151.82945581536001
 31
0.0
  0
LINE
  5
2D3
  8
LEVEL001
  6
DASHDOT
 62
     2
 10
72.506323835832006
 20
138.31359510498999
 30
0.0
 11
72.506323835832006
 21
161.61974065928999
 31
0.0
  0
LINE
  5
2D4
  8
LEVEL001
  6
DASHDOT
 62
     2
 10
60.506323835831999
 20
138.31359510498999
 30
0.0
 11
60.506323835831999
 21
161.61974065928999
 31
0.0
  0
DIMENSION
  5
2D5
  8
0
  6
CONTINUOUS
 62
     2
  2
*D6
 10
72.506323835832006
 20
131.90429812374001
 30
0.0
 11
79.167408707291003
 21
131.90429812374001
 31
0.0
 70
   128
 13
60.506323835831999
 23
138.31359510498999
 33
0.0
 14
72.506323835832006
 24
138.31359510498999
 34
0.0
  0
LINE
  5
2D6
  8
LEVEL001
  6
CONTINUOUS
 62
     7
 10
51.406323835831998
 20
116.82945581536001
 30
0.0
 11
66.506323835832006
 21
116.82945581536001
 31
0.0
  0
LINE
  5
2D7
  8
LEVEL001
  6
CONTINUOUS
 62
     7
 10
81.606323835832001
 20
116.82945581536001
 30
0.0
 11
66.506323835832006
 21
116.82945581536001
 31
0.0
  0
ARC
  5
2D8
  8
0
  6
CONTINUOUS
 62
     7
 10
66.506323835832006
 20
242.72945581536001
 30
0.0
 40
10.1
 50
90.000000000000995
 51
180.0
  0
ARC
  5
2D9
  8
0
  6
CONTINUOUS
 62
     7
 10
66.506323835830997
 20
242.72945581536001
 30
0.0
 40
10.1
 50
0.0
 51
89.999999999997996
  0
LINE
  5
2DA
  8
0
  6
CONTINUOUS
 62
     7
 10
56.406323835831998
 20
242.72945581536001
 30
0.0
 11
56.406323835831998
 21
116.82945581536001
 31
0.0
  0
LINE
  5
2DB
  8
0
  6
CONTINUOUS
 62
     7
 10
76.606323835832001
 20
242.72945581536001
 30
0.0
 11
76.606323835832001
 21
116.82945581536001
 31
0.0
  0
DIMENSION
  5
2DC
  8
0
  6
CONTINUOUS
 62
     2
  2
*D7
 10
32.536211470269997
 20
252.82945581536001
 30
0.0
 11
32.536211470269997
 21
180.45445581536001
 31
0.0
 13
51.406323835831998
 23
116.82945581536001
 33
0.0
 14
66.506323835832006
 24
252.82945581536001
 34
0.0
 50
90.0
  0
INSERT
  5
2DD
  8
0
  2
BLOCK002
 10
0.0
 20
0.0
 30
0.0
  0
DIMENSION
  5
2DE
  8
0
  6
CONTINUOUS
 62
     2
  2
*D9
 10
41.386844580462999
 20
151.82945581536001
 30
0.0
 11
41.386844580462999
 21
134.32945581536001
 31
0.0
 13
51.406323835831998
 23
116.82945581536001
 33
0.0
 14
47.787525252525988
 24
151.82945581536001
 34
0.0
 50
90.0
  0
DIMENSION
  5
2DF
  8
0
  6
CONTINUOUS
 62
     2
  2
*D10
 10
41.386844580462999
 20
245.32945581536001
 30
0.0
 11
41.386844580462999
 21
198.57945581536001
 31
0.0
 13
47.787525252525988
 23
151.82945581536001
 33
0.0
 14
48.952505366567998
 24
245.32945581536001
 34
0.0
 50
90.0
  0
LINE
  5
2E0
  8
LEVEL001
  6
DASHDOT
 62
     2
 10
49.062459880516997
 20
245.32945581536001
 30
0.0
 11
79.772721299301011
 21
245.32945581536001
 31
0.0
  0
CIRCLE
  5
2E1
  8
0
  6
CONTINUOUS
 62
     7
 10
66.506323835832006
 20
245.32945581536001
 30
0.0
 40
1.25
  0
CIRCLE
  5
2E2
  8
0
  6
CONTINUOUS
 62
     7
 10
60.506323835831999
 20
151.82945581536001
 30
0.0
 40
1.25
  0
CIRCLE
  5
2E3
  8
0
  6
CONTINUOUS
 62
     7
 10
72.506323835832006
 20
151.82945581536001
 30
0.0
 40
1.25
  0
LINE
  5
2E4
  8
0
  6
DASHDOT
 62
     2
 10
66.506323835832006
 20
111.82966823705
 30
0.0
 11
66.506323835832006
 21
263.19168879768989
 31
0.0
  0
INSERT
  5
2E5
  8
0
  6
CONTINUOUS
  2
*U79
 10
0.0
 20
0.0
 30
0.0
  0
INSERT
  5
2E6
  8
0
  6
CONTINUOUS
  2
*U80
 10
0.0
 20
0.0
 30
0.0
  0
POLYLINE
  5
2E7
  8
0
  6
DIVIDE
 62
     2
 66
     1
 10
0.0
 20
0.0
 30
0.0
 70
     1
  0
VERTEX
  5
5B5
  8
0
  6
DIVIDE
 62
     2
 10
120.39823860145999
 20
13.236284761488999
 30
0.0
  0
VERTEX
  5
5B6
  8
0
  6
DIVIDE
 62
     2
 10
120.39823860145999
 20
90.975230604526985
 30
0.0
  0
VERTEX
  5
5B7
  8
0
  6
DIVIDE
 62
     2
 10
17.981452347569999
 20
90.975230604526985
 30
0.0
  0
VERTEX
  5
5B8
  8
0
  6
DIVIDE
 62
     2
 10
17.981452347569999
 20
13.236284761488999
 30
0.0
  0
SEQEND
  5
5B9
  8
0
  6
DIVIDE
 62
     2
  0
POLYLINE
  5
2E8
  8
0
  6
DIVIDE
 62
     2
 66
     1
 10
0.0
 20
0.0
 30
0.0
 70
     1
  0
VERTEX
  5
5BA
  8
0
  6
DIVIDE
 62
     2
 10
120.39823860145999
 20
94.204119784377994
 30
0.0
  0
VERTEX
  5
5BB
  8
0
  6
DIVIDE
 62
     2
 10
120.39823860145999
 20
273.84136140452
 30
0.0
  0
VERTEX
  5
5BC
  8
0
  6
DIVIDE
 62
     2
 10
17.981452347569999
 20
273.84136140452
 30
0.0
  0
VERTEX
  5
5BD
  8
0
  6
DIVIDE
 62
     2
 10
17.981452347569999
 20
94.204119784377994
 30
0.0
  0
SEQEND
  5
5BE
  8
0
  6
DIVIDE
 62
     2
  0
DIMENSION
  5
2E9
  8
0
  6
CONTINUOUS
 62
     2
  2
*D11
 10
65.644261385085997
 20
246.23463443365
 30
0.0
 11
83.135442429865989
 21
227.86862965438999
 31
0.0
 70
   131
 15
67.368386286578001
 25
244.42427719707001
 35
0.0
 40
22.862404182041001
  0
DIMENSION
  5
2EA
  8
0
  6
CONTINUOUS
 62
     2
  2
*D12
 10
76.606323835832001
 20
264.5617073708101
 30
0.0
 11
79.178210051505985
 21
264.5617073708101
 31
0.0
 70
   128
  1
\A1;20.2{\H0.625x;\S%%p0.1^  ;}
 13
56.406323835831998
 23
242.72945581536001
 33
0.0
 14
76.606323835832001
 24
242.72945581536001
 34
0.0
  0
DIMENSION
  5
2EB
  8
0
  6
CONTINUOUS
 62
     2
  2
*D13
 10
66.506323835832006
 20
242.72945581536001
 30
0.0
 11
28.120139252066998
 21
258.42930817236999
 31
0.0
 70
   132
 15
58.504269925830997
 25
248.89201479856001
 35
0.0
 40
15.630951904571999
  0
TEXT
  5
2ED
  8
0
 62
     2
 10
369.39495247782003
 20
259.94367646208002
 30
0.0
 40
4.0
  1
仕上げ／色調
 11
369.39495247782003
 21
261.94367646208002
 31
0.0
 73
     2
  0
TEXT
  5
2EE
  8
0
 62
     2
 10
369.39495247782003
 20
253.94367646207999
 30
0.0
 40
4.0
  1
ゴールド
 11
369.39495247782003
 21
255.94367646207999
 31
0.0
 73
     2
  0
TEXT
  5
2EF
  8
0
 62
     2
 10
369.39495247782003
 20
247.94367646207999
 30
0.0
 40
4.0
  1
シルバー
 11
369.39495247782003
 21
249.94367646207999
 31
0.0
 73
     2
  0
TEXT
  5
2F0
  8
0
 62
     2
 10
369.39495247782003
 20
241.94367646207999
 30
0.0
 40
4.0
  1
アンバー
 11
369.39495247782003
 21
243.94367646207999
 31
0.0
 73
     2
  0
TEXT
  5
2F1
  8
0
 62
     2
 10
369.39495247782003
 20
235.94367646207999
 30
0.0
 40
4.0
  1
ナチュラル
 11
369.39495247782003
 21
237.94367646207999
 31
0.0
 73
     2
  0
TEXT
  5
2F2
  8
0
 62
     2
 10
369.39495247782003
 20
229.94367646207999
 30
0.0
 40
4.0
  1
グレー
 11
369.39495247782003
 21
231.94367646207999
 31
0.0
 73
     2
  0
LINE
  5
2F3
  8
0
  6
CONTINUOUS
 62
     3
 10
367.89495247782003
 20
252.94367646207999
 30
0.0
 11
397.89495247782008
 21
252.94367646207999
 31
0.0
  0
LINE
  5
2F4
  8
0
  6
CONTINUOUS
 62
     3
 10
367.89495247782003
 20
246.94367646207991
 30
0.0
 11
397.89495247782008
 21
246.94367646207991
 31
0.0
  0
LINE
  5
2F5
  8
0
  6
CONTINUOUS
 62
     3
 10
367.89495247782003
 20
240.94367646207991
 30
0.0
 11
397.89495247782008
 21
240.94367646207991
 31
0.0
  0
LINE
  5
2F6
  8
0
  6
CONTINUOUS
 62
     3
 10
367.89495247782003
 20
234.94367646207999
 30
0.0
 11
397.89495247782008
 21
234.94367646207999
 31
0.0
  0
LINE
  5
2F7
  8
0
  6
CONTINUOUS
 62
     3
 10
301.89495247782003
 20
264.94367646208002
 30
0.0
 11
397.89495247782008
 21
264.94367646208002
 31
0.0
  0
LINE
  5
2F8
  8
0
  6
CONTINUOUS
 62
     3
 10
301.89495247782003
 20
258.94367646208002
 30
0.0
 11
397.89495247782008
 21
258.94367646208002
 31
0.0
  0
TEXT
  5
2F9
  8
0
 62
     2
 10
303.39495247782003
 20
265.94367646207991
 30
0.0
 40
4.0
  1
表
 11
303.39495247782003
 21
267.94367646207991
 31
0.0
 73
     2
  0
TEXT
  5
2FA
  8
0
 62
     2
 10
339.39495247782003
 20
253.94367646207999
 30
0.0
 40
4.0
  1
２２５－０１３
 11
339.39495247782003
 21
255.94367646207999
 31
0.0
 73
     2
  0
TEXT
  5
2FB
  8
0
 62
     2
 10
339.39495247782003
 20
247.94367646207999
 30
0.0
 40
4.0
  1
２２５－０１５
 11
339.39495247782003
 21
249.94367646207999
 31
0.0
 73
     2
  0
TEXT
  5
2FC
  8
0
 62
     2
 10
339.39495247782003
 20
241.94367646207999
 30
0.0
 40
4.0
  1
２２５－０１７
 11
339.39495247782003
 21
243.94367646207999
 31
0.0
 73
     2
  0
TEXT
  5
2FD
  8
0
 62
     2
 10
339.39495247782003
 20
235.94367646207999
 30
0.0
 40
4.0
  1
２２５－０１９
 11
339.39495247782003
 21
237.94367646207999
 31
0.0
 73
     2
  0
TEXT
  5
2FE
  8
0
 62
     2
 10
339.39495247782003
 20
229.94367646207999
 30
0.0
 40
4.0
  1
２２５－０２１
 11
339.39495247782003
 21
231.94367646207999
 31
0.0
 73
     2
  0
LINE
  5
2FF
  8
0
  6
CONTINUOUS
 62
     3
 10
337.89495247782003
 20
252.94367646207999
 30
0.0
 11
367.89495247782003
 21
252.94367646207999
 31
0.0
  0
LINE
  5
300
  8
0
  6
CONTINUOUS
 62
     3
 10
337.89495247782003
 20
246.94367646207991
 30
0.0
 11
367.89495247782003
 21
246.94367646207991
 31
0.0
  0
LINE
  5
301
  8
0
  6
CONTINUOUS
 62
     3
 10
337.89495247782003
 20
240.94367646207991
 30
0.0
 11
367.89495247782003
 21
240.94367646207991
 31
0.0
  0
LINE
  5
302
  8
0
  6
CONTINUOUS
 62
     3
 10
337.89495247782003
 20
234.94367646207999
 30
0.0
 11
367.89495247782003
 21
234.94367646207999
 31
0.0
  0
TEXT
  5
303
  8
0
 62
     2
 10
337.89495247782003
 20
259.94367646208002
 30
0.0
 40
4.0
  1
品番
 41
0.875
 11
337.89495247782003
 21
261.94367646208002
 31
0.0
 73
     2
  0
TEXT
  5
304
  8
0
 62
     2
 10
303.39495247782003
 20
253.94367646207999
 30
0.0
 40
4.0
  1
平受けセット
 11
303.39495247782003
 21
255.94367646207999
 31
0.0
 73
     2
  0
TEXT
  5
305
  8
0
 62
     2
 10
303.39495247782003
 20
259.94367646208002
 30
0.0
 40
4.0
  1
仕様
 11
303.39495247782003
 21
261.94367646208002
 31
0.0
 73
     2
  0
TEXT
  5
306
  8
0
 62
     2
 10
369.39495247782003
 20
217.94367646207991
 30
0.0
 40
4.0
  1
ゴールド
 11
369.39495247782003
 21
219.94367646207991
 31
0.0
 73
     2
  0
TEXT
  5
307
  8
0
 62
     2
 10
369.39495247782003
 20
211.94367646207999
 30
0.0
 40
4.0
  1
シルバー
 11
369.39495247782003
 21
213.94367646207999
 31
0.0
 73
     2
  0
TEXT
  5
308
  8
0
 62
     2
 10
369.39495247782003
 20
205.94367646207999
 30
0.0
 40
4.0
  1
アンバー
 11
369.39495247782003
 21
207.94367646207999
 31
0.0
 73
     2
  0
TEXT
  5
309
  8
0
 62
     2
 10
369.39495247782003
 20
199.94367646207999
 30
0.0
 40
4.0
  1
ナチュラル
 11
369.39495247782003
 21
201.94367646207999
 31
0.0
 73
     2
  0
TEXT
  5
30A
  8
0
 62
     2
 10
369.39495247782003
 20
193.94367646207999
 30
0.0
 40
4.0
  1
グレー
 11
369.39495247782003
 21
195.94367646207999
 31
0.0
 73
     2
  0
LINE
  5
30B
  8
0
  6
CONTINUOUS
 62
     3
 10
367.89495247782003
 20
216.94367646207999
 30
0.0
 11
397.89495247782008
 21
216.94367646207999
 31
0.0
  0
LINE
  5
30C
  8
0
  6
CONTINUOUS
 62
     3
 10
367.89495247782003
 20
210.94367646207999
 30
0.0
 11
397.89495247782008
 21
210.94367646207999
 31
0.0
  0
LINE
  5
30D
  8
0
  6
CONTINUOUS
 62
     3
 10
367.89495247782003
 20
204.94367646207999
 30
0.0
 11
397.89495247782008
 21
204.94367646207999
 31
0.0
  0
LINE
  5
30E
  8
0
  6
CONTINUOUS
 62
     3
 10
367.89495247782003
 20
198.94367646207999
 30
0.0
 11
397.89495247782008
 21
198.94367646207999
 31
0.0
  0
LINE
  5
30F
  8
0
  6
CONTINUOUS
 62
     3
 10
337.89495247782003
 20
216.94367646207999
 30
0.0
 11
367.89495247782003
 21
216.94367646207999
 31
0.0
  0
LINE
  5
310
  8
0
  6
CONTINUOUS
 62
     3
 10
337.89495247782003
 20
210.94367646207999
 30
0.0
 11
367.89495247782003
 21
210.94367646207999
 31
0.0
  0
LINE
  5
311
  8
0
  6
CONTINUOUS
 62
     3
 10
337.89495247782003
 20
204.94367646207999
 30
0.0
 11
367.89495247782003
 21
204.94367646207999
 31
0.0
  0
LINE
  5
312
  8
0
  6
CONTINUOUS
 62
     3
 10
337.89495247782003
 20
198.94367646207999
 30
0.0
 11
367.89495247782003
 21
198.94367646207999
 31
0.0
  0
TEXT
  5
313
  8
0
 62
     2
 10
339.39495247782003
 20
217.94367646207991
 30
0.0
 40
4.0
  1
２２５－１１３
 11
339.39495247782003
 21
219.94367646207991
 31
0.0
 73
     2
  0
TEXT
  5
314
  8
0
 62
     2
 10
339.39495247782003
 20
211.94367646207999
 30
0.0
 40
4.0
  1
２２５－１１５
 11
339.39495247782003
 21
213.94367646207999
 31
0.0
 73
     2
  0
TEXT
  5
315
  8
0
 62
     2
 10
339.39495247782003
 20
205.94367646207999
 30
0.0
 40
4.0
  1
２２５－１１７
 11
339.39495247782003
 21
207.94367646207999
 31
0.0
 73
     2
  0
TEXT
  5
316
  8
0
 62
     2
 10
339.39495247782003
 20
199.94367646207999
 30
0.0
 40
4.0
  1
２２５－１１９
 11
339.39495247782003
 21
201.94367646207999
 31
0.0
 73
     2
  0
TEXT
  5
317
  8
0
 62
     2
 10
339.39495247782003
 20
193.94367646207999
 30
0.0
 40
4.0
  1
２２５－１２１
 11
339.39495247782003
 21
195.94367646207999
 31
0.0
 73
     2
  0
TEXT
  5
318
  8
0
 62
     2
 10
369.39495247782003
 20
181.94367646207999
 30
0.0
 40
4.0
  1
ゴールド
 11
369.39495247782003
 21
183.94367646207991
 31
0.0
 73
     2
  0
TEXT
  5
319
  8
0
 62
     2
 10
369.39495247782003
 20
175.94367646207999
 30
0.0
 40
4.0
  1
シルバー
 11
369.39495247782003
 21
177.94367646207999
 31
0.0
 73
     2
  0
TEXT
  5
31A
  8
0
 62
     2
 10
369.39495247782003
 20
169.94367646207999
 30
0.0
 40
4.0
  1
アンバー
 11
369.39495247782003
 21
171.94367646207999
 31
0.0
 73
     2
  0
TEXT
  5
31B
  8
0
 62
     2
 10
369.39495247782003
 20
163.94367646207999
 30
0.0
 40
4.0
  1
ナチュラル
 11
369.39495247782003
 21
165.94367646207999
 31
0.0
 73
     2
  0
TEXT
  5
31C
  8
0
 62
     2
 10
369.39495247782003
 20
157.94367646207999
 30
0.0
 40
4.0
  1
グレー
 11
369.39495247782003
 21
159.94367646207999
 31
0.0
 73
     2
  0
LINE
  5
31D
  8
0
  6
CONTINUOUS
 62
     3
 10
367.89495247782003
 20
180.94367646207999
 30
0.0
 11
397.89495247782008
 21
180.94367646207999
 31
0.0
  0
LINE
  5
31E
  8
0
  6
CONTINUOUS
 62
     3
 10
367.89495247782003
 20
174.94367646207999
 30
0.0
 11
397.89495247782008
 21
174.94367646207999
 31
0.0
  0
LINE
  5
31F
  8
0
  6
CONTINUOUS
 62
     3
 10
367.89495247782003
 20
168.94367646207999
 30
0.0
 11
397.89495247782008
 21
168.94367646207999
 31
0.0
  0
LINE
  5
320
  8
0
  6
CONTINUOUS
 62
     3
 10
367.89495247782003
 20
162.94367646207999
 30
0.0
 11
397.89495247782008
 21
162.94367646207999
 31
0.0
  0
LINE
  5
321
  8
0
  6
CONTINUOUS
 62
     3
 10
337.89495247782003
 20
180.94367646207999
 30
0.0
 11
367.89495247782003
 21
180.94367646207999
 31
0.0
  0
LINE
  5
322
  8
0
  6
CONTINUOUS
 62
     3
 10
337.89495247782003
 20
174.94367646207999
 30
0.0
 11
367.89495247782003
 21
174.94367646207999
 31
0.0
  0
LINE
  5
323
  8
0
  6
CONTINUOUS
 62
     3
 10
337.89495247782003
 20
168.94367646207999
 30
0.0
 11
367.89495247782003
 21
168.94367646207999
 31
0.0
  0
LINE
  5
324
  8
0
  6
CONTINUOUS
 62
     3
 10
337.89495247782003
 20
162.94367646207999
 30
0.0
 11
367.89495247782003
 21
162.94367646207999
 31
0.0
  0
TEXT
  5
325
  8
0
 62
     2
 10
339.39495247782003
 20
181.94367646207999
 30
0.0
 40
4.0
  1
２２５－２１３
 11
339.39495247782003
 21
183.94367646207991
 31
0.0
 73
     2
  0
TEXT
  5
326
  8
0
 62
     2
 10
339.39495247782003
 20
175.94367646207999
 30
0.0
 40
4.0
  1
２２５－２１５
 11
339.39495247782003
 21
177.94367646207999
 31
0.0
 73
     2
  0
TEXT
  5
327
  8
0
 62
     2
 10
339.39495247782003
 20
169.94367646207999
 30
0.0
 40
4.0
  1
２２５－２１７
 11
339.39495247782003
 21
171.94367646207999
 31
0.0
 73
     2
  0
TEXT
  5
328
  8
0
 62
     2
 10
339.39495247782003
 20
163.94367646207999
 30
0.0
 40
4.0
  1
２２５－２１９
 11
339.39495247782003
 21
165.94367646207999
 31
0.0
 73
     2
  0
TEXT
  5
329
  8
0
 62
     2
 10
339.39495247782003
 20
157.94367646207999
 30
0.0
 40
4.0
  1
２２５－２２１
 11
339.39495247782003
 21
159.94367646207999
 31
0.0
 73
     2
  0
LINE
  5
32A
  8
0
  6
CONTINUOUS
 62
     3
 10
301.89495247782003
 20
186.94367646207999
 30
0.0
 11
397.89495247782008
 21
186.94367646207999
 31
0.0
  0
LINE
  5
32B
  8
0
  6
CONTINUOUS
 62
     3
 10
301.89495247782003
 20
222.94367646207999
 30
0.0
 11
397.89495247782008
 21
222.94367646207999
 31
0.0
  0
LINE
  5
32C
  8
0
  6
CONTINUOUS
 62
     3
 10
337.89495247782003
 20
228.94367646207999
 30
0.0
 11
397.89495247782008
 21
228.94367646207999
 31
0.0
  0
LINE
  5
32D
  8
0
  6
CONTINUOUS
 62
     3
 10
337.89495247782003
 20
192.94367646207999
 30
0.0
 11
397.89495247782008
 21
192.94367646207999
 31
0.0
  0
LINE
  5
32E
  8
0
  6
CONTINUOUS
 62
     3
 10
301.89495247782003
 20
150.94367646207999
 30
0.0
 11
397.89495247782008
 21
150.94367646207999
 31
0.0
  0
LINE
  5
32F
  8
0
  6
DOT
 62
     3
 10
337.89495247782003
 20
150.94367646207999
 30
0.0
 11
337.89495247782003
 21
264.94367646208002
 31
0.0
  0
LINE
  5
330
  8
0
  6
DOT
 62
     3
 10
367.89495247782003
 20
150.94367646207999
 30
0.0
 11
367.89495247782003
 21
264.94367646208002
 31
0.0
  0
LINE
  5
331
  8
0
  6
CONTINUOUS
 62
     3
 10
337.89495247782003
 20
156.94367646207999
 30
0.0
 11
397.89495247782008
 21
156.94367646207999
 31
0.0
  0
LINE
  5
332
  8
0
  6
CONTINUOUS
 62
     3
 10
301.89495247782003
 20
150.94367646207999
 30
0.0
 11
301.89495247782003
 21
264.94367646208002
 31
0.0
  0
TEXT
  5
333
  8
0
 62
     2
 10
303.39495247782003
 20
217.94367646207999
 30
0.0
 40
4.0
  1
坪受けセット
  0
TEXT
  5
334
  8
0
 62
     2
 10
303.39495247782003
 20
212.61034312874
 30
0.0
 40
4.0
  1
（Ｈ＝１５ｍｍ）
  0
TEXT
  5
335
  8
0
 62
     2
 10
303.39495247782003
 20
181.94367646207999
 30
0.0
 40
4.0
  1
坪受けセット
  0
TEXT
  5
336
  8
0
 62
     2
 10
303.39495247782003
 20
176.61034312874
 30
0.0
 40
4.0
  1
（Ｈ＝２０ｍｍ）
  0
LINE
  5
33E
  8
0
  6
CONTINUOUS
 62
     2
 10
397.89495247782008
 20
264.94367646208002
 30
0.0
 11
397.89495247782008
 21
150.94367646207999
 31
0.0
  0
LINE
  5
33F
  8
LEVEL001
  6
DASHDOT
 62
     2
 10
188.25013785989
 20
149.179628869
 30
0.0
 11
154.56609771225001
 21
149.179628869
 31
0.0
  0
CIRCLE
  5
340
  8
LEVEL001
  6
CONTINUOUS
 62
     7
 10
167.28489629556
 20
149.179628869
 30
0.0
 40
3.5
  0
CIRCLE
  5
341
  8
LEVEL001
  6
CONTINUOUS
 62
     7
 10
179.28489629556
 20
149.179628869
 30
0.0
 40
3.5
  0
LINE
  5
342
  8
LEVEL001
  6
DASHDOT
 62
     2
 10
179.28489629556
 20
135.66376815863001
 30
0.0
 11
179.28489629556
 21
158.96991371293001
 31
0.0
  0
LINE
  5
343
  8
LEVEL001
  6
DASHDOT
 62
     2
 10
167.28489629556
 20
135.66376815863001
 30
0.0
 11
167.28489629556
 21
158.96991371293001
 31
0.0
  0
ARC
  5
344
  8
LEVEL001
  6
CONTINUOUS
 62
     7
 10
173.28489629556
 20
239.679628869
 30
0.0
 40
10.0
 50
90.000000000000995
 51
180.0
  0
ARC
  5
345
  8
LEVEL001
  6
CONTINUOUS
 62
     7
 10
173.28489629556
 20
239.679628869
 30
0.0
 40
10.0
 50
0.0
 51
90.000000000002998
  0
CIRCLE
  5
346
  8
LEVEL001
  6
CONTINUOUS
 62
     7
 10
173.28489629556
 20
242.679628869
 30
0.0
 40
3.5
  0
LINE
  5
347
  8
LEVEL001
  6
CONTINUOUS
 62
     7
 10
163.28489629556
 20
239.679628869
 30
0.0
 11
163.28489629556
 21
114.179628869
 31
0.0
  0
LINE
  5
348
  8
LEVEL001
  6
CONTINUOUS
 62
     7
 10
163.28489629556
 20
114.179628869
 30
0.0
 11
173.28489629556
 21
114.179628869
 31
0.0
  0
LINE
  5
349
  8
LEVEL001
  6
CONTINUOUS
 62
     7
 10
183.28489629556
 20
239.679628869
 30
0.0
 11
183.28489629556
 21
114.179628869
 31
0.0
  0
LINE
  5
34A
  8
LEVEL001
  6
CONTINUOUS
 62
     7
 10
183.28489629556
 20
114.179628869
 30
0.0
 11
173.28489629556
 21
114.179628869
 31
0.0
  0
POINT
  5
34B
  8
LEVEL001
 62
     7
 10
181.28489629556
 20
224.52962886899999
 30
0.0
  0
POINT
  5
34C
  8
LEVEL001
 62
     7
 10
165.28489629556
 20
224.52962886899999
 30
0.0
  0
DIMENSION
  5
34D
  8
0
  6
CONTINUOUS
 62
     2
  2
*D14
 10
179.28489629556
 20
129.25447117738989
 30
0.0
 11
185.94598116701999
 21
129.25447117738989
 31
0.0
 70
   128
 13
167.28489629556
 23
135.66376815863001
 33
0.0
 14
179.28489629556
 24
135.66376815863001
 34
0.0
  0
DIMENSION
  5
34E
  8
0
  6
CONTINUOUS
 62
     2
  2
*D15
 10
207.03419718297999
 20
242.679628869
 30
0.0
 11
207.03419718297999
 21
195.929628869
 31
0.0
 13
188.25013785989
 23
149.179628869
 33
0.0
 14
186.55129375902999
 24
242.679628869
 34
0.0
 50
90.0
  0
DIMENSION
  5
34F
  8
0
  6
CONTINUOUS
 62
     2
  2
*D16
 10
207.03419718297999
 20
242.679628869
 30
0.0
 11
207.03419718297999
 21
246.179628869
 31
0.0
 13
173.28489629556
 23
249.679628869
 33
0.0
 14
186.55129375902999
 24
242.679628869
 34
0.0
 50
270.0
  0
DIMENSION
  5
350
  8
0
  6
CONTINUOUS
 62
     2
  2
*D17
 10
207.03419718297999
 20
114.179628869
 30
0.0
 11
207.03419718297999
 21
131.679628869
 31
0.0
 13
188.25013785989
 23
149.179628869
 33
0.0
 14
183.28489629556
 24
114.179628869
 34
0.0
 50
270.0
  0
DIMENSION
  5
351
  8
0
  6
CONTINUOUS
 62
     2
  2
*D18
 10
173.28489629556
 20
239.679628869
 30
0.0
 11
181.85548536626001
 21
267.82565899578998
 31
0.0
 70
   132
 15
176.19788298660001
 25
249.24595044722
 35
0.0
 40
19.421998724026999
  0
LINE
  5
352
  8
LEVEL001
  6
CONTINUOUS
 62
     7
 10
168.28489629556
 20
195.52962886899999
 30
0.0
 11
168.28489629556
 21
209.52962886899999
 31
0.0
  0
ARC
  5
353
  8
LEVEL001
  6
CONTINUOUS
 62
     7
 10
170.53489629556
 20
207.02962886899999
 30
0.0
 40
2.0
 50
179.99999999996999
 51
270.00000000005002
  0
LINE
  5
354
  8
LEVEL001
  6
CONTINUOUS
 62
     7
 10
170.53489629556
 20
205.02962886899999
 30
0.0
 11
176.03489629556
 21
205.02962886899999
 31
0.0
  0
LINE
  5
355
  8
LEVEL001
  6
CONTINUOUS
 62
     7
 10
168.53489629556
 20
209.02962886901
 30
0.0
 11
168.53489629556
 21
207.02962886901
 31
0.0
  0
ARC
  5
356
  8
LEVEL001
  6
CONTINUOUS
 62
     7
 10
172.28489629556
 20
209.52962886899999
 30
0.0
 40
4.0
 50
90.000000000008995
 51
180.0
  0
ARC
  5
357
  8
LEVEL001
  6
CONTINUOUS
 62
     7
 10
170.53489629556
 20
209.02962886899999
 30
0.0
 40
2.0
 50
89.999999999945985
 51
179.99999999996999
  0
LINE
  5
358
  8
LEVEL001
  6
CONTINUOUS
 62
     7
 10
176.03489629556
 20
211.02962886899999
 30
0.0
 11
170.53489629556
 21
211.02962886899999
 31
0.0
  0
LINE
  5
359
  8
LEVEL001
  6
CONTINUOUS
 62
     7
 10
173.28489629556
 20
213.52962886899999
 30
0.0
 11
172.28489629556
 21
213.52962886899999
 31
0.0
  0
ARC
  5
35A
  8
LEVEL001
  6
CONTINUOUS
 62
     7
 10
174.28489629556
 20
209.52962886899999
 30
0.0
 40
4.0
 50
0.0
 51
90.000000000002004
  0
LINE
  5
35B
  8
LEVEL001
  6
CONTINUOUS
 62
     7
 10
173.28489629556
 20
213.52962886899999
 30
0.0
 11
174.28489629556
 21
213.52962886899999
 31
0.0
  0
LINE
  5
35C
  8
LEVEL001
  6
CONTINUOUS
 62
     7
 10
178.28489629556
 20
195.52962886899999
 30
0.0
 11
178.28489629556
 21
209.52962886899999
 31
0.0
  0
ARC
  5
35D
  8
LEVEL001
  6
CONTINUOUS
 62
     7
 10
176.03489629556
 20
209.02962886899999
 30
0.0
 40
2.0
 50
0.0000000000032569
 51
90.0
  0
LINE
  5
35E
  8
LEVEL001
  6
CONTINUOUS
 62
     7
 10
178.03489629556
 20
207.02962886899999
 30
0.0
 11
178.03489629556
 21
209.02962886899999
 31
0.0
  0
ARC
  5
35F
  8
LEVEL001
  6
CONTINUOUS
 62
     7
 10
176.03489629556
 20
207.02962886899999
 30
0.0
 40
2.0
 50
270.0
 51
0.0
  0
LINE
  5
360
  8
LEVEL001
  6
CONTINUOUS
 62
     7
 10
181.28489629556
 20
222.52962886899999
 30
0.0
 11
181.28489629556
 21
195.52962886899999
 31
0.0
  0
ARC
  5
361
  8
LEVEL001
  6
CONTINUOUS
 62
     7
 10
177.28489629556
 20
222.52962886899999
 30
0.0
 40
4.0
 50
0.0
 51
90.000000000002998
  0
LINE
  5
362
  8
LEVEL001
  6
CONTINUOUS
 62
     7
 10
173.28489629556
 20
226.52962886899999
 30
0.0
 11
177.28489629556
 21
226.52962886899999
 31
0.0
  0
ARC
  5
363
  8
LEVEL001
  6
CONTINUOUS
 62
     7
 10
169.28489629556
 20
222.52962886899999
 30
0.0
 40
4.0
 50
90.000000000008995
 51
180.0
  0
LINE
  5
364
  8
LEVEL001
  6
CONTINUOUS
 62
     7
 10
173.28489629556
 20
226.52962886899999
 30
0.0
 11
169.28489629556
 21
226.52962886899999
 31
0.0
  0
LINE
  5
365
  8
LEVEL001
  6
CONTINUOUS
 62
     7
 10
165.28489629556
 20
222.52962886899999
 30
0.0
 11
165.28489629556
 21
195.52962886899999
 31
0.0
  0
LINE
  5
366
  8
LEVEL001
  6
CONTINUOUS
 62
     7
 10
168.28489629556
 20
195.52962886899999
 30
0.0
 11
168.28489629556
 21
181.52962886899999
 31
0.0
  0
LINE
  5
367
  8
LEVEL001
  6
CONTINUOUS
 62
     7
 10
165.28489629556
 20
168.52962886899999
 30
0.0
 11
165.28489629556
 21
195.52962886899999
 31
0.0
  0
LINE
  5
368
  8
LEVEL001
  6
CONTINUOUS
 62
     7
 10
178.28489629556
 20
195.52962886899999
 30
0.0
 11
178.28489629556
 21
181.52962886899999
 31
0.0
  0
LINE
  5
369
  8
LEVEL001
  6
CONTINUOUS
 62
     7
 10
181.28489629556
 20
168.52962886899999
 30
0.0
 11
181.28489629556
 21
195.52962886899999
 31
0.0
  0
ARC
  5
36A
  8
LEVEL001
  6
CONTINUOUS
 62
     7
 10
172.28489629556
 20
181.52962886899999
 30
0.0
 40
4.0
 50
180.0
 51
269.99999999999
  0
ARC
  5
36B
  8
LEVEL001
  6
CONTINUOUS
 62
     7
 10
174.28489629556
 20
181.52962886899999
 30
0.0
 40
4.0
 50
270.0
 51
0.0
  0
LINE
  5
36C
  8
LEVEL001
  6
CONTINUOUS
 62
     7
 10
173.28489629556
 20
177.52962886899999
 30
0.0
 11
174.28489629556
 21
177.52962886899999
 31
0.0
  0
ARC
  5
36D
  8
LEVEL001
  6
CONTINUOUS
 62
     7
 10
177.28489629556
 20
168.52962886899999
 30
0.0
 40
4.0
 50
270.0
 51
0.0
  0
POINT
  5
36E
  8
LEVEL001
 62
     7
 10
181.28489629556
 20
164.52962886899999
 30
0.0
  0
LINE
  5
36F
  8
LEVEL001
  6
CONTINUOUS
 62
     7
 10
173.28489629556
 20
164.52962886899999
 30
0.0
 11
177.28489629556
 21
164.52962886899999
 31
0.0
  0
ARC
  5
370
  8
LEVEL001
  6
CONTINUOUS
 62
     7
 10
169.28489629556
 20
168.52962886899999
 30
0.0
 40
4.0
 50
180.0
 51
270.0
  0
POINT
  5
371
  8
LEVEL001
 62
     7
 10
165.28489629556
 20
164.52962886899999
 30
0.0
  0
LINE
  5
372
  8
LEVEL001
  6
CONTINUOUS
 62
     7
 10
173.28489629556
 20
164.52962886899999
 30
0.0
 11
169.28489629556
 21
164.52962886899999
 31
0.0
  0
LINE
  5
373
  8
LEVEL001
  6
CONTINUOUS
 62
     7
 10
173.28489629556
 20
177.52962886899999
 30
0.0
 11
172.28489629556
 21
177.52962886899999
 31
0.0
  0
LINE
  5
374
  8
LEVEL001
  6
DASHDOT
 62
     2
 10
167.38453751148
 20
242.679628869
 30
0.0
 11
186.55129375902999
 21
242.679628869
 31
0.0
  0
LINE
  5
375
  8
0
  6
CONTINUOUS
 62
     2
 10
167.28489629556
 20
234.829628869
 30
0.0
 11
167.28489629556
 21
230.829628869
 31
0.0
  0
LINE
  5
376
  8
0
  6
CONTINUOUS
 62
     2
 10
167.28489629556
 20
230.829628869
 30
0.0
 11
179.28489629556
 21
230.829628869
 31
0.0
  0
LINE
  5
377
  8
0
  6
CONTINUOUS
 62
     2
 10
179.28489629556
 20
230.829628869
 30
0.0
 11
179.28489629556
 21
234.829628869
 31
0.0
  0
LINE
  5
378
  8
0
  6
CONTINUOUS
 62
     2
 10
179.28489629556
 20
234.829628869
 30
0.0
 11
167.28489629556
 21
234.829628869
 31
0.0
  0
CIRCLE
  5
379
  8
0
  6
CONTINUOUS
 62
     7
 10
173.28489629556
 20
242.679628869
 30
0.0
 40
1.8999999999999999
  0
DIMENSION
  5
37A
  8
0
  6
CONTINUOUS
 62
     2
  2
*D19
 10
171.94073871622999
 20
241.33678099901999
 30
0.0
 11
187.2612387154
 21
256.64235313386001
 31
0.0
 70
   131
  1
\A1;3-%%c3.8穴、%%c7皿
 15
174.62905387488999
 25
244.02247673899001
 35
0.0
 40
17.855905859597001
  0
CIRCLE
  5
37B
  8
0
  6
CONTINUOUS
 62
     7
 10
179.28489629556
 20
149.179628869
 30
0.0
 40
1.8999999999999999
  0
CIRCLE
  5
37C
  8
0
  6
CONTINUOUS
 62
     7
 10
167.28489629556
 20
149.179628869
 30
0.0
 40
1.8999999999999999
  0
LINE
  5
37D
  8
0
  6
CONTINUOUS
 62
     2
 10
168.53489629556
 20
207.02962886899999
 30
0.0
 11
173.28489629556
 21
207.02962886899999
 31
0.0
  0
LINE
  5
37E
  8
0
  6
CONTINUOUS
 62
     2
 10
168.53489629556
 20
207.52962886899999
 30
0.0
 11
173.28489629556
 21
207.52962886899999
 31
0.0
  0
LINE
  5
37F
  8
0
  6
CONTINUOUS
 62
     2
 10
168.53489629556
 20
208.52962886899999
 30
0.0
 11
173.28489629556
 21
208.52962886899999
 31
0.0
  0
LINE
  5
380
  8
0
  6
CONTINUOUS
 62
     2
 10
168.80284548799
 20
210.02962886899999
 30
0.0
 11
173.28489629556
 21
210.02962886899999
 31
0.0
  0
LINE
  5
381
  8
0
  6
CONTINUOUS
 62
     2
 10
168.59840462245
 20
209.52962886899999
 30
0.0
 11
173.28489629556
 21
209.52962886899999
 31
0.0
  0
LINE
  5
382
  8
0
  6
CONTINUOUS
 62
     2
 10
168.53489629556
 20
209.02962886899999
 30
0.0
 11
173.28489629556
 21
209.02962886899999
 31
0.0
  0
LINE
  5
383
  8
0
  6
CONTINUOUS
 62
     2
 10
168.59840462246001
 20
206.52962886899999
 30
0.0
 11
173.28489629556
 21
206.52962886899999
 31
0.0
  0
LINE
  5
384
  8
0
  6
CONTINUOUS
 62
     2
 10
173.28489629556
 20
206.02962886899999
 30
0.0
 11
168.80284548799
 21
206.02962886899999
 31
0.0
  0
LINE
  5
385
  8
0
  6
CONTINUOUS
 62
     2
 10
168.53489629556
 20
208.02962886899999
 30
0.0
 11
173.28489629556
 21
208.02962886899999
 31
0.0
  0
LINE
  5
386
  8
0
  6
CONTINUOUS
 62
     2
 10
178.03489629556
 20
207.02962886899999
 30
0.0
 11
173.28489629556
 21
207.02962886899999
 31
0.0
  0
LINE
  5
387
  8
0
  6
CONTINUOUS
 62
     2
 10
178.03489629556
 20
207.52962886899999
 30
0.0
 11
173.28489629556
 21
207.52962886899999
 31
0.0
  0
LINE
  5
388
  8
0
  6
CONTINUOUS
 62
     2
 10
177.97138796866
 20
206.52962886899999
 30
0.0
 11
173.28489629556
 21
206.52962886899999
 31
0.0
  0
LINE
  5
389
  8
0
  6
CONTINUOUS
 62
     2
 10
173.28489629556
 20
206.02962886899999
 30
0.0
 11
177.76694710313001
 21
206.02962886899999
 31
0.0
  0
LINE
  5
38A
  8
0
  6
CONTINUOUS
 62
     2
 10
178.03489629556
 20
208.52962886899999
 30
0.0
 11
173.28489629556
 21
208.52962886899999
 31
0.0
  0
LINE
  5
38B
  8
0
  6
CONTINUOUS
 62
     2
 10
177.76694710313001
 20
210.02962886899999
 30
0.0
 11
173.28489629556
 21
210.02962886899999
 31
0.0
  0
LINE
  5
38C
  8
0
  6
CONTINUOUS
 62
     2
 10
177.97138796866
 20
209.52962886899999
 30
0.0
 11
173.28489629556
 21
209.52962886899999
 31
0.0
  0
LINE
  5
38D
  8
0
  6
CONTINUOUS
 62
     2
 10
178.03489629556
 20
209.02962886899999
 30
0.0
 11
173.28489629556
 21
209.02962886899999
 31
0.0
  0
LINE
  5
38E
  8
0
  6
CONTINUOUS
 62
     2
 10
178.03489629556
 20
208.02962886899999
 30
0.0
 11
173.28489629556
 21
208.02962886899999
 31
0.0
  0
LINE
  5
38F
  8
0
  6
DASHDOT
 62
     2
 10
173.28489629556
 20
85.078331153605006
 30
0.0
 11
173.28489629556
 21
260.54186185133
 31
0.0
  0
POINT
  5
390
  8
LEVEL001
 62
     2
 10
167.28489629556
 20
88.979628869003989
 30
0.0
  0
POINT
  5
391
  8
LEVEL001
 62
     2
 10
179.28489629556
 20
88.979628869003989
 30
0.0
  0
LINE
  5
392
  8
LEVEL001
  6
HIDDEN
 62
     2
 10
169.96827150519999
 20
90.979628869004003
 30
0.0
 11
170.78489629556
 21
88.979628869003989
 31
0.0
  0
LINE
  5
393
  8
LEVEL001
  6
HIDDEN
 62
     2
 10
167.28489629556
 20
90.979628869004003
 30
0.0
 11
173.78489629556
 21
90.979628869004003
 31
0.0
  0
LINE
  5
394
  8
LEVEL001
  6
HIDDEN
 62
     2
 10
169.28489629556
 20
88.979628869003989
 30
0.0
 11
172.78489629556
 21
88.979628869003989
 31
0.0
  0
LINE
  5
395
  8
0
  6
HIDDEN
 62
     2
 10
167.28489629556
 20
90.979628869004003
 30
0.0
 11
169.28489629556
 21
88.979628869003989
 31
0.0
  0
LINE
  5
396
  8
LEVEL001
  6
HIDDEN
 62
     2
 10
167.28489629556
 20
114.179628869
 30
0.0
 11
167.28489629556
 21
90.979628869004003
 31
0.0
  0
LINE
  5
397
  8
LEVEL001
  6
HIDDEN
 62
     2
 10
176.6015210859199
 20
90.979628869004003
 30
0.0
 11
175.78489629556
 21
88.979628869003989
 31
0.0
  0
LINE
  5
398
  8
LEVEL001
  6
HIDDEN
 62
     2
 10
173.78489629556
 20
90.979628869004003
 30
0.0
 11
179.28489629556
 21
90.979628869004003
 31
0.0
  0
LINE
  5
399
  8
0
  6
HIDDEN
 62
     2
 10
177.28489629543
 20
88.979628869003989
 30
0.0
 11
179.28489629556
 21
90.979628869004003
 31
0.0
  0
LINE
  5
39A
  8
LEVEL001
  6
HIDDEN
 62
     2
 10
172.78489629556
 20
88.979628869003989
 30
0.0
 11
177.28489629543
 21
88.979628869003989
 31
0.0
  0
LINE
  5
39B
  8
LEVEL001
  6
HIDDEN
 62
     2
 10
179.28489629556
 20
90.979628869004003
 30
0.0
 11
179.28489629556
 21
114.179628869
 31
0.0
  0
DIMENSION
  5
39C
  8
0
  6
CONTINUOUS
 62
     2
  2
*D20
 10
139.50958008839001
 20
114.179628869
 30
0.0
 11
139.50958008839001
 21
177.554628869
 31
0.0
  1
\A1;135.5{\H0.625x;\S%%p0.5^  ;}
 13
173.28489629556
 23
249.679628869
 33
0.0
 14
163.28489629556
 24
114.179628869
 34
0.0
 50
270.0
  0
INSERT
  5
39D
  8
0
  6
CONTINUOUS
  2
*U81
 10
0.0
 20
0.0
 30
0.0
  0
INSERT
  5
39E
  8
0
  6
CONTINUOUS
  2
*U82
 10
0.0
 20
0.0
 30
0.0
  0
ARC
  5
39F
  8
0
  6
HIDDEN
 62
     2
 10
173.28489629556
 20
97.979628868988016
 30
0.0
 40
6.0000000000155991
 50
56.442690238121003
 51
123.55730976186
  0
LINE
  5
3A0
  8
LEVEL001
  6
HIDDEN
 62
     2
 10
176.6015210859199
 20
90.979628869004003
 30
0.0
 11
176.6015210859199
 21
102.979628869
 31
0.0
  0
LINE
  5
3A1
  8
LEVEL001
  6
HIDDEN
 62
     2
 10
169.96827150519999
 20
90.979628869004003
 30
0.0
 11
169.96827150519999
 21
102.979628869
 31
0.0
  0
LINE
  5
3A2
  8
0
  6
HIDDEN
 62
     2
 10
169.96827150519999
 20
102.979628869
 30
0.0
 11
173.28489629556
 21
102.979628869
 31
0.0
  0
LINE
  5
3A3
  8
0
  6
HIDDEN
 62
     2
 10
173.28489629556
 20
102.979628869
 30
0.0
 11
176.6015210859199
 21
102.979628869
 31
0.0
  0
LINE
  5
3A4
  8
0
  6
CONTINUOUS
 62
     2
 10
172.48044581288991
 20
234.08950791295001
 30
0.0
 11
172.28811249179
 21
232.81529966065
 31
0.0
  0
LINE
  5
3A5
  8
0
  6
CONTINUOUS
 62
     2
 10
170.88319322557999
 20
232.02884124628
 30
0.0
 11
171.17840436664
 21
230.96550791294999
 31
0.0
  0
ARC
  5
3A6
  8
0
  6
CONTINUOUS
 62
     2
 10
172.17526160539001
 20
232.80418992853001
 30
0.0
 40
0.071356965113022
 50
170.68405352151001
 51
269.12700065365999
  0
ARC
  5
3A7
  8
0
  6
CONTINUOUS
 62
     2
 10
172.18642413577999
 20
232.83586199920001
 30
0.0
 40
0.10374647711828
 50
263.21905471538997
 51
348.56840050386
  0
LINE
  5
3A8
  8
0
  6
CONTINUOUS
 62
     2
 10
169.92440436664
 20
230.96550791294999
 30
0.0
 11
169.70514560653999
 21
232.02884124628
 31
0.0
  0
LINE
  5
3A9
  8
0
  6
CONTINUOUS
 62
     2
 10
169.68095153645999
 20
232.14617457961
 30
0.0
 11
169.52217795154999
 21
232.91617457960999
 31
0.0
  0
LINE
  5
3AA
  8
0
  6
CONTINUOUS
 62
     2
 10
169.78507103331
 20
234.65784124627999
 30
0.0
 11
169.40595153646001
 21
232.14617457961
 31
0.0
  0
LINE
  5
3AB
  8
0
  6
CONTINUOUS
 62
     2
 10
169.68095153645999
 20
232.14617457961
 30
0.0
 11
169.40595153646001
 21
232.14617457961
 31
0.0
  0
LINE
  5
3AC
  8
0
  6
CONTINUOUS
 62
     2
 10
169.38824084462999
 20
232.02884124628
 30
0.0
 11
169.70514560653999
 21
232.02884124628
 31
0.0
  0
LINE
  5
3AD
  8
0
  6
CONTINUOUS
 62
     2
 10
170.63684461822001
 20
232.91617457960999
 30
0.0
 11
170.85061820312001
 21
232.14617457961
 31
0.0
  0
POLYLINE
  5
3AE
  8
0
  6
CONTINUOUS
 62
     2
 66
     1
 10
0.0
 20
0.0
 30
0.0
  0
VERTEX
  5
5CD
  8
0
  6
CONTINUOUS
 62
     2
 10
170.88319322557999
 20
232.02884124628
 30
0.0
  0
VERTEX
  5
5CE
  8
0
  6
CONTINUOUS
 62
     2
 10
178.45307103331001
 20
232.02884124628
 30
0.0
  0
VERTEX
  5
5CF
  8
0
  6
CONTINUOUS
 62
     2
 10
178.45307103331001
 20
232.14617457961
 30
0.0
  0
VERTEX
  5
5D0
  8
0
  6
CONTINUOUS
 62
     2
 10
170.85061820312001
 20
232.14617457961
 30
0.0
  0
SEQEND
  5
5D1
  8
0
  6
CONTINUOUS
 62
     2
  0
LINE
  5
3AF
  8
0
  6
CONTINUOUS
 62
     2
 10
171.73573769998001
 20
234.65784124627999
 30
0.0
 11
170.63684461822001
 21
232.91617457960999
 31
0.0
  0
LINE
  5
3B0
  8
0
  6
CONTINUOUS
 62
     2
 10
170.62107103330999
 20
234.65784124627999
 30
0.0
 11
169.52217795154999
 21
232.91617457960999
 31
0.0
  0
LINE
  5
3B1
  8
0
  6
CONTINUOUS
 62
     2
 10
169.78507103331
 20
234.65784124627999
 30
0.0
 11
168.67040436664001
 21
234.65784124627999
 31
0.0
  0
LINE
  5
3B2
  8
0
  6
CONTINUOUS
 62
     2
 10
171.73573769998001
 20
234.65784124627999
 30
0.0
 11
170.62107103330999
 21
234.65784124627999
 31
0.0
  0
LINE
  5
3B3
  8
0
  6
CONTINUOUS
 62
     2
 10
171.71044581288999
 20
234.08950791295001
 30
0.0
 11
171.51822033702999
 21
232.81601413541
 31
0.0
  0
ARC
  5
3B4
  8
0
  6
CONTINUOUS
 62
     2
 10
172.10425705464999
 20
232.73519161582999
 30
0.0
 40
0.59158373377701
 50
172.14765871033001
 51
264.66082673527001
  0
ARC
  5
3B5
  8
0
  6
CONTINUOUS
 62
     2
 10
172.06683619080999
 20
232.96764379384001
 30
0.0
 40
0.8216583073016001
 50
268.77075588819997
 51
350.94960092993989
  0
LINE
  5
3B6
  8
0
  6
CONTINUOUS
 62
     2
 10
174.93711247955
 20
234.08950791295001
 30
0.0
 11
174.64377914622
 21
232.14617457961
 31
0.0
  0
LINE
  5
3B7
  8
0
  6
CONTINUOUS
 62
     2
 10
175.23044581288991
 20
232.14617457961
 30
0.0
 11
174.64377914622
 21
232.14617457961
 31
0.0
  0
LINE
  5
3B8
  8
0
  6
CONTINUOUS
 62
     2
 10
173.87377914621999
 20
232.14617457961
 30
0.0
 11
174.53377914622001
 21
232.14617457961
 31
0.0
  0
LINE
  5
3B9
  8
0
  6
CONTINUOUS
 62
     2
 10
173.58044581288991
 20
232.14617457961
 30
0.0
 11
172.99377914621999
 21
232.14617457961
 31
0.0
  0
LINE
  5
3BA
  8
0
  6
CONTINUOUS
 62
     2
 10
173.87377914621999
 20
232.14617457961
 30
0.0
 11
173.75280879581999
 21
232.73284124628
 31
0.0
  0
LINE
  5
3BB
  8
0
  6
CONTINUOUS
 62
     2
 10
174.32000556131001
 20
232.91617457960999
 30
0.0
 11
174.53377914622001
 21
232.14617457961
 31
0.0
  0
LINE
  5
3BC
  8
0
  6
CONTINUOUS
 62
     2
 10
173.7909914981299
 20
233.54103974431999
 30
0.0
 11
173.58044581288991
 21
232.14617457961
 31
0.0
  0
LINE
  5
3BD
  8
0
  6
CONTINUOUS
 62
     2
 10
176.33044581288991
 20
234.08950791295001
 30
0.0
 11
175.74377914621999
 21
234.08950791295001
 31
0.0
  0
LINE
  5
3BE
  8
0
  6
CONTINUOUS
 62
     2
 10
176.33044581288991
 20
234.08950791295001
 30
0.0
 11
176.03711247954999
 21
232.14617457961
 31
0.0
  0
LINE
  5
3BF
  8
0
  6
CONTINUOUS
 62
     2
 10
175.74377914621999
 20
234.08950791295001
 30
0.0
 11
175.45044581288991
 21
232.14617457961
 31
0.0
  0
LINE
  5
3C0
  8
0
  6
CONTINUOUS
 62
     2
 10
175.52377914621991
 20
234.08950791295001
 30
0.0
 11
174.93711247955
 21
234.08950791295001
 31
0.0
  0
LINE
  5
3C1
  8
0
  6
CONTINUOUS
 62
     2
 10
175.52377914621991
 20
234.08950791295001
 30
0.0
 11
175.23044581288991
 21
232.14617457961
 31
0.0
  0
LINE
  5
3C2
  8
0
  6
CONTINUOUS
 62
     2
 10
176.77044581288999
 20
234.08950791295001
 30
0.0
 11
176.19208103301
 21
233.17284124628
 31
0.0
  0
LINE
  5
3C3
  8
0
  6
CONTINUOUS
 62
     2
 10
176.40377914621999
 20
232.14617457961
 30
0.0
 11
176.19208103301
 21
233.17284124628
 31
0.0
  0
LINE
  5
3C4
  8
0
  6
CONTINUOUS
 62
     2
 10
173.75280879581999
 20
232.73284124628
 30
0.0
 11
173.83763784684999
 21
233.28300026095999
 31
0.0
  0
ARC
  5
3C5
  8
0
  6
CONTINUOUS
 62
     2
 10
174.07956443084001
 20
233.50942409044001
 30
0.0
 40
0.5800838225070601
 50
351.41637851992988
 51
89.999999999755985
  0
LINE
  5
3C6
  8
0
  6
CONTINUOUS
 62
     2
 10
174.07956443085001
 20
234.08950791295001
 30
0.0
 11
173.28711247954999
 21
234.08950791295001
 31
0.0
  0
LINE
  5
3C7
  8
0
  6
CONTINUOUS
 62
     2
 10
173.79076027830001
 20
233.53950791295
 30
0.0
 11
173.93674965111001
 21
233.53950791295
 31
0.0
  0
ARC
  5
3C8
  8
0
  6
CONTINUOUS
 62
     2
 10
173.99056488904989
 20
233.49564774525999
 30
0.0
 40
0.6665735565176
 50
299.61899079207001
 51
353.72968381421998
  0
ARC
  5
3C9
  8
0
  6
CONTINUOUS
 62
     2
 10
173.93674965111001
 20
233.41199739992999
 30
0.0
 40
0.12751051301259
 50
0.0
 51
89.999999999936009
  0
ARC
  5
3CA
  8
0
  6
CONTINUOUS
 62
     2
 10
173.9101380484
 20
233.43931732928999
 30
0.0
 40
0.15652477469827
 50
272.95201820243
 51
349.94807454535999
  0
LINE
  5
3CB
  8
0
  6
CONTINUOUS
 62
     2
 10
173.91819901878
 20
233.28300026095999
 30
0.0
 11
173.83763784684999
 21
233.28300026095999
 31
0.0
  0
LINE
  5
3CC
  8
0
  6
CONTINUOUS
 62
     2
 10
173.28711247954999
 20
234.08950791295001
 30
0.0
 11
172.99377914621999
 21
232.14617457961
 31
0.0
  0
LINE
  5
3CD
  8
0
  6
CONTINUOUS
 62
     2
 10
173.06711247954999
 20
234.08950791295001
 30
0.0
 11
172.48044581288991
 21
234.08950791295001
 31
0.0
  0
LINE
  5
3CE
  8
0
  6
CONTINUOUS
 62
     2
 10
173.06711247954999
 20
234.08950791295001
 30
0.0
 11
172.87826514312999
 21
232.83839430917001
 31
0.0
  0
LINE
  5
3CF
  8
0
  6
CONTINUOUS
 62
     2
 10
172.29711247955001
 20
234.08950791295001
 30
0.0
 11
171.71044581288999
 21
234.08950791295001
 31
0.0
  0
LINE
  5
3D0
  8
0
  6
CONTINUOUS
 62
     2
 10
172.29711247955001
 20
234.08950791295001
 30
0.0
 11
172.10457354480999
 21
232.81393747028
 31
0.0
  0
LINE
  5
3D1
  8
0
  6
CONTINUOUS
 62
     2
 10
178.05377914621991
 20
234.08950791295001
 30
0.0
 11
177.46711247955
 21
234.08950791295001
 31
0.0
  0
LINE
  5
3D2
  8
0
  6
CONTINUOUS
 62
     2
 10
177.46711247955
 20
234.08950791295001
 30
0.0
 11
177.17377914621991
 21
232.14617457961
 31
0.0
  0
LINE
  5
3D3
  8
0
  6
CONTINUOUS
 62
     2
 10
177.35711247955001
 20
234.08950791295001
 30
0.0
 11
176.77044581288999
 21
234.08950791295001
 31
0.0
  0
LINE
  5
3D4
  8
0
  6
CONTINUOUS
 62
     2
 10
177.35711247955001
 20
234.08950791295001
 30
0.0
 11
176.77874769968
 21
233.17284124628
 31
0.0
  0
LINE
  5
3D5
  8
0
  6
CONTINUOUS
 62
     2
 10
177.76044581288991
 20
232.14617457961
 30
0.0
 11
177.17377914621991
 21
232.14617457961
 31
0.0
  0
LINE
  5
3D6
  8
0
  6
CONTINUOUS
 62
     2
 10
176.03711247954999
 20
232.14617457961
 30
0.0
 11
175.45044581288991
 21
232.14617457961
 31
0.0
  0
LINE
  5
3D7
  8
0
  6
CONTINUOUS
 62
     2
 10
176.40377914621999
 20
232.14617457961
 30
0.0
 11
177.06377914622001
 21
232.14617457961
 31
0.0
  0
LINE
  5
3D8
  8
0
  6
CONTINUOUS
 62
     2
 10
176.77874769968
 20
233.17284124628
 30
0.0
 11
177.06377914622001
 21
232.14617457961
 31
0.0
  0
LINE
  5
3D9
  8
0
  6
CONTINUOUS
 62
     2
 10
169.92440436664
 20
230.96550791294999
 30
0.0
 11
171.17840436664
 21
230.96550791294999
 31
0.0
  0
LINE
  5
3DA
  8
0
  6
CONTINUOUS
 62
     2
 10
178.05377914621991
 20
234.08950791295001
 30
0.0
 11
177.76044581288991
 21
232.14617457961
 31
0.0
  0
POLYLINE
  5
3DB
  8
0
  6
CONTINUOUS
 62
     2
 66
     1
 10
0.0
 20
0.0
 30
0.0
  0
VERTEX
  5
5D2
  8
0
  6
CONTINUOUS
 62
     2
 10
168.29128486978999
 20
232.14617457961
 30
0.0
  0
VERTEX
  5
5D3
  8
0
  6
CONTINUOUS
 62
     2
 10
167.74640436664001
 20
232.14617457961
 30
0.0
  0
VERTEX
  5
5D4
  8
0
  6
CONTINUOUS
 62
     2
 10
167.74640436664001
 20
232.02884124628
 30
0.0
  0
VERTEX
  5
5D5
  8
0
  6
CONTINUOUS
 62
     2
 10
168.27357417796
 20
232.02884124628
 30
0.0
  0
SEQEND
  5
5D6
  8
0
  6
CONTINUOUS
 62
     2
  0
LINE
  5
3DC
  8
0
  6
CONTINUOUS
 62
     2
 10
168.67040436664001
 20
234.65784124627999
 30
0.0
 11
168.29128486978999
 21
232.14617457961
 31
0.0
  0
LINE
  5
3DD
  8
0
  6
CONTINUOUS
 62
     2
 10
168.27357417796
 20
232.02884124628
 30
0.0
 11
168.11307103331001
 21
230.96550791294999
 31
0.0
  0
LINE
  5
3DE
  8
0
  6
CONTINUOUS
 62
     2
 10
169.38824084462999
 20
232.02884124628
 30
0.0
 11
169.22773769998
 21
230.96550791294999
 31
0.0
  0
LINE
  5
3DF
  8
0
  6
CONTINUOUS
 62
     2
 10
169.22773769998
 20
230.96550791294999
 30
0.0
 11
168.11307103331001
 21
230.96550791294999
 31
0.0
  0
DIMENSION
  5
3E0
  8
0
  6
CONTINUOUS
 62
     2
  2
*D21
 10
183.28489629556
 20
257.01126718799998
 30
0.0
 11
147.55682872872001
 21
257.01126718799998
 31
0.0
 70
   128
  1
\A1;20{\H0.625x;\S%%p0.2^  ;}
 13
163.28489629556
 23
239.679628869
 33
0.0
 14
183.28489629556
 24
239.679628869
 34
0.0
  0
LINE
  5
3E1
  8
LEVEL001
  6
DASHDOT
 62
     2
 10
173.28489629556
 20
71.778328311199004
 30
0.0
 11
173.28489629556
 21
15.876978670364
 31
0.0
  0
LINE
  5
3E2
  8
LEVEL001
  6
CONTINUOUS
 62
     7
 10
181.78489629556
 20
100.179628869
 30
0.0
 11
181.78489629556
 21
88.179628869004006
 31
0.0
  0
ARC
  5
3E3
  8
LEVEL001
  6
CONTINUOUS
 62
     7
 10
179.78489629555
 20
88.179628869004006
 30
0.0
 40
2.0
 50
270.00000000002001
 51
0.0
  0
LINE
  5
3E4
  8
LEVEL001
  6
CONTINUOUS
 62
     7
 10
179.78489629555
 20
86.179628869004006
 30
0.0
 11
173.28489629556
 21
86.179628869004006
 31
0.0
  0
LINE
  5
3E5
  8
0
  6
CONTINUOUS
 62
     7
 10
180.38489629556
 20
100.179628869
 30
0.0
 11
180.38489629556
 21
88.179628869004006
 31
0.0
  0
ARC
  5
3E6
  8
0
  6
CONTINUOUS
 62
     7
 10
179.58489629555001
 20
88.179628869004006
 30
0.0
 40
0.8
 50
269.99999999999
 51
0.0
  0
INSERT
  5
3E7
  8
0
  2
BLOCK003
 10
0.0
 20
0.0
 30
0.0
  0
LINE
  5
3E8
  8
0
  6
CONTINUOUS
 62
     7
 10
180.38489629556
 20
95.679628869004006
 30
0.0
 11
179.38489629556
 21
95.679628869004006
 31
0.0
  0
INSERT
  5
3E9
  8
0
  2
BLOCK004
 10
0.0
 20
0.0
 30
0.0
  0
LINE
  5
3EA
  8
LEVEL001
  6
CONTINUOUS
 62
     7
 10
184.28489629556
 20
101.179628869
 30
0.0
 11
184.28489629556
 21
100.179628869
 31
0.0
  0
LINE
  5
3EB
  8
LEVEL001
  6
CONTINUOUS
 62
     7
 10
184.28489629556
 20
100.179628869
 30
0.0
 11
181.78489629556
 21
100.179628869
 31
0.0
  0
LINE
  5
3EC
  8
LEVEL001
  6
CONTINUOUS
 62
     7
 10
179.28489629556
 20
101.179628869
 30
0.0
 11
184.28489629556
 21
101.179628869
 31
0.0
  0
LINE
  5
3ED
  8
0
  6
CONTINUOUS
 62
     7
 10
181.78489629556
 20
100.179628869
 30
0.0
 11
180.38489629556
 21
100.179628869
 31
0.0
  0
LINE
  5
3EE
  8
0
  6
CONTINUOUS
 62
     7
 10
179.58489629555001
 20
87.379628869004009
 30
0.0
 11
173.28489629556
 21
87.379628869004009
 31
0.0
  0
LINE
  5
3EF
  8
0
  6
CONTINUOUS
 62
     2
 10
179.38489629556
 20
95.679628869004006
 30
0.0
 11
179.38489629556
 21
87.379628869004009
 31
0.0
  0
ARC
  5
3F0
  8
LEVEL001
  6
CONTINUOUS
 62
     7
 10
166.78489629556
 20
88.179628869005015
 30
0.0
 40
2.0
 50
180.00000000002001
 51
269.99999999988
  0
LINE
  5
3F1
  8
LEVEL001
  6
CONTINUOUS
 62
     7
 10
166.78489629555
 20
86.179628869004006
 30
0.0
 11
173.28489629556
 21
86.179628869004006
 31
0.0
  0
ARC
  5
3F2
  8
0
  6
CONTINUOUS
 62
     7
 10
166.98489629555999
 20
88.179628869002997
 30
0.0
 40
0.8
 50
179.99999999994
 51
269.99999999989001
  0
LINE
  5
3F3
  8
0
  6
CONTINUOUS
 62
     7
 10
166.98489629555999
 20
87.379628869004009
 30
0.0
 11
173.28489629556
 21
87.379628869004009
 31
0.0
  0
LINE
  5
3F4
  8
0
  6
CONTINUOUS
 62
     2
 10
167.18489629556001
 20
95.679628869004006
 30
0.0
 11
167.18489629556001
 21
87.379628869004009
 31
0.0
  0
LINE
  5
3F5
  8
LEVEL001
  6
CONTINUOUS
 62
     7
 10
164.78489629556
 20
100.179628869
 30
0.0
 11
164.78489629556
 21
88.179628869004006
 31
0.0
  0
LINE
  5
3F6
  8
0
  6
CONTINUOUS
 62
     7
 10
166.18489629556001
 20
100.179628869
 30
0.0
 11
166.18489629556001
 21
88.179628869004006
 31
0.0
  0
LINE
  5
3F7
  8
LEVEL001
  6
CONTINUOUS
 62
     7
 10
162.28489629556
 20
100.179628869
 30
0.0
 11
162.28489629556
 21
101.179628869
 31
0.0
  0
LINE
  5
3F8
  8
LEVEL001
  6
CONTINUOUS
 62
     7
 10
164.78489629556
 20
100.179628869
 30
0.0
 11
162.28489629556
 21
100.179628869
 31
0.0
  0
LINE
  5
3F9
  8
LEVEL001
  6
CONTINUOUS
 62
     7
 10
162.28489629556
 20
101.179628869
 30
0.0
 11
167.28489629556
 21
101.179628869
 31
0.0
  0
INSERT
  5
3FA
  8
0
  2
BLOCK005
 10
0.0
 20
0.0
 30
0.0
  0
LINE
  5
3FB
  8
0
  6
CONTINUOUS
 62
     7
 10
167.18489629556001
 20
95.679628869004006
 30
0.0
 11
166.18489629556001
 21
95.679628869004006
 31
0.0
  0
LINE
  5
3FC
  8
0
  6
CONTINUOUS
 62
     7
 10
166.18489629556001
 20
100.179628869
 30
0.0
 11
164.78489629556
 21
100.179628869
 31
0.0
  0
LINE
  5
3FD
  8
LEVEL001
  6
CONTINUOUS
 62
     7
 10
183.28489629556
 20
114.179628869
 30
0.0
 11
173.28489629556
 21
114.179628869
 31
0.0
  0
LINE
  5
3FE
  8
0
  6
CONTINUOUS
 62
     7
 10
162.28489629556
 20
100.179628869
 30
0.0
 11
146.64602129321989
 21
100.179628869
 31
0.0
  0
LINE
  5
3FF
  8
0
  6
CONTINUOUS
 62
     7
 10
184.28489629556
 20
100.179628869
 30
0.0
 11
193.13039266928999
 21
100.179628869
 31
0.0
  0
CIRCLE
  5
400
  8
LEVEL001
  6
CONTINUOUS
 62
     7
 10
173.28489629556
 20
60.703043218505996
 30
0.0
 40
2.5
  0
CIRCLE
  5
401
  8
LEVEL001
  6
CONTINUOUS
 62
     7
 10
173.28489629556
 20
60.703043218505996
 30
0.0
 40
3.649999999999999
  0
LINE
  5
402
  8
LEVEL001
  6
DASHDOT
 62
     2
 10
181.65314451770001
 20
60.703043218505996
 30
0.0
 11
165.01009558179999
 21
60.703043218505996
 31
0.0
  0
ARC
  5
403
  8
LEVEL001
  6
CONTINUOUS
 62
     7
 10
168.28489629556989
 20
59.703043218505996
 30
0.0
 40
6.0
 50
90.000000000002004
 51
179.99999999999
  0
ARC
  5
404
  8
LEVEL001
  6
CONTINUOUS
 62
     7
 10
178.28489629556
 20
59.703043218505996
 30
0.0
 40
6.0
 50
0.0000000000027141
 51
89.999999999996007
  0
LINE
  5
405
  8
LEVEL001
  6
CONTINUOUS
 62
     7
 10
178.28489629556
 20
65.703043218505996
 30
0.0
 11
168.28489629556989
 21
65.703043218505996
 31
0.0
  0
INSERT
  5
406
  8
0
  6
CONTINUOUS
  2
*U83
 10
0.0
 20
0.0
 30
0.0
  0
INSERT
  5
407
  8
0
  6
CONTINUOUS
  2
*U84
 10
0.0
 20
0.0
 30
0.0
  0
LINE
  5
408
  8
LEVEL001
  6
CONTINUOUS
 62
     7
 10
248.60155507224999
 20
249.679628869
 30
0.0
 11
264.60155507226
 21
249.679628869
 31
0.0
  0
LINE
  5
409
  8
LEVEL001
  6
CONTINUOUS
 62
     7
 10
264.60155507226
 20
114.179628869
 30
0.0
 11
264.60155507226
 21
249.679628869
 31
0.0
  0
LINE
  5
40A
  8
LEVEL001
  6
CONTINUOUS
 62
     7
 10
257.60155507226
 20
114.179628869
 30
0.0
 11
248.60155507226
 21
114.179628869
 31
0.0
  0
LINE
  5
40B
  8
LEVEL001
  6
CONTINUOUS
 62
     7
 10
264.60155507226
 20
114.179628869
 30
0.0
 11
257.60155507226
 21
114.179628869
 31
0.0
  0
LINE
  5
40C
  8
0
  6
HIDDEN
 62
     2
 10
262.60155507226
 20
102.979628869
 30
0.0
 11
263.60155507226
 21
103.979628869
 31
0.0
  0
LINE
  5
40D
  8
0
  6
HIDDEN
 62
     2
 10
263.60155507226
 20
103.979628869
 30
0.0
 11
263.60155507226
 21
114.179628869
 31
0.0
  0
LINE
  5
40E
  8
LEVEL001
  6
HIDDEN
 62
     2
 10
262.60155507226
 20
90.979628869004003
 30
0.0
 11
262.60155507226
 21
102.979628869
 31
0.0
  0
LINE
  5
40F
  8
LEVEL001
  6
CONTINUOUS
 62
     7
 10
248.60155507226
 20
193.52962886899999
 30
0.0
 11
248.60155507226
 21
249.679628869
 31
0.0
  0
LINE
  5
410
  8
LEVEL001
  6
CONTINUOUS
 62
     7
 10
248.60155507226
 20
114.179628869
 30
0.0
 11
248.60155507226
 21
193.52962886899999
 31
0.0
  0
POINT
  5
411
  8
LEVEL001
 62
     2
 10
252.60155507226
 20
88.979628869003989
 30
0.0
  0
POINT
  5
412
  8
LEVEL001
 62
     2
 10
262.60155507226
 20
88.979628869003989
 30
0.0
  0
LINE
  5
413
  8
LEVEL001
  6
HIDDEN
 62
     2
 10
252.60155507226
 20
90.979628869004003
 30
0.0
 11
262.60155507226
 21
90.979628869004003
 31
0.0
  0
LINE
  5
414
  8
LEVEL001
  6
HIDDEN
 62
     2
 10
252.60155507226
 20
90.979628869004003
 30
0.0
 11
254.60155507226
 21
88.979628869003989
 31
0.0
  0
LINE
  5
415
  8
LEVEL001
  6
HIDDEN
 62
     2
 10
260.60155507226
 20
88.979628869003989
 30
0.0
 11
262.60155507226
 21
90.979628869004003
 31
0.0
  0
LINE
  5
416
  8
LEVEL001
  6
HIDDEN
 62
     2
 10
254.60155507226
 20
88.979628869003989
 30
0.0
 11
260.60155507226
 21
88.979628869003989
 31
0.0
  0
LINE
  5
417
  8
0
  6
HIDDEN
 62
     2
 10
252.60155507226
 20
102.979628869
 30
0.0
 11
251.60155507226
 21
103.979628869
 31
0.0
  0
LINE
  5
418
  8
0
  6
HIDDEN
 62
     2
 10
251.60155507226
 20
114.179628869
 30
0.0
 11
251.60155507226
 21
103.979628869
 31
0.0
  0
LINE
  5
419
  8
LEVEL001
  6
HIDDEN
 62
     2
 10
252.60155507226
 20
102.979628869
 30
0.0
 11
252.60155507226
 21
90.979628869004003
 31
0.0
  0
LINE
  5
41A
  8
LEVEL001
  6
DASHDOT
 62
     2
 10
257.60155507226
 20
110.52668127299
 30
0.0
 11
257.60155507226
 21
86.607254973596994
 31
0.0
  0
LINE
  5
41B
  8
LEVEL001
  6
CONTINUOUS
 62
     7
 10
257.60155507226
 20
101.179628869
 30
0.0
 11
280.60155507226
 21
101.179628869
 31
0.0
  0
LINE
  5
41C
  8
LEVEL001
  6
CONTINUOUS
 62
     7
 10
280.60155507226
 20
100.179628869
 30
0.0
 11
257.60155507226
 21
100.179628869
 31
0.0
  0
ARC
  5
41D
  8
LEVEL001
  6
CONTINUOUS
 62
     7
 10
268.10155507226
 20
88.179628869004006
 30
0.0
 40
2.0
 50
270.0
 51
0.0000000000455964
  0
LINE
  5
41E
  8
LEVEL001
  6
CONTINUOUS
 62
     7
 10
257.60155507226
 20
86.179628869004006
 30
0.0
 11
268.10155507226
 21
86.179628869004006
 31
0.0
  0
LINE
  5
41F
  8
LEVEL001
  6
CONTINUOUS
 62
     7
 10
270.10155507226
 20
88.179628869005995
 30
0.0
 11
270.10155507226
 21
100.179628869
 31
0.0
  0
DIMENSION
  5
420
  8
0
  6
CONTINUOUS
 62
     2
  2
*D25
 10
267.8015550722601
 20
88.179628869005015
 30
0.0
 11
276.82502035330998
 21
78.089336214022993
 31
0.0
 70
   132
 15
269.13475979079999
 25
86.688801857423016
 35
0.0
 40
2.0
  0
DIMENSION
  5
421
  8
0
  6
CONTINUOUS
 62
     2
  2
*D26
 10
295.60628117558002
 20
86.179628869004006
 30
0.0
 11
295.60628117558002
 21
102.02349834249
 31
0.0
 70
   128
  1
\A1;H{\H0.625x;\S%%p0.2^  ;}
 13
280.60155507226
 23
101.179628869
 33
0.0
 14
268.10155507226
 24
86.179628869004006
 34
0.0
 50
270.0
  0
DIMENSION
  5
422
  8
0
  6
CONTINUOUS
 62
     2
  2
*D27
 10
270.10155507226
 20
74.298332800534993
 30
0.0
 11
254.47655507226
 21
74.298332800534993
 31
0.0
  1
\A1;25%%p{\H0.625x;\S0.2^  ;}
 13
245.10155507226
 23
88.179628869004006
 33
0.0
 14
270.10155507226
 24
88.179628869005995
 34
0.0
  0
LINE
  5
423
  8
LEVEL001
  6
CONTINUOUS
 62
     7
 10
257.60155507226
 20
101.179628869
 30
0.0
 11
234.60155507226
 21
101.179628869
 31
0.0
  0
LINE
  5
424
  8
LEVEL001
  6
CONTINUOUS
 62
     7
 10
234.60155507226
 20
101.179628869
 30
0.0
 11
234.60155507226
 21
100.179628869
 31
0.0
  0
LINE
  5
425
  8
LEVEL001
  6
CONTINUOUS
 62
     7
 10
234.60155507226
 20
100.179628869
 30
0.0
 11
257.60155507226
 21
100.179628869
 31
0.0
  0
ARC
  5
426
  8
LEVEL001
  6
CONTINUOUS
 62
     7
 10
247.10155507224999
 20
88.179628869004006
 30
0.0
 40
2.0
 50
180.0
 51
270.00000000001
  0
LINE
  5
427
  8
LEVEL001
  6
CONTINUOUS
 62
     7
 10
245.10155507226
 20
88.179628869004006
 30
0.0
 11
245.10155507226
 21
100.179628869
 31
0.0
  0
LINE
  5
428
  8
LEVEL001
  6
CONTINUOUS
 62
     7
 10
257.60155507226
 20
86.179628869004006
 30
0.0
 11
247.10155507226
 21
86.179628869004006
 31
0.0
  0
LINE
  5
429
  8
LEVEL001
  6
DASHDOT
 62
     2
 10
273.39791040281
 20
149.179628869
 30
0.0
 11
239.71387025516
 21
149.179628869
 31
0.0
  0
LINE
  5
42A
  8
LEVEL001
  6
DASHDOT
 62
     2
 10
239.71387025516
 20
242.679628869
 30
0.0
 11
273.39791040281
 21
242.679628869
 31
0.0
  0
LINE
  5
42B
  8
LEVEL001
  6
CONTINUOUS
 62
     7
 10
280.60155507226
 20
101.179628869
 30
0.0
 11
280.60155507226
 21
100.179628869
 31
0.0
  0
DIMENSION
  5
42C
  8
0
  6
CONTINUOUS
 62
     2
  2
*D28
 10
287.68567271946
 20
101.179628869
 30
0.0
 11
287.68567271946
 21
101.91850052738
 31
0.0
 70
   128
 13
280.60155507226
 23
100.179628869
 33
0.0
 14
280.60155507226
 24
101.179628869
 34
0.0
 50
90.0
  0
LINE
  5
42D
  8
LEVEL001
  6
CONTINUOUS
 62
     7
 10
162.28489629557001
 20
59.703043218505996
 30
0.0
 11
162.28489629556
 21
42.703043218505989
 31
0.0
  0
LINE
  5
42E
  8
LEVEL001
  6
CONTINUOUS
 62
     7
 10
184.28489629556
 20
42.703043218505989
 30
0.0
 11
184.28489629556
 21
59.703043218505996
 31
0.0
  0
CIRCLE
  5
42F
  8
LEVEL001
  6
CONTINUOUS
 62
     7
 10
173.28489629556
 20
24.703043218506
 30
0.0
 40
2.5
  0
CIRCLE
  5
430
  8
LEVEL001
  6
CONTINUOUS
 62
     7
 10
173.28489629556
 20
24.703043218506
 30
0.0
 40
3.649999999999999
  0
LINE
  5
431
  8
LEVEL001
  6
DASHDOT
 62
     2
 10
181.65314451770001
 20
24.703043218506
 30
0.0
 11
165.01009558179999
 21
24.703043218506
 31
0.0
  0
LINE
  5
432
  8
LEVEL001
  6
CONTINUOUS
 62
     7
 10
162.28489629557001
 20
25.703043218506
 30
0.0
 11
162.28489629556
 21
42.703043218505989
 31
0.0
  0
ARC
  5
433
  8
LEVEL001
  6
CONTINUOUS
 62
     7
 10
168.28489629556989
 20
25.703043218506
 30
0.0
 40
6.0
 50
180.0
 51
270.0
  0
LINE
  5
434
  8
LEVEL001
  6
CONTINUOUS
 62
     7
 10
184.28489629556
 20
42.703043218505989
 30
0.0
 11
184.28489629556
 21
25.703043218506
 31
0.0
  0
ARC
  5
435
  8
LEVEL001
  6
CONTINUOUS
 62
     7
 10
178.28489629557001
 20
25.703043218506
 30
0.0
 40
6.0
 50
269.99999999999
 51
0.0
  0
LINE
  5
436
  8
LEVEL001
  6
CONTINUOUS
 62
     7
 10
178.28489629556
 20
19.703043218506
 30
0.0
 11
168.28489629556989
 21
19.703043218506
 31
0.0
  0
ARC
  5
437
  8
0
  6
DOT
 62
     2
 10
176.28489629556
 20
35.703043218505996
 30
0.0
 40
5.5
 50
270.0
 51
0.0000000000020726
  0
LINE
  5
438
  8
0
  6
DOT
 62
     2
 10
181.78489629556
 20
35.703043218505996
 30
0.0
 11
181.78489629556
 21
42.703043218505989
 31
0.0
  0
LINE
  5
439
  8
0
  6
DOT
 62
     2
 10
176.28489629556
 20
30.203043218506
 30
0.0
 11
170.28489629556
 21
30.203043218506
 31
0.0
  0
ARC
  5
43A
  8
0
  6
DOT
 62
     2
 10
170.28489629556
 20
35.703043218505996
 30
0.0
 40
5.5
 50
180.0
 51
270.0
  0
LINE
  5
43B
  8
0
  6
DOT
 62
     2
 10
164.78489629556
 20
42.703043218505989
 30
0.0
 11
164.78489629556
 21
35.703043218505996
 31
0.0
  0
ARC
  5
43C
  8
0
  6
DOT
 62
     2
 10
176.28489629556
 20
49.703043218505996
 30
0.0
 40
5.5
 50
0.0
 51
90.0
  0
LINE
  5
43D
  8
0
  6
DOT
 62
     2
 10
181.78489629556
 20
49.703043218505996
 30
0.0
 11
181.78489629556
 21
42.703043218505989
 31
0.0
  0
LINE
  5
43E
  8
0
  6
DOT
 62
     2
 10
176.28489629556
 20
55.203043218505996
 30
0.0
 11
170.28489629556
 21
55.203043218505996
 31
0.0
  0
ARC
  5
43F
  8
0
  6
DOT
 62
     2
 10
170.28489629556
 20
49.703043218505996
 30
0.0
 40
5.5
 50
90.0
 51
180.0
  0
LINE
  5
440
  8
0
  6
DOT
 62
     2
 10
164.78489629556
 20
42.703043218505989
 30
0.0
 11
164.78489629556
 21
49.703043218505996
 31
0.0
  0
ARC
  5
441
  8
0
  6
CONTINUOUS
 62
     7
 10
173.28489629556
 20
37.803043218505998
 30
0.0
 40
6.0999999999999988
 50
180.0
 51
270.0
  0
LINE
  5
442
  8
LEVEL001
  6
CONTINUOUS
 62
     7
 10
167.18489629556001
 20
37.803043218505998
 30
0.0
 11
167.18489629556001
 21
42.703043218505989
 31
0.0
  0
LINE
  5
443
  8
LEVEL001
  6
DOT
 62
     2
 10
167.18489629556001
 20
37.703043218505996
 30
0.0
 11
165.88489629556
 21
37.703043218505996
 31
0.0
  0
LINE
  5
444
  8
LEVEL001
  6
CONTINUOUS
 62
     7
 10
165.88489629556
 20
37.703043218505996
 30
0.0
 11
165.88489629556
 21
36.503043218506001
 31
0.0
  0
LINE
  5
445
  8
LEVEL001
  6
CONTINUOUS
 62
     7
 10
167.18489629556001
 20
37.703043218505996
 30
0.0
 11
165.88489629556
 21
37.703043218505996
 31
0.0
  0
LINE
  5
446
  8
LEVEL001
  6
CONTINUOUS
 62
     7
 10
165.88489629556
 20
36.503043218506001
 30
0.0
 11
167.32503052525999
 21
36.503043218506001
 31
0.0
  0
LINE
  5
447
  8
0
  6
DOT
 62
     2
 10
166.18489629556001
 20
37.703043218505996
 30
0.0
 11
166.18489629556001
 21
42.703043218505989
 31
0.0
  0
ARC
  5
448
  8
0
  6
CONTINUOUS
 62
     7
 10
173.28489629556
 20
47.603043218506002
 30
0.0
 40
6.0999999999999988
 50
89.999999999999005
 51
180.0
  0
LINE
  5
449
  8
LEVEL001
  6
CONTINUOUS
 62
     7
 10
167.18489629556001
 20
47.603043218506002
 30
0.0
 11
167.18489629556001
 21
42.703043218505989
 31
0.0
  0
LINE
  5
44A
  8
LEVEL001
  6
DOT
 62
     2
 10
167.18489629556001
 20
47.703043218505996
 30
0.0
 11
165.88489629556
 21
47.703043218505996
 31
0.0
  0
LINE
  5
44B
  8
LEVEL001
  6
CONTINUOUS
 62
     7
 10
165.88489629556
 20
47.703043218505996
 30
0.0
 11
165.88489629556
 21
48.903043218505992
 31
0.0
  0
LINE
  5
44C
  8
LEVEL001
  6
CONTINUOUS
 62
     7
 10
167.18489629556001
 20
47.703043218505996
 30
0.0
 11
165.88489629556
 21
47.703043218505996
 31
0.0
  0
LINE
  5
44D
  8
LEVEL001
  6
CONTINUOUS
 62
     7
 10
165.88489629556
 20
48.903043218505992
 30
0.0
 11
167.32503052525999
 21
48.903043218505992
 31
0.0
  0
LINE
  5
44E
  8
0
  6
DOT
 62
     2
 10
166.18489629556001
 20
47.703043218505996
 30
0.0
 11
166.18489629556001
 21
42.703043218505989
 31
0.0
  0
ARC
  5
44F
  8
0
  6
CONTINUOUS
 62
     7
 10
173.28489629556
 20
47.603043218506002
 30
0.0
 40
6.0999999999999988
 50
0.0
 51
89.999999999999005
  0
LINE
  5
450
  8
LEVEL001
  6
CONTINUOUS
 62
     7
 10
179.38489629556
 20
47.603043218506002
 30
0.0
 11
179.38489629556
 21
42.703043218505989
 31
0.0
  0
LINE
  5
451
  8
LEVEL001
  6
DOT
 62
     2
 10
179.38489629556
 20
47.703043218505996
 30
0.0
 11
180.68489629556001
 21
47.703043218505996
 31
0.0
  0
LINE
  5
452
  8
LEVEL001
  6
CONTINUOUS
 62
     7
 10
180.68489629556001
 20
47.703043218505996
 30
0.0
 11
180.68489629556001
 21
48.903043218505992
 31
0.0
  0
LINE
  5
453
  8
LEVEL001
  6
CONTINUOUS
 62
     7
 10
179.38489629556
 20
47.703043218505996
 30
0.0
 11
180.68489629556001
 21
47.703043218505996
 31
0.0
  0
LINE
  5
454
  8
LEVEL001
  6
CONTINUOUS
 62
     7
 10
180.68489629556001
 20
48.903043218505992
 30
0.0
 11
179.24476206585999
 21
48.903043218505992
 31
0.0
  0
LINE
  5
455
  8
0
  6
DOT
 62
     2
 10
180.38489629556
 20
47.703043218505996
 30
0.0
 11
180.38489629556
 21
42.703043218505989
 31
0.0
  0
ARC
  5
456
  8
0
  6
CONTINUOUS
 62
     7
 10
173.28489629556
 20
37.803043218505998
 30
0.0
 40
6.0999999999999988
 50
270.0
 51
0.0000000000000667
  0
LINE
  5
457
  8
LEVEL001
  6
CONTINUOUS
 62
     7
 10
179.38489629556
 20
37.803043218505998
 30
0.0
 11
179.38489629556
 21
42.703043218505989
 31
0.0
  0
LINE
  5
458
  8
LEVEL001
  6
DOT
 62
     2
 10
179.38489629556
 20
37.703043218505996
 30
0.0
 11
180.68489629556001
 21
37.703043218505996
 31
0.0
  0
LINE
  5
459
  8
LEVEL001
  6
CONTINUOUS
 62
     7
 10
180.68489629556001
 20
37.703043218505996
 30
0.0
 11
180.68489629556001
 21
36.503043218506001
 31
0.0
  0
LINE
  5
45A
  8
LEVEL001
  6
CONTINUOUS
 62
     7
 10
179.38489629556
 20
37.703043218505996
 30
0.0
 11
180.68489629556001
 21
37.703043218505996
 31
0.0
  0
LINE
  5
45B
  8
LEVEL001
  6
CONTINUOUS
 62
     7
 10
180.68489629556001
 20
36.503043218506001
 30
0.0
 11
179.24476206585999
 21
36.503043218506001
 31
0.0
  0
LINE
  5
45C
  8
0
  6
DOT
 62
     2
 10
180.38489629556
 20
37.703043218505996
 30
0.0
 11
180.38489629556
 21
42.703043218505989
 31
0.0
  0
LINE
  5
45D
  8
LEVEL001
  6
DASHDOT
 62
     2
 10
187.83921862700001
 20
42.703043218505989
 30
0.0
 11
158.06070097989999
 21
42.703043218505989
 31
0.0
  0
ARC
  5
45E
  8
LEVEL001
  6
CONTINUOUS
 62
     7
 10
173.28489629556
 20
42.703043218505989
 30
0.0
 40
6.0
 50
303.55730976192001
 51
56.442690238079003
  0
LINE
  5
45F
  8
LEVEL001
  6
CONTINUOUS
 62
     7
 10
169.96827150519999
 20
37.703043218505996
 30
0.0
 11
176.60152108591001
 21
37.703043218505996
 31
0.0
  0
ARC
  5
460
  8
LEVEL001
  6
CONTINUOUS
 62
     7
 10
173.28489629556
 20
42.703043218505989
 30
0.0
 40
6.0
 50
123.55730976192
 51
236.44269023807999
  0
LINE
  5
461
  8
LEVEL001
  6
CONTINUOUS
 62
     7
 10
169.96827150519999
 20
47.703043218505996
 30
0.0
 11
176.60152108591001
 21
47.703043218505996
 31
0.0
  0
INSERT
  5
462
  8
0
  2
BLOCK006
 10
0.0
 20
0.0
 30
0.0
  0
DIMENSION
  5
463
  8
0
  6
CONTINUOUS
 62
     2
  2
*D30
 10
167.65455190839
 20
40.629586664359991
 30
0.0
 11
184.0388507152299
 21
46.663343999625987
 31
0.0
 70
   131
 15
178.91524068272
 25
44.776499772652997
 35
0.0
 40
5.4599964195999
  0
TEXT
  5
464
  8
0
 62
     2
 10
269.83551737504001
 20
58.407608604445002
 30
0.0
 40
4.0
  1
Ｈ＝１５、２０
  0
DIMENSION
  5
465
  8
0
  6
CONTINUOUS
 62
     2
  2
*D31
 10
139.50958008839001
 20
88.979628869003989
 30
0.0
 11
139.50958008839001
 21
101.579628869
 31
0.0
  1
\A1;ストローク:15～25(2.5刻みで止まる)
 13
163.28489629556
 23
114.179628869
 33
0.0
 14
167.28489629556
 24
88.979628869003989
 34
0.0
 50
270.0
  0
DIMENSION
  5
466
  8
0
  6
CONTINUOUS
 62
     2
  2
*D32
 10
179.38489629556
 20
13.202409023029
 30
0.0
 11
181.63823722153001
 21
13.202409023029
 31
0.0
 70
   128
 13
167.18489629556001
 23
37.703043218505996
 33
0.0
 14
179.38489629556
 24
37.703043218505996
 34
0.0
  0
INSERT
  5
467
  8
0
  6
CONTINUOUS
  2
*U85
 10
0.0
 20
0.0
 30
0.0
  0
INSERT
  5
468
  8
0
  6
CONTINUOUS
  2
*U86
 10
0.0
 20
0.0
 30
0.0
  0
TEXT
  5
469
  8
0
 62
     2
 10
146.04802097840999
 20
208.66893426920001
 30
0.0
 40
4.0
  1
下げると
  0
TEXT
  5
46A
  8
0
 62
     2
 10
146.04802097840999
 20
203.33560093586999
 30
0.0
 40
4.0
  1
ロット棒
  0
TEXT
  5
46B
  8
0
 62
     2
 10
146.04802097840999
 20
198.00226760253
 30
0.0
 40
4.0
  1
が出る
  0
TEXT
  5
46C
  8
0
 62
     2
 10
20.194379755366
 20
102.11455578859
 30
0.0
 40
4.0
  1
・フランス落とし本体
  0
TEXT
  5
46D
  8
0
 62
     2
 10
20.194379755366
 20
96.781222455255985
 30
0.0
 40
4.0
  1
参考掘込図（扉側）
  0
TEXT
  5
46E
  8
0
 62
     2
 10
21.528908526060999
 20
26.19406059328
 30
0.0
 40
4.0
  1
・平受け
  0
TEXT
  5
46F
  8
0
 62
     2
 10
21.528908526060999
 20
20.860727259947001
 30
0.0
 40
4.0
  1
・坪受け
  0
TEXT
  5
470
  8
0
 62
     2
 10
21.528908526060999
 20
15.527393926614
 30
0.0
 40
4.0
  1
参考掘込図（床側）
  0
ENDSEC
  0
EOF
