999
Outputted By AR_CAD Ver.3.0.0
  0
SECTION
  2
HEADER
  9
$ACADVER
  1
AC1009
  9
$DWGCODEPAGE
  3
DOS932
  9
$EXTMIN
 10
0
 20
0
  9
$EXTMAX
 10
297
 20
210
  9
$INSBASE
 10
0.0
 20
0.0
 30
0.0
  9
$HANDLING
 70
     1
  9
$LTSCALE
 40
1
  9
$DIMALT
 70
0
  9
$DIMALTD
 70
3
  9
$DIMALTF
 40
0.0393700787401575
  9
$DIMASZ
 40
0
  9
$DIMCEN
 40
2.5
  9
$DIMCLRD
 70
0
  9
$DIMCLRE
 70
0
  9
$DIMCLRT
 70
0
  9
$DIMDLE
 40
0
  9
$DIMDLI
 40
0
  9
$DIMEXE
 40
0.25
  9
$DIMEXO
 40
0.25
  9
$DIMGAP
 40
0.25
  9
$DIMJUST
 70
0
  9
$DIMLFAC
 40
1
  9
$DIMLIM
 70
0
  9
$DIMLWD
 70
13
  9
$DIMLWE
 70
13
  9
$DIMPOST
  1

  9
$DIMSE1
 70
0
  9
$DIMSE2
 70
0
  9
$DIMSTYLE
  2
Standard
  9
$DIMTAD
 70
1
  9
$DIMTFAC
 40
1
  9
$DIMTIH
 70
0
  9
$DIMTM
 40
0
  9
$DIMTOL
 70
0
  9
$DIMTOH
 70
0
  9
$DIMTP
 40
0
  9
$DIMTXT
 40
5
  9
$DIMTZIN
 70
8
  9
$DIMZIN
 70
8
  0
ENDSEC
  0
SECTION
  2
TABLES
  0
TABLE
  2
LTYPE
 70
     13
  0
LTYPE
  2
continuous
 70
    64
 3

 72
    65
 73
    0
 40
    0
  0
LTYPE
  2
BYPEN
 70
    64
 3

 72
    65
 73
    0
 40
    0
  0
LTYPE
  2
BYLAYER
 70
    64
 3

 72
    65
 73
    0
 40
    0
  0
LTYPE
  2
BYBLOCK
 70
    64
 3

 72
    65
 73
    0
 40
    0
  0
LTYPE
  2
dashed
 70
    64
 3

 72
    65
 73
    2
 40
    3.5
 49
    2.91666666666667
 49
    -0.583333333333333
  0
LTYPE
  2
dot
 70
    64
 3

 72
    65
 73
    2
 40
    0.5
 49
    0.25
 49
    -0.25
  0
LTYPE
  2
dashdot
 70
    64
 3

 72
    65
 73
    4
 40
    3.5
 49
    1.84210526315789
 49
    -0.552631578947368
 49
    0.552631578947368
 49
    -0.552631578947368
  0
LTYPE
  2
divide
 70
    64
 3

 72
    65
 73
    6
 40
    3.5
 49
    1.4
 49
    -0.42
 49
    0.42
 49
    -0.42
 49
    0.42
 49
    -0.42
  0
LTYPE
  2
HIDDEN
 70
    64
 3

 72
    65
 73
    2
 40
    1.905
 49
    1.27
 49
    -0.635
  0
LTYPE
  2
PHANTOM
 70
    64
 3

 72
    65
 73
    6
 40
    12.7
 49
    6.35
 49
    -1.27
 49
    1.27
 49
    -1.27
 49
    1.27
 49
    -1.27
  0
LTYPE
  2
CENTER
 70
    64
 3

 72
    65
 73
    4
 40
    10.16
 49
    6.35
 49
    -1.27
 49
    1.27
 49
    -1.27
  0
LTYPE
  2
CENTERX2
 70
    64
 3

 72
    65
 73
    4
 40
    20.32
 49
    12.7
 49
    -2.54
 49
    2.54
 49
    -2.54
  0
LTYPE
  2
DOT2
 70
    64
 3

 72
    65
 73
    2
 40
    0.635
 49
    0
 49
    -0.635
  0
ENDTAB
  0
TABLE
  2
LAYER
70
256
  0
LAYER
  2
0
 70
    0
 62
7
  6
continuous
  0
LAYER
  2
FORMAT
 70
    0
 62
7
  6
continuous
  0
LAYER
  2
画層2
 70
    0
 62
9
  6
continuous
  0
LAYER
  2
画層3
 70
    0
 62
250
  6
continuous
  0
LAYER
  2
画層4
 70
    0
 62
6
  6
continuous
  0
LAYER
  2
画層5
 70
    0
 62
1
  6
continuous
  0
LAYER
  2
画層6
 70
    0
 62
7
  6
continuous
  0
LAYER
  2
画層7
 70
    0
 62
51
  6
continuous
  0
LAYER
  2
画層8
 70
    0
 62
61
  6
continuous
  0
LAYER
  2
画層9
 70
    0
 62
111
  6
continuous
  0
LAYER
  2
画層10
 70
    0
 62
91
  6
continuous
  0
LAYER
  2
画層11
 70
    0
 62
131
  6
continuous
  0
LAYER
  2
画層12
 70
    0
 62
161
  6
continuous
  0
LAYER
  2
画層13
 70
    0
 62
5
  6
continuous
  0
LAYER
  2
画層14
 70
    0
 62
7
  6
continuous
  0
LAYER
  2
画層15
 70
    0
 62
11
  6
continuous
  0
LAYER
  2
画層16
 70
    0
 62
250
  6
continuous
  0
LAYER
  2
画層17
 70
    0
 62
70
  6
continuous
  0
LAYER
  2
画層18
 70
    0
 62
250
  6
continuous
  0
LAYER
  2
画層19
 70
    0
 62
135
  6
continuous
  0
LAYER
  2
画層20
 70
    0
 62
4
  6
continuous
  0
LAYER
  2
画層21
 70
    0
 62
131
  6
continuous
  0
LAYER
  2
画層22
 70
    0
 62
250
  6
continuous
  0
LAYER
  2
画層23
 70
    0
 62
4
  6
continuous
  0
LAYER
  2
画層24
 70
    0
 62
250
  6
continuous
  0
LAYER
  2
画層25
 70
    0
 62
4
  6
continuous
  0
LAYER
  2
画層26
 70
    0
 62
250
  6
continuous
  0
LAYER
  2
画層27
 70
    0
 62
250
  6
continuous
  0
LAYER
  2
画層28
 70
    0
 62
250
  6
continuous
  0
LAYER
  2
画層29
 70
    0
 62
250
  6
continuous
  0
LAYER
  2
画層30
 70
    0
 62
250
  6
continuous
  0
LAYER
  2
画層31
 70
    0
 62
250
  6
continuous
  0
LAYER
  2
画層32
 70
    0
 62
250
  6
continuous
  0
LAYER
  2
画層33
 70
    0
 62
250
  6
continuous
  0
LAYER
  2
画層34
 70
    0
 62
250
  6
continuous
  0
LAYER
  2
画層35
 70
    0
 62
250
  6
continuous
  0
LAYER
  2
画層36
 70
    0
 62
250
  6
continuous
  0
LAYER
  2
画層37
 70
    0
 62
250
  6
continuous
  0
LAYER
  2
画層38
 70
    0
 62
250
  6
continuous
  0
LAYER
  2
画層39
 70
    0
 62
250
  6
continuous
  0
LAYER
  2
画層40
 70
    0
 62
250
  6
continuous
  0
LAYER
  2
画層41
 70
    0
 62
250
  6
continuous
  0
LAYER
  2
画層42
 70
    0
 62
250
  6
continuous
  0
LAYER
  2
画層43
 70
    0
 62
250
  6
continuous
  0
LAYER
  2
画層44
 70
    0
 62
250
  6
continuous
  0
LAYER
  2
画層45
 70
    0
 62
250
  6
continuous
  0
LAYER
  2
画層46
 70
    0
 62
250
  6
continuous
  0
LAYER
  2
画層47
 70
    0
 62
250
  6
continuous
  0
LAYER
  2
画層48
 70
    0
 62
250
  6
continuous
  0
LAYER
  2
画層49
 70
    0
 62
250
  6
continuous
  0
LAYER
  2
画層50
 70
    0
 62
250
  6
continuous
  0
LAYER
  2
画層51
 70
    0
 62
250
  6
continuous
  0
LAYER
  2
画層52
 70
    0
 62
250
  6
continuous
  0
LAYER
  2
画層53
 70
    0
 62
250
  6
continuous
  0
LAYER
  2
画層54
 70
    0
 62
250
  6
continuous
  0
LAYER
  2
画層55
 70
    0
 62
250
  6
continuous
  0
LAYER
  2
画層56
 70
    0
 62
250
  6
continuous
  0
LAYER
  2
画層57
 70
    0
 62
250
  6
continuous
  0
LAYER
  2
画層58
 70
    0
 62
250
  6
continuous
  0
LAYER
  2
画層59
 70
    0
 62
250
  6
continuous
  0
LAYER
  2
画層60
 70
    0
 62
250
  6
continuous
  0
LAYER
  2
画層61
 70
    0
 62
250
  6
continuous
  0
LAYER
  2
画層62
 70
    0
 62
250
  6
continuous
  0
LAYER
  2
画層63
 70
    0
 62
250
  6
continuous
  0
LAYER
  2
画層64
 70
    0
 62
250
  6
continuous
  0
LAYER
  2
画層65
 70
    0
 62
250
  6
continuous
  0
LAYER
  2
画層66
 70
    0
 62
250
  6
continuous
  0
LAYER
  2
画層67
 70
    0
 62
250
  6
continuous
  0
LAYER
  2
画層68
 70
    0
 62
250
  6
continuous
  0
LAYER
  2
画層69
 70
    0
 62
250
  6
continuous
  0
LAYER
  2
画層70
 70
    0
 62
250
  6
continuous
  0
LAYER
  2
画層71
 70
    0
 62
250
  6
continuous
  0
LAYER
  2
画層72
 70
    0
 62
250
  6
continuous
  0
LAYER
  2
画層73
 70
    0
 62
250
  6
continuous
  0
LAYER
  2
画層74
 70
    0
 62
250
  6
continuous
  0
LAYER
  2
画層75
 70
    0
 62
250
  6
continuous
  0
LAYER
  2
画層76
 70
    0
 62
250
  6
continuous
  0
LAYER
  2
画層77
 70
    0
 62
250
  6
continuous
  0
LAYER
  2
画層78
 70
    0
 62
250
  6
continuous
  0
LAYER
  2
画層79
 70
    0
 62
250
  6
continuous
  0
LAYER
  2
画層80
 70
    0
 62
250
  6
continuous
  0
LAYER
  2
画層81
 70
    0
 62
250
  6
continuous
  0
LAYER
  2
画層82
 70
    0
 62
250
  6
continuous
  0
LAYER
  2
画層83
 70
    0
 62
250
  6
continuous
  0
LAYER
  2
画層84
 70
    0
 62
250
  6
continuous
  0
LAYER
  2
画層85
 70
    0
 62
250
  6
continuous
  0
LAYER
  2
画層86
 70
    0
 62
250
  6
continuous
  0
LAYER
  2
画層87
 70
    0
 62
250
  6
continuous
  0
LAYER
  2
画層88
 70
    0
 62
250
  6
continuous
  0
LAYER
  2
画層89
 70
    0
 62
250
  6
continuous
  0
LAYER
  2
画層90
 70
    0
 62
250
  6
continuous
  0
LAYER
  2
画層91
 70
    0
 62
250
  6
continuous
  0
LAYER
  2
画層92
 70
    0
 62
250
  6
continuous
  0
LAYER
  2
画層93
 70
    0
 62
250
  6
continuous
  0
LAYER
  2
画層94
 70
    0
 62
250
  6
continuous
  0
LAYER
  2
画層95
 70
    0
 62
250
  6
continuous
  0
LAYER
  2
画層96
 70
    0
 62
250
  6
continuous
  0
LAYER
  2
画層97
 70
    0
 62
250
  6
continuous
  0
LAYER
  2
画層98
 70
    0
 62
250
  6
continuous
  0
LAYER
  2
画層99
 70
    0
 62
250
  6
continuous
  0
LAYER
  2
画層100
 70
    0
 62
250
  6
continuous
  0
LAYER
  2
画層101
 70
    0
 62
250
  6
continuous
  0
LAYER
  2
画層102
 70
    0
 62
250
  6
continuous
  0
LAYER
  2
画層103
 70
    0
 62
250
  6
continuous
  0
LAYER
  2
画層104
 70
    0
 62
250
  6
continuous
  0
LAYER
  2
画層105
 70
    0
 62
250
  6
continuous
  0
LAYER
  2
画層106
 70
    0
 62
250
  6
continuous
  0
LAYER
  2
画層107
 70
    0
 62
250
  6
continuous
  0
LAYER
  2
画層108
 70
    0
 62
250
  6
continuous
  0
LAYER
  2
画層109
 70
    0
 62
250
  6
continuous
  0
LAYER
  2
画層110
 70
    0
 62
250
  6
continuous
  0
LAYER
  2
画層111
 70
    0
 62
250
  6
continuous
  0
LAYER
  2
画層112
 70
    0
 62
250
  6
continuous
  0
LAYER
  2
画層113
 70
    0
 62
250
  6
continuous
  0
LAYER
  2
画層114
 70
    0
 62
250
  6
continuous
  0
LAYER
  2
画層115
 70
    0
 62
250
  6
continuous
  0
LAYER
  2
画層116
 70
    0
 62
250
  6
continuous
  0
LAYER
  2
画層117
 70
    0
 62
250
  6
continuous
  0
LAYER
  2
画層118
 70
    0
 62
250
  6
continuous
  0
LAYER
  2
画層119
 70
    0
 62
250
  6
continuous
  0
LAYER
  2
画層120
 70
    0
 62
250
  6
continuous
  0
LAYER
  2
画層121
 70
    0
 62
250
  6
continuous
  0
LAYER
  2
画層122
 70
    0
 62
250
  6
continuous
  0
LAYER
  2
画層123
 70
    0
 62
250
  6
continuous
  0
LAYER
  2
画層124
 70
    0
 62
250
  6
continuous
  0
LAYER
  2
画層125
 70
    0
 62
250
  6
continuous
  0
LAYER
  2
画層126
 70
    0
 62
250
  6
continuous
  0
LAYER
  2
画層127
 70
    0
 62
250
  6
continuous
  0
LAYER
  2
画層128
 70
    0
 62
250
  6
continuous
  0
LAYER
  2
画層129
 70
    0
 62
250
  6
continuous
  0
LAYER
  2
画層130
 70
    0
 62
250
  6
continuous
  0
LAYER
  2
画層131
 70
    0
 62
250
  6
continuous
  0
LAYER
  2
画層132
 70
    0
 62
250
  6
continuous
  0
LAYER
  2
画層133
 70
    0
 62
250
  6
continuous
  0
LAYER
  2
画層134
 70
    0
 62
250
  6
continuous
  0
LAYER
  2
画層135
 70
    0
 62
250
  6
continuous
  0
LAYER
  2
画層136
 70
    0
 62
250
  6
continuous
  0
LAYER
  2
画層137
 70
    0
 62
250
  6
continuous
  0
LAYER
  2
画層138
 70
    0
 62
250
  6
continuous
  0
LAYER
  2
画層139
 70
    0
 62
250
  6
continuous
  0
LAYER
  2
画層140
 70
    0
 62
250
  6
continuous
  0
LAYER
  2
画層141
 70
    0
 62
250
  6
continuous
  0
LAYER
  2
画層142
 70
    0
 62
250
  6
continuous
  0
LAYER
  2
画層143
 70
    0
 62
250
  6
continuous
  0
LAYER
  2
画層144
 70
    0
 62
250
  6
continuous
  0
LAYER
  2
画層145
 70
    0
 62
250
  6
continuous
  0
LAYER
  2
画層146
 70
    0
 62
250
  6
continuous
  0
LAYER
  2
画層147
 70
    0
 62
250
  6
continuous
  0
LAYER
  2
画層148
 70
    0
 62
250
  6
continuous
  0
LAYER
  2
画層149
 70
    0
 62
250
  6
continuous
  0
LAYER
  2
画層150
 70
    0
 62
250
  6
continuous
  0
LAYER
  2
画層151
 70
    0
 62
250
  6
continuous
  0
LAYER
  2
画層152
 70
    0
 62
250
  6
continuous
  0
LAYER
  2
画層153
 70
    0
 62
250
  6
continuous
  0
LAYER
  2
画層154
 70
    0
 62
250
  6
continuous
  0
LAYER
  2
画層155
 70
    0
 62
250
  6
continuous
  0
LAYER
  2
画層156
 70
    0
 62
250
  6
continuous
  0
LAYER
  2
画層157
 70
    0
 62
250
  6
continuous
  0
LAYER
  2
画層158
 70
    0
 62
250
  6
continuous
  0
LAYER
  2
画層159
 70
    0
 62
250
  6
continuous
  0
LAYER
  2
画層160
 70
    0
 62
250
  6
continuous
  0
LAYER
  2
画層161
 70
    0
 62
250
  6
continuous
  0
LAYER
  2
画層162
 70
    0
 62
250
  6
continuous
  0
LAYER
  2
画層163
 70
    0
 62
250
  6
continuous
  0
LAYER
  2
画層164
 70
    0
 62
250
  6
continuous
  0
LAYER
  2
画層165
 70
    0
 62
250
  6
continuous
  0
LAYER
  2
画層166
 70
    0
 62
250
  6
continuous
  0
LAYER
  2
画層167
 70
    0
 62
250
  6
continuous
  0
LAYER
  2
画層168
 70
    0
 62
250
  6
continuous
  0
LAYER
  2
画層169
 70
    0
 62
250
  6
continuous
  0
LAYER
  2
画層170
 70
    0
 62
250
  6
continuous
  0
LAYER
  2
画層171
 70
    0
 62
250
  6
continuous
  0
LAYER
  2
画層172
 70
    0
 62
250
  6
continuous
  0
LAYER
  2
画層173
 70
    0
 62
250
  6
continuous
  0
LAYER
  2
画層174
 70
    0
 62
250
  6
continuous
  0
LAYER
  2
画層175
 70
    0
 62
250
  6
continuous
  0
LAYER
  2
画層176
 70
    0
 62
250
  6
continuous
  0
LAYER
  2
画層177
 70
    0
 62
250
  6
continuous
  0
LAYER
  2
画層178
 70
    0
 62
250
  6
continuous
  0
LAYER
  2
画層179
 70
    0
 62
250
  6
continuous
  0
LAYER
  2
画層180
 70
    0
 62
250
  6
continuous
  0
LAYER
  2
画層181
 70
    0
 62
250
  6
continuous
  0
LAYER
  2
画層182
 70
    0
 62
250
  6
continuous
  0
LAYER
  2
画層183
 70
    0
 62
250
  6
continuous
  0
LAYER
  2
画層184
 70
    0
 62
250
  6
continuous
  0
LAYER
  2
画層185
 70
    0
 62
250
  6
continuous
  0
LAYER
  2
画層186
 70
    0
 62
250
  6
continuous
  0
LAYER
  2
画層187
 70
    0
 62
250
  6
continuous
  0
LAYER
  2
画層188
 70
    0
 62
250
  6
continuous
  0
LAYER
  2
画層189
 70
    0
 62
250
  6
continuous
  0
LAYER
  2
画層190
 70
    0
 62
250
  6
continuous
  0
LAYER
  2
画層191
 70
    0
 62
250
  6
continuous
  0
LAYER
  2
画層192
 70
    0
 62
250
  6
continuous
  0
LAYER
  2
画層193
 70
    0
 62
250
  6
continuous
  0
LAYER
  2
画層194
 70
    0
 62
250
  6
continuous
  0
LAYER
  2
画層195
 70
    0
 62
250
  6
continuous
  0
LAYER
  2
画層196
 70
    0
 62
250
  6
continuous
  0
LAYER
  2
画層197
 70
    0
 62
250
  6
continuous
  0
LAYER
  2
画層198
 70
    0
 62
250
  6
continuous
  0
LAYER
  2
画層199
 70
    0
 62
250
  6
continuous
  0
LAYER
  2
画層200
 70
    0
 62
250
  6
continuous
  0
LAYER
  2
画層201
 70
    0
 62
250
  6
continuous
  0
LAYER
  2
画層202
 70
    0
 62
250
  6
continuous
  0
LAYER
  2
画層203
 70
    0
 62
250
  6
continuous
  0
LAYER
  2
画層204
 70
    0
 62
250
  6
continuous
  0
LAYER
  2
画層205
 70
    0
 62
250
  6
continuous
  0
LAYER
  2
画層206
 70
    0
 62
250
  6
continuous
  0
LAYER
  2
画層207
 70
    0
 62
250
  6
continuous
  0
LAYER
  2
画層208
 70
    0
 62
250
  6
continuous
  0
LAYER
  2
画層209
 70
    0
 62
250
  6
continuous
  0
LAYER
  2
画層210
 70
    0
 62
250
  6
continuous
  0
LAYER
  2
画層211
 70
    0
 62
250
  6
continuous
  0
LAYER
  2
画層212
 70
    0
 62
250
  6
continuous
  0
LAYER
  2
画層213
 70
    0
 62
250
  6
continuous
  0
LAYER
  2
画層214
 70
    0
 62
250
  6
continuous
  0
LAYER
  2
画層215
 70
    0
 62
250
  6
continuous
  0
LAYER
  2
画層216
 70
    0
 62
250
  6
continuous
  0
LAYER
  2
画層217
 70
    0
 62
250
  6
continuous
  0
LAYER
  2
画層218
 70
    0
 62
250
  6
continuous
  0
LAYER
  2
画層219
 70
    0
 62
250
  6
continuous
  0
LAYER
  2
画層220
 70
    0
 62
250
  6
continuous
  0
LAYER
  2
画層221
 70
    0
 62
250
  6
continuous
  0
LAYER
  2
画層222
 70
    0
 62
250
  6
continuous
  0
LAYER
  2
画層223
 70
    0
 62
250
  6
continuous
  0
LAYER
  2
画層224
 70
    0
 62
250
  6
continuous
  0
LAYER
  2
画層225
 70
    0
 62
250
  6
continuous
  0
LAYER
  2
画層226
 70
    0
 62
250
  6
continuous
  0
LAYER
  2
画層227
 70
    0
 62
250
  6
continuous
  0
LAYER
  2
画層228
 70
    0
 62
250
  6
continuous
  0
LAYER
  2
画層229
 70
    0
 62
250
  6
continuous
  0
LAYER
  2
画層230
 70
    0
 62
250
  6
continuous
  0
LAYER
  2
画層231
 70
    0
 62
250
  6
continuous
  0
LAYER
  2
画層232
 70
    0
 62
250
  6
continuous
  0
LAYER
  2
画層233
 70
    0
 62
250
  6
continuous
  0
LAYER
  2
画層234
 70
    0
 62
250
  6
continuous
  0
LAYER
  2
画層235
 70
    0
 62
250
  6
continuous
  0
LAYER
  2
画層236
 70
    0
 62
250
  6
continuous
  0
LAYER
  2
画層237
 70
    0
 62
250
  6
continuous
  0
LAYER
  2
画層238
 70
    0
 62
250
  6
continuous
  0
LAYER
  2
画層239
 70
    0
 62
250
  6
continuous
  0
LAYER
  2
画層240
 70
    0
 62
250
  6
continuous
  0
LAYER
  2
画層241
 70
    0
 62
250
  6
continuous
  0
LAYER
  2
画層242
 70
    0
 62
250
  6
continuous
  0
LAYER
  2
画層243
 70
    0
 62
250
  6
continuous
  0
LAYER
  2
画層244
 70
    0
 62
250
  6
continuous
  0
LAYER
  2
画層245
 70
    0
 62
250
  6
continuous
  0
LAYER
  2
画層246
 70
    0
 62
250
  6
continuous
  0
LAYER
  2
画層247
 70
    0
 62
250
  6
continuous
  0
LAYER
  2
画層248
 70
    0
 62
250
  6
continuous
  0
LAYER
  2
画層249
 70
    0
 62
250
  6
continuous
  0
LAYER
  2
画層250
 70
    0
 62
250
  6
continuous
  0
LAYER
  2
画層251
 70
    0
 62
250
  6
continuous
  0
LAYER
  2
画層252
 70
    0
 62
250
  6
continuous
  0
LAYER
  2
画層253
 70
    0
 62
250
  6
continuous
  0
LAYER
  2
画層254
 70
    0
 62
250
  6
continuous
  0
LAYER
  2
画層255
 70
    0
 62
250
  6
continuous
  0
ENDTAB
  0
TABLE
  2
STYLE
 70
     2
  0
STYLE
  2
Standard
 70
     0
 40
0.0
 41
1.0
 50
0.0
 71
     0
 42
3.2
  3
TXT
  4
BIGFONT
  0
STYLE
  5
30
  2
Font_0
 70
     0
 40
0.0
 41
1.0
 50
0.0
 71
     0
 42
3.2
  3
txt
  4
BIGFONT
  0
ENDTAB
  0
ENDSEC
  0
SECTION
  2
BLOCKS
  0
BLOCK
  8
0
  2
*D1
 70
1
 10
0.0
 20
0.0
 30
0.0
  3
*D1
  1

  0
TEXT
  8
0
 62
0
  6
continuous
 62
0
 10
230.5748886705
 20
222.5882556338
 40
3.5
  1
11
  7
Font_0
 50
90
 72
1
 11
228.8248886705
 21
224.3382556338
 73
2
  0
LINE
  8
0
  6
BYBLOCK
 62
0
 10
273.2372129655
 20
229.8382556338
 11
231.4498886705
 21
229.8382556338
  0
LINE
  8
0
  6
BYBLOCK
 62
0
 10
273.2372129655
 20
218.8382556338
 11
231.4498886705
 21
218.8382556338
  0
LINE
  8
0
  6
BYBLOCK
 62
0
 10
231.4498886705
 20
229.8382556338
 11
231.4498886705
 21
218.8382556338
  0
LINE
  8
0
  6
BYBLOCK
 62
0
 10
231.4498886705
 20
229.8382556338
 11
231.967526760705
 21
227.906403981222
  0
LINE
  8
0
  6
BYBLOCK
 62
0
 10
231.4498886705
 20
229.8382556338
 11
230.932250580295
 21
227.906403981222
  0
LINE
  8
0
  6
BYBLOCK
 62
0
 10
231.4498886705
 20
218.8382556338
 11
230.932250580295
 21
220.770107286378
  0
LINE
  8
0
  6
BYBLOCK
 62
0
 10
231.4498886705
 20
218.8382556338
 11
231.967526760705
 21
220.770107286378
  0
ENDBLK
  0
BLOCK
  8
0
  2
*D2
 70
1
 10
0.0
 20
0.0
 30
0.0
  3
*D2
  1

  0
TEXT
  8
0
 62
0
  6
continuous
 62
0
 10
186.9247129655
 20
85.6784288768
 40
3.5
  1
P
  7
Font_0
 72
1
 11
187.7997129655
 21
87.4284288768
 73
2
  0
LINE
  8
0
  6
BYBLOCK
 62
0
 10
287.7997129655
 20
91.858501172
 11
287.7997129655
 21
85.6784288768
  0
LINE
  8
0
  6
BYBLOCK
 62
0
 10
87.7997129655
 20
91.858501172
 11
87.7997129655
 21
85.6784288768
  0
LINE
  8
0
  6
BYBLOCK
 62
0
 10
287.7997129655
 20
85.6784288768
 11
87.7997129655
 21
85.6784288768
  0
LINE
  8
0
  6
BYBLOCK
 62
0
 10
287.7997129655
 20
85.6784288768
 11
285.867861312922
 21
85.160790786595
  0
LINE
  8
0
  6
BYBLOCK
 62
0
 10
287.7997129655
 20
85.6784288768
 11
285.867861312922
 21
86.196066967005
  0
LINE
  8
0
  6
BYBLOCK
 62
0
 10
87.7997129655
 20
85.6784288768
 11
89.7315646180781
 21
86.196066967005
  0
LINE
  8
0
  6
BYBLOCK
 62
0
 10
87.7997129655
 20
85.6784288768
 11
89.7315646180781
 21
85.160790786595
  0
ENDBLK
  0
BLOCK
  8
0
  2
*D3
 70
1
 10
0.0
 20
0.0
 30
0.0
  3
*D3
  1

  0
TEXT
  8
0
 62
0
  6
continuous
 62
0
 10
76.1747129655
 20
86.5534288768
 40
3.5
  1
5.5
  7
Font_0
 72
1
 11
78.7997129655
 21
88.3034288768
 73
2
  0
LINE
  8
0
  6
BYBLOCK
 62
0
 10
87.7997129655
 20
91.858501172
 11
87.7997129655
 21
85.6784288768
  0
LINE
  8
0
  6
BYBLOCK
 62
0
 10
82.2997129655
 20
91.858501172
 11
82.2997129655
 21
85.6784288768
  0
LINE
  8
0
  6
BYBLOCK
 62
0
 10
87.7997129655
 20
85.6784288768
 11
82.2997129655
 21
85.6784288768
  0
LINE
  8
0
  6
BYBLOCK
 62
0
 10
87.7997129655
 20
85.6784288768
 11
85.8678613129219
 21
85.160790786595
  0
LINE
  8
0
  6
BYBLOCK
 62
0
 10
87.7997129655
 20
85.6784288768
 11
85.8678613129219
 21
86.196066967005
  0
LINE
  8
0
  6
BYBLOCK
 62
0
 10
82.2997129655
 20
85.6784288768
 11
84.2315646180781
 21
86.196066967005
  0
LINE
  8
0
  6
BYBLOCK
 62
0
 10
82.2997129655
 20
85.6784288768
 11
84.2315646180781
 21
85.160790786595
  0
LINE
  8
0
  6
BYBLOCK
 62
0
 10
82.2997129655
 20
85.6784288768
 11
81.4247129655
 21
85.6784288768
  0
ENDBLK
  0
BLOCK
  8
0
  2
*D4
 70
1
 10
0.0
 20
0.0
 30
0.0
  3
*D4
  1

  0
TEXT
  8
0
 62
0
  6
continuous
 62
0
 10
186.9247129655
 20
79.6593697238
 40
3.5
  1
L
  7
Font_0
 72
1
 11
187.7997129655
 21
81.4093697238
 73
2
  0
LINE
  8
0
  6
BYBLOCK
 62
0
 10
82.2997129655
 20
91.858501172
 11
82.2997129655
 21
79.6593697238
  0
LINE
  8
0
  6
BYBLOCK
 62
0
 10
293.2997129655
 20
91.858501172
 11
293.2997129655
 21
79.6593697238
  0
LINE
  8
0
  6
BYBLOCK
 62
0
 10
82.2997129655
 20
79.6593697238
 11
293.2997129655
 21
79.6593697238
  0
LINE
  8
0
  6
BYBLOCK
 62
0
 10
82.2997129655
 20
79.6593697238
 11
84.2315646180782
 21
80.177007814005
  0
LINE
  8
0
  6
BYBLOCK
 62
0
 10
82.2997129655
 20
79.6593697238
 11
84.2315646180782
 21
79.141731633595
  0
LINE
  8
0
  6
BYBLOCK
 62
0
 10
293.2997129655
 20
79.6593697238
 11
291.367861312922
 21
79.141731633595
  0
LINE
  8
0
  6
BYBLOCK
 62
0
 10
293.2997129655
 20
79.6593697238
 11
291.367861312922
 21
80.177007814005
  0
ENDBLK
  0
BLOCK
  8
0
  2
*D5
 70
1
 10
0.0
 20
0.0
 30
0.0
  3
*D5
  1

  0
TEXT
  8
0
 62
0
  6
continuous
 62
0
 10
71.4247129655
 20
107.671001172
 40
3.5
  1
35
  7
Font_0
 50
90
 72
1
 11
69.6747129655
 21
109.421001172
 73
2
  0
LINE
  8
0
  6
BYBLOCK
 62
0
 10
82.2372129655
 20
91.921001172
 11
72.2997129655
 21
91.921001172
  0
LINE
  8
0
  6
BYBLOCK
 62
0
 10
102.2372129655
 20
126.921001172
 11
72.2997129655
 21
126.921001172
  0
LINE
  8
0
  6
BYBLOCK
 62
0
 10
72.2997129655
 20
91.921001172
 11
72.2997129655
 21
126.921001172
  0
LINE
  8
0
  6
BYBLOCK
 62
0
 10
72.2997129655
 20
91.921001172
 11
71.782074875295
 21
93.8528528245781
  0
LINE
  8
0
  6
BYBLOCK
 62
0
 10
72.2997129655
 20
91.921001172
 11
72.817351055705
 21
93.8528528245781
  0
LINE
  8
0
  6
BYBLOCK
 62
0
 10
72.2997129655
 20
126.921001172
 11
72.817351055705
 21
124.989149519422
  0
LINE
  8
0
  6
BYBLOCK
 62
0
 10
72.2997129655
 20
126.921001172
 11
71.782074875295
 21
124.989149519422
  0
ENDBLK
  0
BLOCK
  8
0
  2
ﾌﾞﾛｯｸ1
 70
0
 10
0
 20
0
 30
0.0
  3
ﾌﾞﾛｯｸ1
  1

  0
LINE
  8
0
  6
continuous
 62
7
 10
2.772
 20
11.077
 11
1.6346415094
 21
3.542
  0
LINE
  8
0
  6
continuous
 62
7
 10
4.9786415094
 20
3.542
 11
5.7525896187
 21
3.542
  0
LINE
  8
0
  6
continuous
 62
8
 10
4.925509434
 20
3.19
 11
4.444
 21
0
  0
LINE
  8
0
  6
continuous
 62
8
 10
6.116
 20
11.077
 11
5.3459120814
 21
5.9751675392
  0
LINE
  8
0
  6
continuous
 62
7
 10
8.5648795812
 20
11.077
 11
5.3459120814
 21
5.9751675392
  0
LINE
  8
0
  6
continuous
 62
7
 10
5.7525896187
 20
3.542
 11
5.3057441066
 21
5.709054706
  0
LINE
  8
0
  6
continuous
 62
7
 10
6.4829481093
 20
0
 11
5.825171829
 21
3.19
  0
LINE
  8
0
  6
continuous
 62
7
 10
32.12
 20
3.542
 11
9.3126415094
 21
3.542
  0
LINE
  8
0
  6
continuous
 62
7
 10
6.116
 20
11.077
 11
2.772
 21
11.077
  0
LINE
  8
0
  6
continuous
 62
7
 10
5.3057441066
 20
5.709054706
 11
4.9786415094
 21
3.542
  0
LINE
  8
0
  6
continuous
 62
8
 10
32.12
 20
3.542
 11
32.12
 21
3.19
  0
LINE
  8
0
  6
continuous
 62
7
 10
9.4103665768
 20
3.19
 11
32.12
 21
3.19
  0
LINE
  8
0
  6
continuous
 62
8
 10
9.4103665768
 20
3.19
 11
10.296
 21
0
  0
LINE
  8
0
  6
continuous
 62
8
 10
11.968
 20
11.077
 11
8.6713207547
 21
5.852
  0
LINE
  8
0
  6
continuous
 62
8
 10
5.825171829
 20
3.19
 11
4.925509434
 21
3.19
  0
LINE
  8
0
  6
continuous
 62
7
 10
1.581509434
 20
3.19
 11
1.1
 21
0
  0
LINE
  8
0
  6
continuous
 62
8
 10
4.444
 20
0
 11
1.1
 21
0
  0
LINE
  8
0
  6
continuous
 62
8
 10
8.5648795812
 20
11.077
 11
11.968
 21
11.077
  0
LINE
  8
0
  6
continuous
 62
8
 10
8.6713207547
 20
5.852
 11
9.3126415094
 21
3.542
  0
LINE
  8
0
  6
continuous
 62
8
 10
1.581509434
 20
3.19
 11
0
 21
3.19
  0
LINE
  8
0
  6
continuous
 62
8
 10
10.296
 20
0
 11
6.4829481093
 21
0
  0
LINE
  8
0
  6
continuous
 62
7
 10
1.6346415094
 20
3.542
 11
0
 21
3.542
  0
LINE
  8
0
  6
continuous
 62
7
 10
0
 20
3.542
 11
0
 21
3.19
  0
ENDBLK
  0
BLOCK
  8
0
  2
SW_NOTE_0
 70
0
 10
0
 20
0
 30
0.0
  3
SW_NOTE_0
  1

  0
CIRCLE
  8
0
  6
continuous
 62
0
 10
2.0277787096
 20
0.0481302512
 40
4.94521117342464
  0
TEXT
  8
0
 62
0
  6
BYLAYER
 62
0
 10
-2.14306111918916E-16
 20
1.0117370892
 40
3.5
  1
桜
  7
Font_0
 11
0
 21
4.5117370892
 73
3
  0
TEXT
  8
0
 62
0
  6
BYLAYER
 62
0
 10
-2.14306111918916E-16
 20
-3.4882627171
 40
3.5
  1
井
  7
Font_0
 11
0
 21
0.0117372829
 73
3
  0
ENDBLK
  0
BLOCK
  8
0
  2
SW_NOTE_0_1
 70
0
 10
0
 20
0
 30
0.0
  3
SW_NOTE_0_1
  1

  0
CIRCLE
  8
0
  6
continuous
 62
0
 10
1.9867988503
 20
0.0481302512
 40
4.94521117342464
  0
TEXT
  8
0
 62
0
  6
BYLAYER
 62
0
 10
-2.14306111918916E-16
 20
1.0117370892
 40
3.5
  1
工
  7
Font_0
 11
0
 21
4.5117370892
 73
3
  0
TEXT
  8
0
 62
0
  6
BYLAYER
 62
0
 10
-2.14306111918916E-16
 20
-3.4882627171
 40
3.5
  1
藤
  7
Font_0
 11
0
 21
0.0117372829
 73
3
  0
ENDBLK
  0
BLOCK
  8
0
  2
SW_NOTE_0_2
 70
0
 10
0
 20
0
 30
0.0
  3
SW_NOTE_0_2
  1

  0
CIRCLE
  8
0
  6
continuous
 62
0
 10
1.9664092651
 20
0.0481302512
 40
4.94521117342464
  0
TEXT
  8
0
 62
0
  6
BYLAYER
 62
0
 10
-2.14306111918916E-16
 20
1.0117370892
 40
3.5
  1
田
  7
Font_0
 11
0
 21
4.5117370892
 73
3
  0
TEXT
  8
0
 62
0
  6
BYLAYER
 62
0
 10
-2.14306111918916E-16
 20
-3.4882627171
 40
3.5
  1
口
  7
Font_0
 11
0
 21
0.0117372829
 73
3
  0
ENDBLK
  0
BLOCK
  8
0
  2
SW_TABLEANNOTATION_0
 70
0
 10
0
 20
0
 30
0.0
  3
SW_TABLEANNOTATION_0
  1

  0
LINE
  8
0
  6
continuous
 62
0
 10
0
 20
0
 11
0
 21
-5.073610995
  0
LINE
  8
0
  6
continuous
 62
0
 10
20.4280563718
 20
0
 11
20.4280563718
 21
-5.073610995
  0
LINE
  8
0
  6
continuous
 62
0
 10
0
 20
-5.073610995
 11
0
 21
-10.1472219899
  0
LINE
  8
0
  6
continuous
 62
0
 10
20.4280563718
 20
-5.073610995
 11
20.4280563718
 21
-10.1472219899
  0
LINE
  8
0
  6
continuous
 62
0
 10
0
 20
-10.1472219899
 11
0
 21
-15.2208329849
  0
LINE
  8
0
  6
continuous
 62
0
 10
20.4280563718
 20
-10.1472219899
 11
20.4280563718
 21
-15.2208329849
  0
LINE
  8
0
  6
continuous
 62
0
 10
0
 20
-15.2208329849
 11
0
 21
-20.2944439799
  0
LINE
  8
0
  6
continuous
 62
0
 10
20.4280563718
 20
-15.2208329849
 11
20.4280563718
 21
-20.2944439799
  0
LINE
  8
0
  6
continuous
 62
0
 10
0
 20
-20.2944439799
 11
0
 21
-25.3680549748
  0
LINE
  8
0
  6
continuous
 62
0
 10
20.4280563718
 20
-20.2944439799
 11
20.4280563718
 21
-25.3680549748
  0
LINE
  8
0
  6
continuous
 62
0
 10
40.8561127436
 20
0
 11
40.8561127436
 21
-5.073610995
  0
LINE
  8
0
  6
continuous
 62
0
 10
40.8561127436
 20
-5.073610995
 11
40.8561127436
 21
-10.1472219899
  0
LINE
  8
0
  6
continuous
 62
0
 10
40.8561127436
 20
-10.1472219899
 11
40.8561127436
 21
-15.2208329849
  0
LINE
  8
0
  6
continuous
 62
0
 10
40.8561127436
 20
-15.2208329849
 11
40.8561127436
 21
-20.2944439799
  0
LINE
  8
0
  6
continuous
 62
0
 10
40.8561127436
 20
-20.2944439799
 11
40.8561127436
 21
-25.3680549748
  0
LINE
  8
0
  6
continuous
 62
0
 10
61.2841691154
 20
0
 11
61.2841691154
 21
-5.073610995
  0
LINE
  8
0
  6
continuous
 62
0
 10
61.2841691154
 20
-5.073610995
 11
61.2841691154
 21
-10.1472219899
  0
LINE
  8
0
  6
continuous
 62
0
 10
61.2841691154
 20
-10.1472219899
 11
61.2841691154
 21
-15.2208329849
  0
LINE
  8
0
  6
continuous
 62
0
 10
61.2841691154
 20
-15.2208329849
 11
61.2841691154
 21
-20.2944439799
  0
LINE
  8
0
  6
continuous
 62
0
 10
61.2841691154
 20
-20.2944439799
 11
61.2841691154
 21
-25.3680549748
  0
LINE
  8
0
  6
continuous
 62
0
 10
0
 20
0
 11
20.4280563718
 21
0
  0
LINE
  8
0
  6
continuous
 62
0
 10
0
 20
-5.073610995
 11
20.4280563718
 21
-5.073610995
  0
LINE
  8
0
  6
continuous
 62
0
 10
20.4280563718
 20
0
 11
40.8561127436
 21
0
  0
LINE
  8
0
  6
continuous
 62
0
 10
20.4280563718
 20
-5.073610995
 11
40.8561127436
 21
-5.073610995
  0
LINE
  8
0
  6
continuous
 62
0
 10
40.8561127436
 20
0
 11
61.2841691154
 21
0
  0
LINE
  8
0
  6
continuous
 62
0
 10
40.8561127436
 20
-5.073610995
 11
61.2841691154
 21
-5.073610995
  0
LINE
  8
0
  6
continuous
 62
0
 10
0
 20
-10.1472219899
 11
20.4280563718
 21
-10.1472219899
  0
LINE
  8
0
  6
continuous
 62
0
 10
20.4280563718
 20
-10.1472219899
 11
40.8561127436
 21
-10.1472219899
  0
LINE
  8
0
  6
continuous
 62
0
 10
40.8561127436
 20
-10.1472219899
 11
61.2841691154
 21
-10.1472219899
  0
LINE
  8
0
  6
continuous
 62
0
 10
0
 20
-15.2208329849
 11
20.4280563718
 21
-15.2208329849
  0
LINE
  8
0
  6
continuous
 62
0
 10
20.4280563718
 20
-15.2208329849
 11
40.8561127436
 21
-15.2208329849
  0
LINE
  8
0
  6
continuous
 62
0
 10
40.8561127436
 20
-15.2208329849
 11
61.2841691154
 21
-15.2208329849
  0
LINE
  8
0
  6
continuous
 62
0
 10
0
 20
-20.2944439799
 11
20.4280563718
 21
-20.2944439799
  0
LINE
  8
0
  6
continuous
 62
0
 10
20.4280563718
 20
-20.2944439799
 11
40.8561127436
 21
-20.2944439799
  0
LINE
  8
0
  6
continuous
 62
0
 10
40.8561127436
 20
-20.2944439799
 11
61.2841691154
 21
-20.2944439799
  0
LINE
  8
0
  6
continuous
 62
0
 10
0
 20
-25.3680549748
 11
20.4280563718
 21
-25.3680549748
  0
LINE
  8
0
  6
continuous
 62
0
 10
20.4280563718
 20
-25.3680549748
 11
40.8561127436
 21
-25.3680549748
  0
LINE
  8
0
  6
continuous
 62
0
 10
40.8561127436
 20
-25.3680549748
 11
61.2841691154
 21
-25.3680549748
  0
TEXT
  8
0
 62
0
  6
BYLAYER
 62
0
 10
6.1404171909
 20
-3.8258741386
 40
3.5
  1
品番
  7
Font_0
 11
6.1404171909
 21
-0.3258741386
 73
3
  0
TEXT
  8
0
 62
0
  6
BYLAYER
 62
0
 10
28.6052790602
 20
-3.8258741386
 40
3.5
  1
Ｐ
  7
Font_0
 11
28.6052790602
 21
-0.3258741386
 73
3
  0
TEXT
  8
0
 62
0
  6
BYLAYER
 62
0
 10
49.033335432
 20
-3.8258741386
 40
3.5
  1
Ｌ
  7
Font_0
 11
49.033335432
 21
-0.3258741386
 73
3
  0
TEXT
  8
0
 62
0
  6
BYLAYER
 62
0
 10
3.085209294
 20
-8.8994851336
 40
3.5
  1
224-001
  7
Font_0
 11
3.085209294
 21
-5.3994851336
 73
3
  0
TEXT
  8
0
 62
0
  6
BYLAYER
 62
0
 10
27.5868761951
 20
-8.8994851336
 40
3.5
  1
200
  7
Font_0
 11
27.5868761951
 21
-5.3994851336
 73
3
  0
TEXT
  8
0
 62
0
  6
BYLAYER
 62
0
 10
48.0149325669
 20
-8.8994851336
 40
3.5
  1
211
  7
Font_0
 11
48.0149325669
 21
-5.3994851336
 73
3
  0
TEXT
  8
0
 62
0
  6
BYLAYER
 62
0
 10
3.085209294
 20
-13.9730961285
 40
3.5
  1
224-002
  7
Font_0
 11
3.085209294
 21
-10.4730961285
 73
3
  0
TEXT
  8
0
 62
0
  6
BYLAYER
 62
0
 10
27.5868761951
 20
-13.9730961285
 40
3.5
  1
220
  7
Font_0
 11
27.5868761951
 21
-10.4730961285
 73
3
  0
TEXT
  8
0
 62
0
  6
BYLAYER
 62
0
 10
48.0149325669
 20
-13.9730961285
 40
3.5
  1
231
  7
Font_0
 11
48.0149325669
 21
-10.4730961285
 73
3
  0
TEXT
  8
0
 62
0
  6
BYLAYER
 62
0
 10
3.085209294
 20
-19.0467071235
 40
3.5
  1
224-007
  7
Font_0
 11
3.085209294
 21
-15.5467071235
 73
3
  0
TEXT
  8
0
 62
0
  6
BYLAYER
 62
0
 10
27.5868761951
 20
-19.0467071235
 40
3.5
  1
230
  7
Font_0
 11
27.5868761951
 21
-15.5467071235
 73
3
  0
TEXT
  8
0
 62
0
  6
BYLAYER
 62
0
 10
48.0149325669
 20
-19.0467071235
 40
3.5
  1
241
  7
Font_0
 11
48.0149325669
 21
-15.5467071235
 73
3
  0
TEXT
  8
0
 62
0
  6
BYLAYER
 62
0
 10
3.085209294
 20
-24.1203181185
 40
3.5
  1
224-004
  7
Font_0
 11
3.085209294
 21
-20.6203181185
 73
3
  0
TEXT
  8
0
 62
0
  6
BYLAYER
 62
0
 10
27.5868761951
 20
-24.1203181185
 40
3.5
  1
450
  7
Font_0
 11
27.5868761951
 21
-20.6203181185
 73
3
  0
TEXT
  8
0
 62
0
  6
BYLAYER
 62
0
 10
48.0149325669
 20
-24.1203181185
 40
3.5
  1
461
  7
Font_0
 11
48.0149325669
 21
-20.6203181185
 73
3
  0
ENDBLK
  0
BLOCK
  8
0
  2
_OPEN30
 70
0
 10
0
 20
0
 30
0.0
  3
_OPEN30
  1

  0
LINE
  8
0
  6
BYBLOCK
 62
0
 10
-1
 20
0.267949
 11
0
 21
0
  0
LINE
  8
0
  6
BYBLOCK
 62
0
 10
0
 20
0
 11
-1
 21
-0.267949
  0
LINE
  8
0
  6
BYBLOCK
 62
0
 10
0
 20
0
 11
-1
 21
0
  0
ENDBLK
  0
BLOCK
  8
0
  2
_D
 70
0
 10
0
 20
0
 30
0.0
  3
_D
  1

  0
INSERT
  8
0
  6
continuous
 62
7
  2
_OPEN30
 10
231.4498886705
 20
229.8382556338
 30
0.0
 41
2
 42
2
 50
90
  0
INSERT
  8
0
  6
continuous
 62
7
  2
_OPEN30
 10
231.4498886705
 20
218.8382556338
 30
0.0
 41
2
 42
2
 50
270
  0
LINE
  8
0
  6
continuous
 62
7
 10
231.4498886705
 20
229.8382556338
 11
231.4498886705
 21
218.8382556338
  0
LINE
  8
0
  6
continuous
 62
7
 10
231.4498886705
 20
218.8382556338
 11
231.4498886705
 21
199.0236584213
  0
TEXT
  8
0
 62
7
  6
BYLAYER
 62
7
 10
230.4381518142
 20
200.6111584213
 40
3.5
  1
Φ
  7
Font_0
 50
90.0000000000004
 11
226.9381518142
 21
200.6111584213
 73
3
  0
TEXT
  8
0
 62
7
  6
BYLAYER
 62
7
 10
230.4381518142
 20
204.4785015851
 40
3.5
  1
11
  7
Font_0
 50
90.0000000000004
 11
226.9381518142
 21
204.4785015851
 73
3
  0
ENDBLK
  0
BLOCK
  8
0
  2
_D_1
 70
0
 10
0
 20
0
 30
0.0
  3
_D_1
  1

  0
INSERT
  8
0
  6
continuous
 62
7
  2
_OPEN30
 10
287.7997129655
 20
85.6784288768
 30
0.0
 41
2
 42
2
  0
INSERT
  8
0
  6
continuous
 62
7
  2
_OPEN30
 10
87.7997129655
 20
85.6784288768
 30
0.0
 41
2
 42
2
 50
180
  0
LINE
  8
0
  6
continuous
 62
7
 10
287.7997129655
 20
90.921001172
 11
287.7997129655
 21
84.6784288768
  0
LINE
  8
0
  6
continuous
 62
7
 10
87.7997129655
 20
90.921001172
 11
87.7997129655
 21
84.6784288768
  0
LINE
  8
0
  6
continuous
 62
7
 10
287.7997129655
 20
85.6784288768
 11
87.7997129655
 21
85.6784288768
  0
TEXT
  8
0
 62
7
  6
BYLAYER
 62
7
 10
187.4098443335
 20
86.6901657332
 40
3.5
  1
P
  7
Font_0
 11
187.4098443335
 21
90.1901657332
 73
3
  0
ENDBLK
  0
BLOCK
  8
0
  2
_D_2
 70
0
 10
0
 20
0
 30
0.0
  3
_D_2
  1

  0
INSERT
  8
0
  6
continuous
 62
7
  2
_OPEN30
 10
87.7997129655
 20
85.6784288768
 30
0.0
 41
2
 42
2
  0
INSERT
  8
0
  6
continuous
 62
7
  2
_OPEN30
 10
82.2997129655
 20
85.6784288768
 30
0.0
 41
2
 42
2
 50
180
  0
LINE
  8
0
  6
continuous
 62
7
 10
87.7997129655
 20
90.921001172
 11
87.7997129655
 21
84.6784288768
  0
LINE
  8
0
  6
continuous
 62
7
 10
82.2997129655
 20
90.921001172
 11
82.2997129655
 21
84.6784288768
  0
LINE
  8
0
  6
continuous
 62
7
 10
87.7997129655
 20
85.6784288768
 11
82.2997129655
 21
85.6784288768
  0
LINE
  8
0
  6
continuous
 62
7
 10
82.2997129655
 20
85.6784288768
 11
68.2622336955
 21
85.6784288768
  0
TEXT
  8
0
 62
7
  6
BYLAYER
 62
7
 10
69.8497336955
 20
86.6901657332
 40
3.5
  1
5.5
  7
Font_0
 11
69.8497336955
 21
90.1901657332
 73
3
  0
ENDBLK
  0
BLOCK
  8
0
  2
_D_3
 70
0
 10
0
 20
0
 30
0.0
  3
_D_3
  1

  0
INSERT
  8
0
  6
continuous
 62
7
  2
_OPEN30
 10
82.2997129655
 20
79.6593697238
 30
0.0
 41
2
 42
2
 50
180
  0
INSERT
  8
0
  6
continuous
 62
7
  2
_OPEN30
 10
293.2997129655
 20
79.6593697238
 30
0.0
 41
2
 42
2
  0
LINE
  8
0
  6
continuous
 62
7
 10
82.2997129655
 20
90.921001172
 11
82.2997129655
 21
78.6593697238
  0
LINE
  8
0
  6
continuous
 62
7
 10
293.2997129655
 20
90.921001172
 11
293.2997129655
 21
78.6593697238
  0
LINE
  8
0
  6
continuous
 62
7
 10
82.2997129655
 20
79.6593697238
 11
293.2997129655
 21
79.6593697238
  0
TEXT
  8
0
 62
7
  6
BYLAYER
 62
7
 10
187.3891463681
 20
80.6711065802
 40
3.5
  1
Ｌ
  7
Font_0
 11
187.3891463681
 21
84.1711065802
 73
3
  0
ENDBLK
  0
BLOCK
  8
0
  2
_D_4
 70
0
 10
0
 20
0
 30
0.0
  3
_D_4
  1

  0
INSERT
  8
0
  6
continuous
 62
7
  2
_OPEN30
 10
72.2997129655
 20
91.921001172
 30
0.0
 41
2
 42
2
 50
270
  0
INSERT
  8
0
  6
continuous
 62
7
  2
_OPEN30
 10
72.2997129655
 20
126.921001172
 30
0.0
 41
2
 42
2
 50
90
  0
LINE
  8
0
  6
continuous
 62
7
 10
81.2997129655
 20
91.921001172
 11
71.2997129655
 21
91.921001172
  0
LINE
  8
0
  6
continuous
 62
7
 10
101.2997129655
 20
126.921001172
 11
71.2997129655
 21
126.921001172
  0
LINE
  8
0
  6
continuous
 62
7
 10
72.2997129655
 20
91.921001172
 11
72.2997129655
 21
126.921001172
  0
TEXT
  8
0
 62
7
  6
BYLAYER
 62
7
 10
71.2879761091
 20
108.0507796084
 40
3.5
  1
35
  7
Font_0
 50
90
 11
67.7879761091
 21
108.0507796084
 73
3
  0
ENDBLK
  0
BLOCK
  8
0
  2
SW_CENTERMARKSYMBOL_0
 70
0
 10
0
 20
0
 30
0.0
  3
SW_CENTERMARKSYMBOL_0
  1

  0
LINE
  8
0
  6
continuous
 62
0
 10
0
 20
0
 11
0
 21
2.5
  0
LINE
  8
0
  6
continuous
 62
0
 10
0
 20
0
 11
-2.5
 21
0
  0
LINE
  8
0
  6
continuous
 62
0
 10
0
 20
0
 11
0
 21
-2.5
  0
LINE
  8
0
  6
continuous
 62
0
 10
0
 20
0
 11
2.5
 21
0
  0
LINE
  8
0
  6
continuous
 62
0
 10
0
 20
5
 11
0
 21
8
  0
LINE
  8
0
  6
continuous
 62
0
 10
-5
 20
0
 11
-8
 21
0
  0
LINE
  8
0
  6
continuous
 62
0
 10
0
 20
-5
 11
0
 21
-8
  0
LINE
  8
0
  6
continuous
 62
0
 10
5
 20
0
 11
8
 21
0
  0
ENDBLK
  0
BLOCK
  8
0
  2
SW_CENTERMARKSYMBOL_1
 70
0
 10
0
 20
0
 30
0.0
  3
SW_CENTERMARKSYMBOL_1
  1

  0
LINE
  8
0
  6
continuous
 62
0
 10
0
 20
0
 11
0
 21
2.5
  0
LINE
  8
0
  6
continuous
 62
0
 10
0
 20
0
 11
-2.5
 21
0
  0
LINE
  8
0
  6
continuous
 62
0
 10
0
 20
0
 11
0
 21
-2.5
  0
LINE
  8
0
  6
continuous
 62
0
 10
0
 20
0
 11
2.5
 21
0
  0
LINE
  8
0
  6
continuous
 62
0
 10
0
 20
5
 11
0
 21
8
  0
LINE
  8
0
  6
continuous
 62
0
 10
-5
 20
0
 11
-8
 21
0
  0
LINE
  8
0
  6
continuous
 62
0
 10
0
 20
-5
 11
0
 21
-8
  0
LINE
  8
0
  6
continuous
 62
0
 10
5
 20
0
 11
8
 21
0
  0
ENDBLK
  0
ENDSEC
  0
SECTION
  2
ENTITIES
  0
LINE
  8
0
  6
continuous
 62
7
 10
16.7686998909
 20
13.1878491525
 11
16.7686998909
 21
280.0643664884
  0
LINE
  8
0
  6
continuous
 62
7
 10
16.7686998909
 20
280.0643664884
 11
404.7686998909
 21
280.0643664884
  0
LINE
  8
0
  6
continuous
 62
7
 10
404.7686998909
 20
280.0643664884
 11
404.7686998909
 21
13.1878491525
  0
LINE
  8
0
  6
continuous
 62
7
 10
404.7686998909
 20
13.1878491525
 11
16.7686998909
 21
13.1878491525
  0
LINE
  8
0
  6
continuous
 62
7
 10
394.7686998899
 20
23.1878491536
 11
404.7686998899
 21
23.1878491536
  0
LINE
  8
0
  6
continuous
 62
7
 10
394.7686998899
 20
18.1878491536
 11
404.7686998899
 21
18.1878491536
  0
LINE
  8
0
  6
continuous
 62
7
 10
399.7686998899
 20
23.1878491536
 11
399.7686998899
 21
13.1878491536
  0
LINE
  8
0
  6
continuous
 62
7
 10
298.4656550306
 20
28.1878491536
 11
298.4656550306
 21
13.1878491536
  0
LINE
  8
0
  6
continuous
 62
7
 10
282.1806830632
 20
28.1878491536
 11
282.1806830632
 21
13.1878491536
  0
LINE
  8
0
  6
continuous
 62
7
 10
290.1788429417
 20
19.5562677963
 11
290.1788429417
 21
16.5656693961
  0
LINE
  8
0
  6
continuous
 62
7
 10
290.1788429417
 20
16.5656693961
 11
296.20718394
 21
15.7682714314
  0
LINE
  8
0
  6
continuous
 62
7
 10
296.20718394
 20
15.7682714314
 11
296.20718394
 21
20.353665761
  0
LINE
  8
0
  6
continuous
 62
7
 10
296.20718394
 20
20.353665761
 11
290.1788429417
 21
19.5562677963
  0
LINE
  8
0
  6
CENTERX2
 62
7
 10
286.6274689308
 20
20.8411862874
 11
286.6274689308
 21
15.3034531287
  0
LINE
  8
0
  6
CENTERX2
 62
7
 10
283.8358486156
 20
18.0609685962
 11
296.8804123373
 21
18.0609685962
  0
LINE
  8
0
  6
continuous
 62
7
 10
230.1806830632
 20
43.1878491536
 11
404.7686998899
 21
43.1878491536
  0
LINE
  8
0
  6
continuous
 62
7
 10
282.1806830632
 20
28.1878491536
 11
282.1806830632
 21
43.1878491536
  0
LINE
  8
0
  6
continuous
 62
7
 10
394.7686998899
 20
43.1878491536
 11
394.7686998899
 21
13.1878491536
  0
LINE
  8
0
  6
continuous
 62
7
 10
402.01707722
 20
37.6576541151
 11
396.816059748
 21
30.642948499
  0
LINE
  8
0
  6
continuous
 62
7
 10
282.1806830632
 20
28.1878491536
 11
404.7686998899
 21
28.1878491536
  0
LINE
  8
0
  6
continuous
 62
7
 10
264.8473497299
 20
35.1878491536
 11
264.8473497299
 21
13.1878491536
  0
LINE
  8
0
  6
continuous
 62
7
 10
282.1806830632
 20
35.1878491536
 11
230.1806830632
 21
35.1878491536
  0
LINE
  8
0
  6
continuous
 62
7
 10
247.5140163966
 20
35.1878491536
 11
247.5140163966
 21
13.1878491536
  0
LINE
  8
0
  6
continuous
 62
7
 10
327.4728361875
 20
18.7562728888
 11
325.7128361875
 21
18.7562728888
  0
LINE
  8
0
  6
continuous
 62
7
 10
330.9417842968
 20
18.7562728888
 11
332.9728361875
 21
18.7562728888
  0
LINE
  8
0
  6
continuous
 62
7
 10
329.8928361875
 20
18.7562728888
 11
328.1328361875
 21
18.7562728888
  0
LINE
  8
0
  6
continuous
 62
7
 10
335.0628361875
 20
18.7562728888
 11
333.3028361875
 21
18.7562728888
  0
LINE
  8
0
  6
continuous
 62
7
 10
335.9428361875
 20
24.5862728888
 11
334.1828361875
 21
24.5862728888
  0
LINE
  8
0
  6
continuous
 62
7
 10
335.9428361875
 20
24.5862728888
 11
335.0628361875
 21
18.7562728888
  0
LINE
  8
0
  6
continuous
 62
7
 10
334.1828361875
 20
24.5862728888
 11
333.3028361875
 21
18.7562728888
  0
LINE
  8
0
  6
continuous
 62
7
 10
330.7728361875
 20
24.5862728888
 11
329.0128361875
 21
24.5862728888
  0
LINE
  8
0
  6
continuous
 62
7
 10
330.7728361875
 20
24.5862728888
 11
329.8928361875
 21
18.7562728888
  0
LINE
  8
0
  6
continuous
 62
7
 10
329.0128361875
 20
24.5862728888
 11
328.1328361875
 21
18.7562728888
  0
LINE
  8
0
  6
continuous
 62
7
 10
328.3528361875
 20
24.5862728888
 11
326.5928361875
 21
24.5862728888
  0
LINE
  8
0
  6
continuous
 62
7
 10
328.3528361875
 20
24.5862728888
 11
327.4728361875
 21
18.7562728888
  0
LINE
  8
0
  6
continuous
 62
7
 10
326.5928361875
 20
24.5862728888
 11
325.7128361875
 21
18.7562728888
  0
LINE
  8
0
  6
continuous
 62
7
 10
333.8528361875
 20
24.5862728888
 11
332.0928361875
 21
24.5862728888
  0
LINE
  8
0
  6
continuous
 62
7
 10
332.0928361875
 20
24.5862728888
 11
330.3577418478
 21
21.8362728888
  0
LINE
  8
0
  6
continuous
 62
7
 10
330.9928361875
 20
18.7562728888
 11
330.3577418478
 21
21.8362728888
  0
LINE
  8
0
  6
continuous
 62
7
 10
333.8528361875
 20
24.5862728888
 11
332.1177418478
 21
21.8362728888
  0
LINE
  8
0
  6
continuous
 62
7
 10
332.1177418478
 20
21.8362728888
 11
332.9728361875
 21
18.7562728888
  0
LINE
  8
0
  6
continuous
 62
7
 10
321.6428361875
 20
24.5862728888
 11
320.7628361875
 21
18.7562728888
  0
LINE
  8
0
  6
continuous
 62
7
 10
323.4028361875
 20
18.7562728888
 11
323.0399251363
 21
20.5162728888
  0
LINE
  8
0
  6
continuous
 62
7
 10
324.7415154328
 20
21.0662728887
 11
325.3828361875
 21
18.7562728887
  0
LINE
  8
0
  6
continuous
 62
7
 10
323.1544732432
 20
22.9408683829
 11
322.5228361875
 21
18.7562728888
  0
LINE
  8
0
  6
continuous
 62
7
 10
323.0399251363
 20
20.5162728888
 11
323.2944122894
 21
22.1667499328
  0
LINE
  8
0
  6
continuous
 62
7
 10
320.9828361875
 20
24.5862728888
 11
319.2228361875
 21
24.5862728888
  0
LINE
  8
0
  6
continuous
 62
7
 10
318.6728361875
 20
24.5862728888
 11
316.9128361875
 21
24.5862728888
  0
LINE
  8
0
  6
continuous
 62
7
 10
319.2228361875
 20
24.5862728888
 11
318.6458362242
 21
20.7636481319
  0
LINE
  8
0
  6
continuous
 62
7
 10
318.6728361875
 20
24.5862728888
 11
318.0952193832
 21
20.7595615608
  0
LINE
  8
0
  6
continuous
 62
7
 10
316.9128361875
 20
24.5862728888
 11
316.3361597599
 21
20.7657915561
  0
LINE
  8
0
  6
continuous
 62
7
 10
320.9828361875
 20
24.5862728888
 11
320.4162941782
 21
20.8329320774
  0
LINE
  8
0
  6
continuous
 62
7
 10
324.0201920413
 20
24.5862728888
 11
321.6428361875
 21
24.5862728888
  0
LINE
  8
0
  6
continuous
 62
7
 10
323.1537795837
 20
22.9362728888
 11
323.5917477021
 21
22.9362728888
  0
LINE
  8
0
  6
continuous
 62
7
 10
323.5360958051
 20
22.1667499328
 11
323.2944122894
 21
22.1667499328
  0
LINE
  8
0
  6
continuous
 62
7
 10
322.5228361875
 20
18.7562728888
 11
320.7628361875
 21
18.7562728888
  0
LINE
  8
0
  6
continuous
 62
7
 10
323.4028361875
 20
18.7562728887
 11
325.3828361875
 21
18.7562728887
  0
LINE
  8
0
  6
continuous
 62
7
 10
344.7686998899
 20
13.1878491536
 11
344.7686998899
 21
28.1878491536
  0
LINE
  8
0
  6
continuous
 62
7
 10
344.7686998899
 20
43.1878491536
 11
344.7686998899
 21
28.1878491536
  0
LINE
  8
0
  6
continuous
 62
7
 10
344.7686998899
 20
35.6878491536
 11
394.5952465156
 21
35.6878491536
  0
LINE
  8
0
  6
continuous
 62
7
 10
247.5140163966
 20
35.1878491536
 11
247.5140163966
 21
13.1878491536
  0
LINE
  8
0
  6
continuous
 62
7
 10
230.1806830632
 20
43.1878491536
 11
230.1806830632
 21
13.1878491536
  0
CIRCLE
  8
0
  6
continuous
 62
7
 10
286.6274689308
 20
18.0609685962
 40
1.49529920006074
  0
CIRCLE
  8
0
  6
continuous
 62
7
 10
286.6274689308
 20
18.0609685962
 40
2.29269716484646
  0
ARC
  8
0
  6
continuous
 62
7
 10
324.0201920413
 20
22.8460214212
 40
1.74025146752121
 50
-8.58362148060001
 51
90
  0
ARC
  8
0
  6
continuous
 62
7
 10
318.0942699128
 20
20.5233239974
 40
1.7747512013321
 50
172.1476587103
 51
264.660826735
  0
ARC
  8
0
  6
continuous
 62
7
 10
317.9820073212
 20
21.2206805315
 40
2.46497492190607
 50
-91.2292441118
 51
-9.05039907050001
  0
ARC
  8
0
  6
continuous
 62
7
 10
318.3072835648
 20
20.7303189355
 40
0.214070895339142
 50
170.6840535146
 51
269.1270007014
  0
ARC
  8
0
  6
continuous
 62
7
 10
318.3407711561
 20
20.8253351475
 40
0.311239431346595
 50
-96.7809452835
 51
-11.4315994976
  0
ARC
  8
0
  6
continuous
 62
7
 10
323.7531934159
 20
22.8046923857
 40
1.99972066955622
 50
-60.3810092075
 51
-6.27031618559998
  0
ARC
  8
0
  6
continuous
 62
7
 10
323.5917477021
 20
22.5537413497
 40
0.382531539037984
 50
0
 51
90.0000000001
  0
ARC
  8
0
  6
continuous
 62
7
 10
323.511912894
 20
22.6357011378
 40
0.469574324096195
 50
-87.0479817975
 51
-10.0519254547
  0
INSERT
  8
0
  6
continuous
 62
7
  2
ﾌﾞﾛｯｸ1
 10
305.0207118487
 20
15.2142728888
 30
0.0
  0
TEXT
  8
0
 62
7
  6
BYLAYER
 62
7
 10
318.5780683324
 20
17.1086216909
 40
1.0583333333
  1
Kuriki Manufacture Co.,Ltd
  7
Font_0
 11
318.5780683324
 21
18.1669550242
 73
3
  0
TEXT
  8
0
 62
7
  6
BYLAYER
 62
7
 10
397.312530380425
 20
25.1015448351
 40
1.8520833333
  1
ＲＥＶ.
  7
Font_0
 72
1
 11
400.5536762137
 21
26.9536281684
 73
3
  0
TEXT
  8
0
 62
7
  6
BYLAYER
 62
7
 10
285.2144751471
 20
25.8623824297
 40
1.0583333333
  1
ＰＲＯＪＥＣＴＩＯＮ
  7
Font_0
 72
1
 11
290.5061418136
 21
26.920715763
 73
3
  0
TEXT
  8
0
 62
7
  6
BYLAYER
 62
7
 10
284.2222876469
 20
40.863814548
 40
2.1166666667
  1
ＴＩＴＬＥ
  7
Font_0
 11
284.2222876469
 21
42.9804812147
 73
3
  0
TEXT
  8
0
 62
7
  6
BYLAYER
 62
7
 10
395.91382163005
 20
41.0022534809
 40
1.3229166667
  1
ＳＣＡＬＥ
  7
Font_0
 72
1
 11
399.2211132968
 21
42.3251701476
 73
3
  0
TEXT
  8
0
 62
7
  6
BYLAYER
 62
7
 10
269.8417221117
 20
32.9225842049
 40
2.5
  1
ＤＷＮ．
  7
Font_0
 72
1
 11
274.8417221117
 21
35.4225842049
 73
3
  0
TEXT
  8
0
 62
7
  6
BYLAYER
 62
7
 10
251.0008258699
 20
32.9225842049
 40
2.5
  1
ＣＨＫＤ．
  7
Font_0
 72
1
 11
257.2508258699
 21
35.4225842049
 73
3
  0
TEXT
  8
0
 62
7
  6
BYLAYER
 62
7
 10
233.9374212566
 20
32.9225842049
 40
2.5
  1
ＡＰＰＤ．
  7
Font_0
 72
1
 11
240.1874212566
 21
35.4225842049
 73
3
  0
TEXT
  8
0
 62
7
  6
BYLAYER
 62
7
 10
233.4727819769
 20
41.0338298319
 40
2.5
  1
ＤＡＴＥ　
  7
Font_0
 72
1
 11
239.7227819769
 21
43.5338298319
 73
3
  0
TEXT
  8
0
 62
7
  6
BYLAYER
 62
7
 10
347.8339158009
 20
25.9163736819
 40
1.5875
  1
ＫＵＲＩＫＩ　ＷＯＲＫＳ　ＤＷＧ．ＮＯ．
  7
Font_0
 11
347.8339158009
 21
27.5038736819
 73
3
  0
TEXT
  8
0
 62
7
  6
BYLAYER
 62
7
 10
347.6282577632
 20
41.6587456454
 40
1.5
  1
ＰＴ.ＮＯ
  7
Font_0
 11
347.6282577632
 21
43.1587456454
 73
3
  0
TEXT
  8
0
 62
7
  6
BYLAYER
 62
7
 10
347.7354382081
 20
34.1706683941
 40
1.5
  1
ＰＴ.ＮＡＭＥ
  7
Font_0
 11
347.7354382081
 21
35.6706683941
 73
3
  0
TEXT
  8
0
 62
7
  6
BYLAYER
 62
7
 10
396.3427780171
 20
35.6162716249
 40
2.1166666667
  1
１
  7
Font_0
 11
396.3427780171
 21
37.7329382916
 73
3
  0
TEXT
  8
0
 62
7
  6
BYLAYER
 62
7
 10
255.771292199
 20
37.399770243
 40
3.5
  1
／
  7
Font_0
 11
255.771292199
 21
40.899770243
 73
3
  0
TEXT
  8
0
 62
7
  6
BYLAYER
 62
7
 10
268.4851487382
 20
37.399770243
 40
3.5
  1
／
  7
Font_0
 11
268.4851487382
 21
40.899770243
 73
3
  0
TEXT
  8
0
 62
7
  6
BYLAYER
 62
7
 10
348.0103027086
 20
19.0505465548
 40
3.7041666667
  1
Ｋ３-００１２２３
  7
Font_0
 11
348.0103027086
 21
22.7547132215
 73
3
  0
TEXT
  8
0
 62
7
  6
BYLAYER
 62
7
 10
302.9456744025
 20
32.9875758185
 40
3.7041666667
  1
取手
  7
Font_0
 11
302.9456744025
 21
36.6917424852
 73
3
  0
TEXT
  8
0
 62
7
  6
BYLAYER
 62
7
 10
360.0770941641
 20
37.8378731198
 40
3.5
  1
224-001～007
  7
Font_0
 11
360.0770941641
 21
41.3378731198
 73
3
  0
TEXT
  8
0
 62
7
  6
BYLAYER
 62
7
 10
399.6152321099
 20
31.7409330913
 40
2.1166666667
  1
１
  7
Font_0
 11
399.6152321099
 21
33.857599758
 73
3
  0
TEXT
  8
0
 62
7
  6
BYLAYER
 62
7
 10
368.6649974538
 20
30.8137901461
 40
2.6458333333
  1
取手
  7
Font_0
 11
368.6649974538
 21
33.4596234794
 73
3
  0
TEXT
  8
0
 62
7
  6
BYLAYER
 62
7
 10
239.5060452822
 20
37.399770243
 40
3.5
  1
２０１２
  7
Font_0
 11
239.5060452822
 21
40.899770243
 73
3
  0
TEXT
  8
0
 62
7
  6
BYLAYER
 62
7
 10
260.0852136775
 20
37.399770243
 40
3.5
  1
１０
  7
Font_0
 11
260.0852136775
 21
40.899770243
 73
3
  0
TEXT
  8
0
 62
7
  6
BYLAYER
 62
7
 10
273.3782629802
 20
37.399770243
 40
3.5
  1
３１
  7
Font_0
 11
273.3782629802
 21
40.899770243
 73
3
  0
INSERT
  8
0
  6
continuous
 62
7
  2
SW_NOTE_0
 10
271.6759249941
 20
23.5938450574
 30
0.0
  0
TEXT
  8
0
 62
7
  6
BYLAYER
 62
7
 10
268.1803287301
 20
14.7437559171
 40
2.1166666667
  1
23.10.20
  7
Font_0
 11
268.1803287301
 21
16.8604225838
 73
3
  0
TEXT
  8
0
 62
7
  6
BYLAYER
 62
7
 10
250.5651530151
 20
14.7437559171
 40
2.1166666667
  1
23.10.20
  7
Font_0
 11
250.5651530151
 21
16.8604225838
 73
3
  0
INSERT
  8
0
  6
continuous
 62
7
  2
SW_NOTE_0_1
 10
254.1860406559
 20
23.5938450574
 30
0.0
  0
TEXT
  8
0
 62
7
  6
BYLAYER
 62
7
 10
233.9150887674
 20
14.7437559171
 40
2.1166666667
  1
23.10.20
  7
Font_0
 11
233.9150887674
 21
16.8604225838
 73
3
  0
INSERT
  8
0
  6
continuous
 62
7
  2
SW_NOTE_0_2
 10
237.169393204
 20
23.5938450574
 30
0.0
  0
INSERT
  8
0
  6
continuous
 62
7
  2
SW_TABLEANNOTATION_0
 10
343.4845307754
 20
72.3494416855
 30
0.0
  0
LINE
  8
0
  6
continuous
 62
7
 10
102.2997129655
 20
248.1726227162
 11
273.2997129655
 21
248.1726227162
  0
LINE
  8
0
  6
continuous
 62
7
 10
273.2997129655
 20
259.1726227162
 11
102.2997129655
 21
259.1726227162
  0
LINE
  8
0
  6
continuous
 62
7
 10
102.2997129655
 20
259.1726227162
 11
87.7997129655
 21
259.1726227162
  0
LINE
  8
0
  6
continuous
 62
7
 10
87.7997129655
 20
248.1726227162
 11
102.2997129655
 21
248.1726227162
  0
LINE
  8
0
  6
continuous
 62
7
 10
287.7997129655
 20
259.1726227162
 11
273.2997129655
 21
259.1726227162
  0
LINE
  8
0
  6
continuous
 62
7
 10
273.2997129655
 20
248.1726227162
 11
287.7997129655
 21
248.1726227162
  0
ARC
  8
0
  6
continuous
 62
7
 10
87.7997129655
 20
253.6726227162
 40
5.5
 50
90
 51
270
  0
ARC
  8
0
  6
continuous
 62
7
 10
287.7997129655
 20
253.6726227162
 40
5.5
 50
-90
 51
90
  0
LINE
  8
0
  6
CENTER
 62
7
 10
40.7997129655
 20
253.6726227162
 11
310.7997129655
 21
253.6726227162
  0
LINE
  8
0
  6
continuous
 62
7
 10
42.7997129655
 20
249.6726227162
 11
42.7997129655
 21
253.6726227162
  0
INSERT
  8
0
  6
continuous
 62
7
  2
_OPEN30
 10
42.7997129655
 20
253.6726227162
 30
0.0
 41
2
 42
2
 50
90
  0
LINE
  8
0
  6
continuous
 62
7
 10
308.7997129655
 20
249.6726227162
 11
308.7997129655
 21
253.6726227162
  0
INSERT
  8
0
  6
continuous
 62
7
  2
_OPEN30
 10
308.7997129655
 20
253.6726227162
 30
0.0
 41
2
 42
2
 50
90
  0
TEXT
  8
0
 62
7
  6
BYLAYER
 62
7
 10
39.7066898853
 20
242.8039836744
 40
6.35
  1
A
  7
Font_0
 11
39.7066898853
 21
249.1539836744
 73
3
  0
TEXT
  8
0
 62
7
  6
BYLAYER
 62
7
 10
306.0425082269
 20
243.3264030487
 40
6.35
  1
A
  7
Font_0
 11
306.0425082269
 21
249.6764030487
 73
3
  0
LINE
  8
0
  6
continuous
 62
7
 10
102.2997129655
 20
218.8382556338
 11
273.2997129655
 21
218.8382556338
  0
LINE
  8
0
  6
continuous
 62
7
 10
273.2997129655
 20
229.8382556338
 11
102.2997129655
 21
229.8382556338
  0
ARC
  8
0
  6
continuous
 62
7
 10
102.2997129655
 20
209.8382556338
 40
9.00000000000001
 50
90
 51
180
  0
ARC
  8
0
  6
continuous
 62
7
 10
102.2997129655
 20
209.8382556338
 40
20
 50
90
 51
180
  0
ARC
  8
0
  6
continuous
 62
7
 10
273.2997129655
 20
209.8382556338
 40
9
 50
0
 51
90
  0
ARC
  8
0
  6
continuous
 62
7
 10
273.2997129655
 20
209.8382556338
 40
20
 50
0
 51
90
  0
LINE
  8
0
  6
continuous
 62
7
 10
93.2997129655
 20
194.8382556338
 11
93.2997129655
 21
209.8382556338
  0
LINE
  8
0
  6
continuous
 62
7
 10
82.2997129655
 20
209.8382556338
 11
82.2997129655
 21
194.8382556338
  0
LINE
  8
0
  6
continuous
 62
7
 10
293.2997129655
 20
194.8382556338
 11
293.2997129655
 21
209.8382556338
  0
LINE
  8
0
  6
continuous
 62
7
 10
282.2997129655
 20
209.8382556338
 11
282.2997129655
 21
194.8382556338
  0
LINE
  8
0
  6
continuous
 62
7
 10
87.7997129655
 20
194.8382556338
 11
82.2997129655
 21
194.8382556338
  0
LINE
  8
0
  6
continuous
 62
7
 10
93.2997129655
 20
194.8382556338
 11
87.7997129655
 21
194.8382556338
  0
LINE
  8
0
  6
continuous
 62
7
 10
287.7997129655
 20
194.8382556338
 11
293.2997129655
 21
194.8382556338
  0
LINE
  8
0
  6
continuous
 62
7
 10
282.2997129655
 20
194.8382556338
 11
287.7997129655
 21
194.8382556338
  0
DIMENSION
  8
0
  2
*D1
 10
231.4498886705
 20
218.8382556338
 30
0.0
 11
0.0
 21
0.0
 31
0.0
 70
32
3
SLDDIMSTYLE0
 13
273.2997129655
 23
229.8382556338
 33
0.0
 14
273.2997129655
 24
218.8382556338
 34
0.0
 50
90
  0
LINE
  8
0
  6
continuous
 62
7
 10
85.7997129655
 20
92.671001172
 11
85.0497129655
 21
91.921001172
  0
LINE
  8
0
  6
continuous
 62
7
 10
82.2997129655
 20
91.921001172
 11
85.0497129655
 21
91.921001172
  0
LINE
  8
0
  6
continuous
 62
7
 10
82.2997129655
 20
106.921001172
 11
82.2997129655
 21
91.921001172
  0
ARC
  8
0
  6
continuous
 62
7
 10
102.2997129655
 20
106.921001172
 40
20
 50
90
 51
180
  0
LINE
  8
0
  6
continuous
 62
7
 10
273.2997129655
 20
126.921001172
 11
102.2997129655
 21
126.921001172
  0
ARC
  8
0
  6
continuous
 62
7
 10
273.2997129655
 20
106.921001172
 40
20
 50
0
 51
90
  0
LINE
  8
0
  6
continuous
 62
7
 10
293.2997129655
 20
106.921001172
 11
293.2997129655
 21
91.921001172
  0
LINE
  8
0
  6
continuous
 62
7
 10
293.2997129655
 20
91.921001172
 11
290.5497129655
 21
91.921001172
  0
LINE
  8
0
  6
continuous
 62
7
 10
290.5497129655
 20
91.921001172
 11
289.7997129655
 21
92.671001172
  0
LINE
  8
0
  6
continuous
 62
7
 10
289.7997129655
 20
92.671001172
 11
289.7997129655
 21
103.921001172
  0
LINE
  8
0
  6
continuous
 62
7
 10
289.4997129655
 20
103.921001172
 11
289.7997129655
 21
103.921001172
  0
LINE
  8
0
  6
continuous
 62
7
 10
289.4997129655
 20
103.921001172
 11
289.4997129655
 21
105.921001172
  0
LINE
  8
0
  6
continuous
 62
7
 10
289.4997129655
 20
105.921001172
 11
287.7997129655
 21
106.9024966296
  0
LINE
  8
0
  6
continuous
 62
7
 10
287.7997129655
 20
106.9024966296
 11
286.0997129655
 21
105.921001172
  0
LINE
  8
0
  6
continuous
 62
7
 10
286.0997129655
 20
105.921001172
 11
286.0997129655
 21
103.921001172
  0
LINE
  8
0
  6
continuous
 62
7
 10
285.7997129655
 20
103.921001172
 11
286.0997129655
 21
103.921001172
  0
LINE
  8
0
  6
continuous
 62
7
 10
285.7997129655
 20
103.921001172
 11
285.7997129655
 21
92.671001172
  0
LINE
  8
0
  6
continuous
 62
7
 10
285.7997129655
 20
92.671001172
 11
285.0497129655
 21
91.921001172
  0
LINE
  8
0
  6
continuous
 62
7
 10
285.0497129655
 20
91.921001172
 11
282.2997129655
 21
91.921001172
  0
LINE
  8
0
  6
continuous
 62
7
 10
282.2997129655
 20
91.921001172
 11
282.2997129655
 21
106.921001172
  0
ARC
  8
0
  6
continuous
 62
7
 10
273.2997129655
 20
106.921001172
 40
9
 50
0
 51
90
  0
LINE
  8
0
  6
continuous
 62
7
 10
102.2997129655
 20
115.921001172
 11
273.2997129655
 21
115.921001172
  0
ARC
  8
0
  6
continuous
 62
7
 10
102.2997129655
 20
106.921001172
 40
9
 50
90
 51
180
  0
LINE
  8
0
  6
continuous
 62
7
 10
93.2997129655
 20
91.921001172
 11
93.2997129655
 21
106.921001172
  0
LINE
  8
0
  6
continuous
 62
7
 10
90.5497129655
 20
91.921001172
 11
93.2997129655
 21
91.921001172
  0
LINE
  8
0
  6
continuous
 62
7
 10
90.5497129655
 20
91.921001172
 11
89.7997129655
 21
92.671001172
  0
LINE
  8
0
  6
continuous
 62
7
 10
89.7997129655
 20
92.671001172
 11
89.7997129655
 21
103.921001172
  0
LINE
  8
0
  6
continuous
 62
7
 10
89.4997129655
 20
103.921001172
 11
89.7997129655
 21
103.921001172
  0
LINE
  8
0
  6
continuous
 62
7
 10
89.4997129655
 20
103.921001172
 11
89.4997129655
 21
105.921001172
  0
LINE
  8
0
  6
continuous
 62
7
 10
89.4997129655
 20
105.921001172
 11
87.7997129655
 21
106.9024966296
  0
LINE
  8
0
  6
continuous
 62
7
 10
87.7997129655
 20
106.9024966296
 11
86.0997129655
 21
105.921001172
  0
LINE
  8
0
  6
continuous
 62
7
 10
86.0997129655
 20
105.921001172
 11
86.0997129655
 21
103.921001172
  0
LINE
  8
0
  6
continuous
 62
7
 10
85.7997129655
 20
103.921001172
 11
86.0997129655
 21
103.921001172
  0
LINE
  8
0
  6
continuous
 62
7
 10
85.7997129655
 20
103.921001172
 11
85.7997129655
 21
92.671001172
  0
LINE
  8
0
  6
continuous
 62
7
 10
285.7997129655
 20
92.671001172
 11
289.7997129655
 21
92.671001172
  0
LINE
  8
0
  6
continuous
 62
7
 10
285.0497129655
 20
91.921001172
 11
290.5497129655
 21
91.921001172
  0
LINE
  8
0
  6
continuous
 62
7
 10
85.7997129655
 20
92.671001172
 11
89.7997129655
 21
92.671001172
  0
LINE
  8
0
  6
continuous
 62
7
 10
85.0497129655
 20
91.921001172
 11
90.5497129655
 21
91.921001172
  0
LINE
  8
0
  6
continuous
 62
7
 10
86.0997129655
 20
105.921001172
 11
89.4997129655
 21
105.921001172
  0
LINE
  8
0
  6
continuous
 62
7
 10
89.4997129655
 20
103.921001172
 11
86.0997129655
 21
103.921001172
  0
LINE
  8
0
  6
continuous
 62
7
 10
286.0997129655
 20
105.921001172
 11
289.4997129655
 21
105.921001172
  0
LINE
  8
0
  6
continuous
 62
7
 10
289.4997129655
 20
103.921001172
 11
286.0997129655
 21
103.921001172
  0
LINE
  8
0
  6
CENTERX2
 62
7
 10
87.7997129655
 20
106.9024966296
 11
87.7997129655
 21
91.921001172
  0
LINE
  8
0
  6
CENTERX2
 62
7
 10
287.7997129655
 20
106.9024966296
 11
287.7997129655
 21
91.921001172
  0
DIMENSION
  8
0
  2
*D2
 10
87.7997129655
 20
85.6784288768
 30
0.0
 11
0.0
 21
0.0
 31
0.0
 70
32
  1
P
3
SLDDIMSTYLE1
 13
287.7997129655
 23
91.921001172
 33
0.0
 14
87.7997129655
 24
91.921001172
 34
0.0
 50
0
  0
DIMENSION
  8
0
  2
*D3
 10
82.2997129655
 20
85.6784288768
 30
0.0
 11
0.0
 21
0.0
 31
0.0
 70
32
3
SLDDIMSTYLE0
 13
87.7997129655
 23
91.921001172
 33
0.0
 14
82.2997129655
 24
91.921001172
 34
0.0
 50
0
  0
DIMENSION
  8
0
  2
*D4
 10
293.2997129655
 20
79.6593697238
 30
0.0
 11
0.0
 21
0.0
 31
0.0
 70
32
  1
L
3
SLDDIMSTYLE2
 13
82.2997129655
 23
91.921001172
 33
0.0
 14
293.2997129655
 24
91.921001172
 34
0.0
 50
0
  0
DIMENSION
  8
0
  2
*D5
 10
72.2997129655
 20
126.921001172
 30
0.0
 11
0.0
 21
0.0
 31
0.0
 70
32
3
SLDDIMSTYLE0
 13
82.2997129655
 23
91.921001172
 33
0.0
 14
102.2997129655
 24
126.921001172
 34
0.0
 50
90
  0
TEXT
  8
0
 62
7
  6
BYLAYER
 62
7
 10
179.67064629515
 20
68.6535229631
 40
4.2333333333
  1
断面図 A-A
  7
Font_0
 72
1
 11
190.2539796284
 21
72.8868562964
 73
3
  0
TEXT
  8
0
 62
7
  6
BYLAYER
 62
7
 10
103.9686133723
 20
70.2939875573
 40
3.5
  1
2-M4タップ 有効12
  7
Font_0
 11
103.9686133723
 21
73.7939875573
 73
3
  0
LINE
  8
0
  6
continuous
 62
7
 10
87.7997129655
 20
160.0404680202
 11
102.2997129655
 21
160.0404680202
  0
LINE
  8
0
  6
continuous
 62
7
 10
102.2997129655
 20
171.0404680202
 11
87.7997129655
 21
171.0404680202
  0
LINE
  8
0
  6
continuous
 62
7
 10
273.2997129655
 20
160.0404680202
 11
287.7997129655
 21
160.0404680202
  0
LINE
  8
0
  6
continuous
 62
7
 10
287.7997129655
 20
171.0404680202
 11
273.2997129655
 21
171.0404680202
  0
LINE
  8
0
  6
continuous
 62
7
 10
102.2997129655
 20
160.0404680202
 11
273.2997129655
 21
160.0404680202
  0
LINE
  8
0
  6
continuous
 62
7
 10
273.2997129655
 20
171.0404680202
 11
102.2997129655
 21
171.0404680202
  0
CIRCLE
  8
0
  6
continuous
 62
7
 10
87.7997129655
 20
165.5404680202
 40
5.5
  0
CIRCLE
  8
0
  6
continuous
 62
7
 10
87.7997129655
 20
165.5404680202
 40
2.75000000000003
  0
CIRCLE
  8
0
  6
continuous
 62
7
 10
87.7997129655
 20
165.5404680202
 40
2
  0
CIRCLE
  8
0
  6
continuous
 62
7
 10
287.7997129655
 20
165.5404680202
 40
5.5
  0
CIRCLE
  8
0
  6
continuous
 62
7
 10
287.7997129655
 20
165.5404680202
 40
2.74999999999994
  0
CIRCLE
  8
0
  6
continuous
 62
7
 10
287.7997129655
 20
165.5404680202
 40
2
  0
CIRCLE
  8
0
  6
continuous
 62
7
 10
287.7997129655
 20
165.5404680202
 40
1.69999999999999
  0
CIRCLE
  8
0
  6
continuous
 62
7
 10
87.7997129655
 20
165.5404680202
 40
1.69999999999996
  0
INSERT
  8
0
  6
continuous
 62
7
  2
SW_CENTERMARKSYMBOL_0
 10
87.7997129655
 20
165.5404680202
 30
0.0
  0
INSERT
  8
0
  6
continuous
 62
7
  2
SW_CENTERMARKSYMBOL_1
 10
287.7997129655
 20
165.5404680202
 30
0.0
  0
LINE
  8
0
  6
continuous
 62
7
 10
87.7997129655
 20
91.858501172
 11
103.9686133723
 21
70.2939875573
  0
LINE
  8
0
  6
continuous
 62
7
 10
103.9686133723
 20
70.2939875573
 11
133.7186133723
 21
70.2939875573
  0
LINE
  8
0
  6
continuous
 62
7
 10
87.7997129655
 20
91.858501172
 11
90.9000348169126
 21
90.1279180501136
  0
ENDSEC
  0
EOF
