   0
SECTION
   2
HEADER
   9
$ACADVER
   1
AC1015
   9
$LIMMIN
  10
0.0
  20
0.0
   9
$LIMMAX
  10
 420.00000000000
  20
 297.00000000000
   9
$EXTMIN
  10
0.0
  20
0.0
  30
0.0
   9
$EXTMAX
  10
 420.00000000000
  20
 297.00000000000
  30
0.0
   9
$LTSCALE
  40
 8.4000000000000
   9
$HANDSEED
   5
317
   0
ENDSEC
   0
SECTION
   2
TABLES
  0
TABLE
  2
VPORT
  5
8
100
AcDbSymbolTable
 70
     1
  0
VPORT
  5
316
100
AcDbSymbolTableRecord
100
AcDbViewportTableRecord
  2
*ACTIVE
 70
     0
 10
0.0
 20
0.0
 11
1.0
 21
1.0
  12
 210.00000000000
  22
 148.50000000000
 13
0.0
 23
0.0
 14
1.0
 24
1.0
 15
0.0
 25
0.0
 16
0.0
 26
0.0
 36
1.0
 17
0.0
 27
0.0
 37
0.0
  40
 420.00000000000
  41
 1.4787878787879
 42
50.0
 43
0.0
 44
0.0
 50
0.0
 51
0.0
 71
     0
 72
   100
 73
     1
 74
     1
 75
     0
 76
     0
 77
     0
 78
     0
  0
ENDTAB
  0
TABLE
  2
LTYPE
  5
5
100
AcDbSymbolTable
 70
    25
  0
LTYPE
  5
12
100
AcDbSymbolTableRecord
100
AcDbLinetypeTableRecord
  2
BYBLOCK
 70
     0
  3

 72
    65
 73
     0
 40
0.0
  0
LTYPE
  5
13
100
AcDbSymbolTableRecord
100
AcDbLinetypeTableRecord
  2
BYLAYER
 70
     0
  3

 72
    65
 73
     0
 40
0.0
  0
LTYPE
  5
14
100
AcDbSymbolTableRecord
100
AcDbLinetypeTableRecord
  2
CONTINUOUS
 70
     0
  3
Solid line
 72
    65
 73
     0
 40
0.0
  0
LTYPE
  5
20
100
AcDbSymbolTableRecord
100
AcDbLinetypeTableRecord
  2
BORDER
 70
     0
  3
__ __ . __ __ . __ __ . __ __ . __ __ . __ __ .
 72
    65
 73
     6
 40
1.75
 49
0.5
 74
     0
 49
-0.25
 74
     0
 49
0.5
 74
     0
 49
-0.25
 74
     0
 49
0.0
 74
     0
 49
-0.25
 74
     0
  0
LTYPE
  5
21
100
AcDbSymbolTableRecord
100
AcDbLinetypeTableRecord
  2
BORDER2
 70
     0
  3
__.__.__.__.__.__.__.__.__.__.__.__.__.__.__.__
 72
    65
 73
     6
 40
0.875
 49
0.25
 74
     0
 49
-0.125
 74
     0
 49
0.25
 74
     0
 49
-0.125
 74
     0
 49
0.0
 74
     0
 49
-0.125
 74
     0
  0
LTYPE
  5
22
100
AcDbSymbolTableRecord
100
AcDbLinetypeTableRecord
  2
BORDERX2
 70
     0
  3
____  ____  .  ____  ____  .  ____  ____  .  __
 72
    65
 73
     6
 40
3.5
 49
1.0
 74
     0
 49
-0.5
 74
     0
 49
1.0
 74
     0
 49
-0.5
 74
     0
 49
0.0
 74
     0
 49
-0.5
 74
     0
  0
LTYPE
  5
23
100
AcDbSymbolTableRecord
100
AcDbLinetypeTableRecord
  2
CENTER
 70
     0
  3
____ _ ____ _ ____ _ ____ _ ____ _ ____ _ ____ 
 72
    65
 73
     4
 40
2.0
 49
1.25
 74
     0
 49
-0.25
 74
     0
 49
0.25
 74
     0
 49
-0.25
 74
     0
  0
LTYPE
  5
24
100
AcDbSymbolTableRecord
100
AcDbLinetypeTableRecord
  2
CENTER2
 70
     0
  3
___ _ ___ _ ___ _ ___ _ ___ _ ___ _ ___ _ ___ _
 72
    65
 73
     4
 40
1.125
 49
0.75
 74
     0
 49
-0.125
 74
     0
 49
0.125
 74
     0
 49
-0.125
 74
     0
  0
LTYPE
  5
25
100
AcDbSymbolTableRecord
100
AcDbLinetypeTableRecord
  2
CENTERX2
 70
     0
  3
________  __  ________  __  ________  __  _____
 72
    65
 73
     4
 40
4.0
 49
2.5
 74
     0
 49
-0.5
 74
     0
 49
0.5
 74
     0
 49
-0.5
 74
     0
  0
LTYPE
  5
26
100
AcDbSymbolTableRecord
100
AcDbLinetypeTableRecord
  2
DASHDOT
 70
     0
  3
__ . __ . __ . __ . __ . __ . __ . __ . __ . __
 72
    65
 73
     4
 40
1.0
 49
0.5
 74
     0
 49
-0.25
 74
     0
 49
0.0
 74
     0
 49
-0.25
 74
     0
  0
LTYPE
  5
27
100
AcDbSymbolTableRecord
100
AcDbLinetypeTableRecord
  2
DASHDOT2
 70
     0
  3
_._._._._._._._._._._._._._._._._._._._._._._._
 72
    65
 73
     4
 40
0.5
 49
0.25
 74
     0
 49
-0.125
 74
     0
 49
0.0
 74
     0
 49
-0.125
 74
     0
  0
LTYPE
  5
28
100
AcDbSymbolTableRecord
100
AcDbLinetypeTableRecord
  2
DASHDOTX2
 70
     0
  3
____  .  ____  .  ____  .  ____  .  ____  .  __
 72
    65
 73
     4
 40
2.0
 49
1.0
 74
     0
 49
-0.5
 74
     0
 49
0.0
 74
     0
 49
-0.5
 74
     0
  0
LTYPE
  5
29
100
AcDbSymbolTableRecord
100
AcDbLinetypeTableRecord
  2
DASHED
 70
     0
  3
__ __ __ __ __ __ __ __ __ __ __ __ __ __ __ __
 72
    65
 73
     2
 40
0.75
 49
0.5
 74
     0
 49
-0.25
 74
     0
  0
LTYPE
  5
2A
100
AcDbSymbolTableRecord
100
AcDbLinetypeTableRecord
  2
DASHED2
 70
     0
  3
_ _ _ _ _ _ _ _ _ _ _ _ _ _ _ _ _ _ _ _ _ _ _ _
 72
    65
 73
     2
 40
0.375
 49
0.25
 74
     0
 49
-0.125
 74
     0
  0
LTYPE
  5
2B
100
AcDbSymbolTableRecord
100
AcDbLinetypeTableRecord
  2
DASHEDX2
 70
     0
  3
____  ____  ____  ____  ____  ____  ____  ____ 
 72
    65
 73
     2
 40
1.5
 49
1.0
 74
     0
 49
-0.5
 74
     0
  0
LTYPE
  5
2C
100
AcDbSymbolTableRecord
100
AcDbLinetypeTableRecord
  2
DIVIDE
 70
     0
  3
____ . . ____ . . ____ . . ____ . . ____ . . __
 72
    65
 73
     6
 40
1.25
 49
0.5
 74
     0
 49
-0.25
 74
     0
 49
0.0
 74
     0
 49
-0.25
 74
     0
 49
0.0
 74
     0
 49
-0.25
 74
     0
  0
LTYPE
  5
2D
100
AcDbSymbolTableRecord
100
AcDbLinetypeTableRecord
  2
DIVIDE2
 70
     0
  3
__..__..__..__..__..__..__..__..__..__..__..__.
 72
    65
 73
     6
 40
0.625
 49
0.25
 74
     0
 49
-0.125
 74
     0
 49
0.0
 74
     0
 49
-0.125
 74
     0
 49
0.0
 74
     0
 49
-0.125
 74
     0
  0
LTYPE
  5
2E
100
AcDbSymbolTableRecord
100
AcDbLinetypeTableRecord
  2
DIVIDEX2
 70
     0
  3
________  .  .  ________  .  .  ________  .  . 
 72
    65
 73
     6
 40
2.5
 49
1.0
 74
     0
 49
-0.5
 74
     0
 49
0.0
 74
     0
 49
-0.5
 74
     0
 49
0.0
 74
     0
 49
-0.5
 74
     0
  0
LTYPE
  5
2F
100
AcDbSymbolTableRecord
100
AcDbLinetypeTableRecord
  2
DOT
 70
     0
  3
. . . . . . . . . . . . . . . . . . . . . . . .
 72
    65
 73
     2
 40
0.25
 49
0.0
 74
     0
 49
-0.25
 74
     0
  0
LTYPE
  5
30
100
AcDbSymbolTableRecord
100
AcDbLinetypeTableRecord
  2
DOT2
 70
     0
  3
...............................................
 72
    65
 73
     2
 40
0.125
 49
0.0
 74
     0
 49
-0.125
 74
     0
  0
LTYPE
  5
31
100
AcDbSymbolTableRecord
100
AcDbLinetypeTableRecord
  2
DOTX2
 70
     0
  3
.  .  .  .  .  .  .  .  .  .  .  .  .  .  .  . 
 72
    65
 73
     2
 40
0.5
 49
0.0
 74
     0
 49
-0.5
 74
     0
  0
LTYPE
  5
32
100
AcDbSymbolTableRecord
100
AcDbLinetypeTableRecord
  2
HIDDEN
 70
     0
  3
__ __ __ __ __ __ __ __ __ __ __ __ __ __ __ __
 72
    65
 73
     2
 40
0.375
 49
0.25
 74
     0
 49
-0.125
 74
     0
  0
LTYPE
  5
33
100
AcDbSymbolTableRecord
100
AcDbLinetypeTableRecord
  2
HIDDEN2
 70
     0
  3
_ _ _ _ _ _ _ _ _ _ _ _ _ _ _ _ _ _ _ _ _ _ _ _
 72
    65
 73
     2
 40
0.1875
 49
0.125
 74
     0
 49
-0.0625
 74
     0
  0
LTYPE
  5
34
100
AcDbSymbolTableRecord
100
AcDbLinetypeTableRecord
  2
HIDDENX2
 70
     0
  3
____ ____ ____ ____ ____ ____ ____ ____ ____ __
 72
    65
 73
     2
 40
0.75
 49
0.5
 74
     0
 49
-0.25
 74
     0
  0
LTYPE
  5
35
100
AcDbSymbolTableRecord
100
AcDbLinetypeTableRecord
  2
PHANTOM
 70
     0
  3
______  __  __  ______  __  __  ______  __  __ 
 72
    65
 73
     6
 40
2.5
 49
1.25
 74
     0
 49
-0.25
 74
     0
 49
0.25
 74
     0
 49
-0.25
 74
     0
 49
0.25
 74
     0
 49
-0.25
 74
     0
  0
LTYPE
  5
36
100
AcDbSymbolTableRecord
100
AcDbLinetypeTableRecord
  2
PHANTOM2
 70
     0
  3
___ _ _ ___ _ _ ___ _ _ ___ _ _ ___ _ _ ___ _ _
 72
    65
 73
     6
 40
1.25
 49
0.625
 74
     0
 49
-0.125
 74
     0
 49
0.125
 74
     0
 49
-0.125
 74
     0
 49
0.125
 74
     0
 49
-0.125
 74
     0
  0
LTYPE
  5
37
100
AcDbSymbolTableRecord
100
AcDbLinetypeTableRecord
  2
PHANTOMX2
 70
     0
  3
____________    ____    ____    ____________   
 72
    65
 73
     6
 40
5.0
 49
2.5
 74
     0
 49
-0.5
 74
     0
 49
0.5
 74
     0
 49
-0.5
 74
     0
 49
0.5
 74
     0
 49
-0.5
 74
     0
  0
ENDTAB
   0
TABLE
   2
LAYER
   5
2
 100
AcDbSymbolTable
  70
2
   0
LAYER
   5
E
 100
AcDbSymbolTableRecord
 100
AcDbLayerTableRecord
   2
0
  70
0
  62
7
   6
CONTINUOUS
 390
30
   0
LAYER
   5
39
 100
AcDbSymbolTableRecord
 100
AcDbLayerTableRecord
   2
LEVEL001
  70
0
  62
7
   6
CONTINUOUS
 390
30
   0
ENDTAB
  0
TABLE
  2
STYLE
  5
3
100
AcDbSymbolTable
  70
3
  0
STYLE
  5
F
100
AcDbSymbolTableRecord
100
AcDbTextStyleTableRecord
  2
STANDARD
 70
     0
 40
0.0
 41
1.0
 50
0.0
 71
     0
 42
0.2
  3
TXT
  4
BIGFONT
  0
STYLE
  5
38
100
AcDbSymbolTableRecord
100
AcDbTextStyleTableRecord
  2
STANDARD1
 70
     4
 40
0.0
 41
1.0
 50
0.0
 71
     0
 42
0.2
  3
TXT
  4
BIGFONT
   0
STYLE
   5
3A
 100
AcDbSymbolTableRecord
 100
AcDbTextStyleTableRecord
   2
GMM001
  70
0
  40
0.0
  41
 0.95000000000000
  50
0.0
  71
     0
  42
1.0
   3
txt.shx
   4
bigfont.shx
   0
ENDTAB
  0
TABLE
  2
VIEW
  5
6
100
AcDbSymbolTable
 70
     0
  0
ENDTAB
  0
TABLE
  2
UCS
  5
7
100
AcDbSymbolTable
 70
     0
  0
ENDTAB
  0
TABLE
  2
APPID
  5
9
100
AcDbSymbolTable
 70
     1
  0
APPID
  5
10
100
AcDbSymbolTableRecord
100
AcDbRegAppTableRecord
  2
ACAD
 70
     0
  0
ENDTAB
   0
TABLE
   2
DIMSTYLE
   5
A
 100
AcDbSymbolTable
  70
6
 100
AcDbDimStyleTable
  0
DIMSTYLE
105
1D
100
AcDbSymbolTableRecord
100
AcDbDimStyleTableRecord
  2
STANDARD
 70
     0
  3

  4

  5

  6

  7

 40
1.0
 41
0.18
 42
0.0625
 43
0.38
 44
0.18
 45
0.0
 46
0.0
 47
0.0
 48
0.0
140
0.18
141
0.09
142
0.0
143
25.4
144
1.0
145
0.0
146
1.0
147
0.09
 71
     0
 72
     0
 73
     1
 74
     1
 75
     0
 76
     0
 77
     0
 78
     0
170
     0
171
     2
172
     0
173
     0
174
     0
175
     0
176
     0
177
     0
178
     0
270
     2
271
     4
272
     4
273
     2
274
     2
340
F
275
     0
280
     0
281
     0
282
     0
283
     1
284
     0
285
     0
286
     0
287
     3
288
     0
   0
DIMSTYLE
 105
3B
 100
AcDbSymbolTableRecord
 100
AcDbDimStyleTableRecord
   2
GMM001
  70
0
   3
R<>
   4

   5

   6
_NONE
   7
_OPEN30
  40
 1.0000000000000
  41
 3.0000000000000
  42
 1.0000000000000
  43
 8.0000000000000
  44
 1.0000000000000
  45
0.0
  46
0.0
  47
0.0
  48
0.0
 140
 4.0000000000000
 141
 1.0000000000000
 142
0.0
 143
 0.39400000000000E-1
 144
 1.0000000000000
 145
0.0
 146
 0.62500000000000
 147
 1.7142857142857
  71
0
  72
0
  73
0
  74
0
  75
0
  76
0
  77
3
  78
8
 170
0
 171
2
 172
1
 173
1
 174
0
 175
0
 176
3
 177
3
 178
3
 270
2
 271
6
 272
0
 273
2
 274
2
 340
3A
 275
0
 280
0
 281
0
 282
0
 283
1
 284
0
 285
0
 286
0
 287
3
 288
1
   0
DIMSTYLE
 105
3C
 100
AcDbSymbolTableRecord
 100
AcDbDimStyleTableRecord
   2
GMM002
  70
0
   3

   4

   5

   6
_OPEN30
   7
_OPEN30
  40
 1.0000000000000
  41
 3.0000000000000
  42
 1.0000000000000
  43
 8.0000000000000
  44
 1.0000000000000
  45
0.0
  46
0.0
  47
0.0
  48
0.0
 140
 4.0000000000000
 141
 1.0000000000000
 142
0.0
 143
 0.39400000000000E-1
 144
 1.0000000000000
 145
0.0
 146
 0.62500000000000
 147
 1.7142857142857
  71
0
  72
0
  73
0
  74
0
  75
0
  76
0
  77
3
  78
8
 170
0
 171
2
 172
1
 173
1
 174
0
 175
0
 176
3
 177
3
 178
3
 270
2
 271
6
 272
0
 273
2
 274
2
 340
3A
 275
0
 280
0
 281
0
 282
0
 283
1
 284
0
 285
0
 286
0
 287
3
 288
0
   0
DIMSTYLE
 105
3D
 100
AcDbSymbolTableRecord
 100
AcDbDimStyleTableRecord
   2
GMM003
  70
0
   3

   4

   5

   6
_OPEN30
   7
_OPEN30
  40
 1.0000000000000
  41
 3.0000000000000
  42
 1.0000000000000
  43
 8.0000000000000
  44
 1.0000000000000
  45
0.0
  46
0.0
  47
0.0
  48
0.0
 140
 4.0000000000000
 141
 1.0000000000000
 142
0.0
 143
 0.39400000000000E-1
 144
 1.0000000000000
 145
0.0
 146
 0.62500000000000
 147
 2.0712522450402
  71
0
  72
0
  73
0
  74
0
  75
0
  76
0
  77
3
  78
8
 170
0
 171
2
 172
1
 173
1
 174
0
 175
0
 176
3
 177
3
 178
3
 270
2
 271
6
 272
0
 273
2
 274
2
 340
3A
 275
0
 280
0
 281
0
 282
0
 283
1
 284
0
 285
0
 286
0
 287
3
 288
1
   0
DIMSTYLE
 105
3E
 100
AcDbSymbolTableRecord
 100
AcDbDimStyleTableRecord
   2
GMM004
  70
0
   3

   4

   5

   6
_OPEN30
   7
_OPEN30
  40
 1.0000000000000
  41
 3.0000000000000
  42
 1.0000000000000
  43
 8.0000000000000
  44
 1.0000000000000
  45
0.0
  46
0.0
  47
0.0
  48
0.0
 140
 4.0000000000000
 141
 1.0000000000000
 142
0.0
 143
 0.39400000000000E-1
 144
 1.0000000000000
 145
0.0
 146
 0.62500000000000
 147
 1.8624133597568
  71
0
  72
0
  73
0
  74
0
  75
0
  76
0
  77
3
  78
8
 170
0
 171
2
 172
1
 173
1
 174
0
 175
0
 176
3
 177
3
 178
3
 270
2
 271
6
 272
0
 273
2
 274
2
 340
3A
 275
0
 280
0
 281
0
 282
0
 283
1
 284
0
 285
0
 286
0
 287
3
 288
1
   0
ENDTAB
  0
TABLE
  2
BLOCK_RECORD
  5
1
100
AcDbSymbolTable
 70
     0
  0
BLOCK_RECORD
  5
18
100
AcDbSymbolTableRecord
100
AcDbBlockTableRecord
  2
*MODEL_SPACE
  0
BLOCK_RECORD
  5
15
100
AcDbSymbolTableRecord
100
AcDbBlockTableRecord
  2
*PAPER_SPACE
   0
BLOCK_RECORD
   5
3F
 100
AcDbSymbolTableRecord
 100
AcDbBlockTableRecord
   2
*D1
   0
BLOCK_RECORD
   5
40
 100
AcDbSymbolTableRecord
 100
AcDbBlockTableRecord
   2
*D2
   0
BLOCK_RECORD
   5
41
 100
AcDbSymbolTableRecord
 100
AcDbBlockTableRecord
   2
*D3
   0
BLOCK_RECORD
   5
42
 100
AcDbSymbolTableRecord
 100
AcDbBlockTableRecord
   2
*D4
   0
BLOCK_RECORD
   5
43
 100
AcDbSymbolTableRecord
 100
AcDbBlockTableRecord
   2
*D5
   0
BLOCK_RECORD
   5
44
 100
AcDbSymbolTableRecord
 100
AcDbBlockTableRecord
   2
*D6
   0
BLOCK_RECORD
   5
45
 100
AcDbSymbolTableRecord
 100
AcDbBlockTableRecord
   2
*D7
   0
BLOCK_RECORD
   5
46
 100
AcDbSymbolTableRecord
 100
AcDbBlockTableRecord
   2
*D8
   0
BLOCK_RECORD
   5
47
 100
AcDbSymbolTableRecord
 100
AcDbBlockTableRecord
   2
*D9
   0
BLOCK_RECORD
   5
48
 100
AcDbSymbolTableRecord
 100
AcDbBlockTableRecord
   2
*D10
   0
BLOCK_RECORD
   5
49
 100
AcDbSymbolTableRecord
 100
AcDbBlockTableRecord
   2
*D11
   0
BLOCK_RECORD
   5
4A
 100
AcDbSymbolTableRecord
 100
AcDbBlockTableRecord
   2
*D12
   0
BLOCK_RECORD
   5
4B
 100
AcDbSymbolTableRecord
 100
AcDbBlockTableRecord
   2
*D13
   0
BLOCK_RECORD
   5
4C
 100
AcDbSymbolTableRecord
 100
AcDbBlockTableRecord
   2
*D14
   0
BLOCK_RECORD
   5
4D
 100
AcDbSymbolTableRecord
 100
AcDbBlockTableRecord
   2
*D15
   0
BLOCK_RECORD
   5
4E
 100
AcDbSymbolTableRecord
 100
AcDbBlockTableRecord
   2
*D16
   0
BLOCK_RECORD
   5
4F
 100
AcDbSymbolTableRecord
 100
AcDbBlockTableRecord
   2
*D17
   0
BLOCK_RECORD
   5
50
 100
AcDbSymbolTableRecord
 100
AcDbBlockTableRecord
   2
*D18
   0
BLOCK_RECORD
   5
51
 100
AcDbSymbolTableRecord
 100
AcDbBlockTableRecord
   2
*D19
   0
BLOCK_RECORD
   5
52
 100
AcDbSymbolTableRecord
 100
AcDbBlockTableRecord
   2
*D20
   0
BLOCK_RECORD
   5
53
 100
AcDbSymbolTableRecord
 100
AcDbBlockTableRecord
   2
_ARCHTICK
   0
BLOCK_RECORD
   5
54
 100
AcDbSymbolTableRecord
 100
AcDbBlockTableRecord
   2
_BOXBLANK
   0
BLOCK_RECORD
   5
55
 100
AcDbSymbolTableRecord
 100
AcDbBlockTableRecord
   2
_BOXFILLED
   0
BLOCK_RECORD
   5
56
 100
AcDbSymbolTableRecord
 100
AcDbBlockTableRecord
   2
_CLOSED
   0
BLOCK_RECORD
   5
57
 100
AcDbSymbolTableRecord
 100
AcDbBlockTableRecord
   2
_CLOSEDBLANK
   0
BLOCK_RECORD
   5
58
 100
AcDbSymbolTableRecord
 100
AcDbBlockTableRecord
   2
_DATUMBLANK
   0
BLOCK_RECORD
   5
59
 100
AcDbSymbolTableRecord
 100
AcDbBlockTableRecord
   2
_DATUMFILLED
   0
BLOCK_RECORD
   5
5A
 100
AcDbSymbolTableRecord
 100
AcDbBlockTableRecord
   2
_DOT
   0
BLOCK_RECORD
   5
5B
 100
AcDbSymbolTableRecord
 100
AcDbBlockTableRecord
   2
_DOTBLANK
   0
BLOCK_RECORD
   5
5C
 100
AcDbSymbolTableRecord
 100
AcDbBlockTableRecord
   2
_DOTSMALL
   0
BLOCK_RECORD
   5
5D
 100
AcDbSymbolTableRecord
 100
AcDbBlockTableRecord
   2
_INTEGRAL
   0
BLOCK_RECORD
   5
5E
 100
AcDbSymbolTableRecord
 100
AcDbBlockTableRecord
   2
_NONE
   0
BLOCK_RECORD
   5
5F
 100
AcDbSymbolTableRecord
 100
AcDbBlockTableRecord
   2
_OBLIQUE
   0
BLOCK_RECORD
   5
60
 100
AcDbSymbolTableRecord
 100
AcDbBlockTableRecord
   2
_OPEN
   0
BLOCK_RECORD
   5
61
 100
AcDbSymbolTableRecord
 100
AcDbBlockTableRecord
   2
_OPEN30
   0
BLOCK_RECORD
   5
62
 100
AcDbSymbolTableRecord
 100
AcDbBlockTableRecord
   2
_OPEN90
   0
BLOCK_RECORD
   5
63
 100
AcDbSymbolTableRecord
 100
AcDbBlockTableRecord
   2
_ORIGIN
   0
ENDTAB
   0
ENDSEC
  0
SECTION
  2
BLOCKS
  0
BLOCK
  5
19
100
AcDbEntity
  8
0
100
AcDbBlockBegin
  2
*MODEL_SPACE
 70
     0
 10
0.0
 20
0.0
 30
0.0
  3
*MODEL_SPACE
  1

  0
ENDBLK
  5
1A
100
AcDbEntity
  8
0
100
AcDbBlockEnd
  0
BLOCK
  5
16
100
AcDbEntity
 67
     1
  8
0
100
AcDbBlockBegin
  2
*PAPER_SPACE
 70
     0
 10
0.0
 20
0.0
 30
0.0
  3
*PAPER_SPACE
  1

  0
ENDBLK
  5
17
100
AcDbEntity
 67
     1
  8
0
100
AcDbBlockEnd
   0
BLOCK
   5
64
 100
AcDbEntity
   8
0
 100
AcDbBlockBegin
   2
_ARCHTICK
  70
0
  10
0.0
  20
0.0
  30
0.0
   3
_ARCHTICK
   0
POLYLINE
   5
65
 100
AcDbEntity
   8
0
   6
BYBLOCK
  62
0
 100
AcDb2dPolyline
  66
1
  10
0.0
  20
0.0
  30
0.0
  70
1
  40
 0.15000000000000
  41
 0.15000000000000
   0
VERTEX
   5
66
 100
AcDbEntity
   8
0
   6
BYBLOCK
  62
0
 100
AcDbVertex
 100
AcDb2dVertex
  10
-0.50000000000000
  20
-0.50000000000000
  30
0.0
  40
 0.15000000000000
  41
 0.15000000000000
   0
VERTEX
   5
67
 100
AcDbEntity
   8
0
   6
BYBLOCK
  62
0
 100
AcDbVertex
 100
AcDb2dVertex
  10
 0.50000000000000
  20
 0.50000000000000
  30
0.0
  40
 0.15000000000000
  41
 0.15000000000000
   0
SEQEND
   5
68
 100
AcDbEntity
   8
0
   6
BYBLOCK
  62
0
   0
ENDBLK
   5
69
 100
AcDbEntity
   8
0
 100
AcDbBlockEnd
   0
BLOCK
   5
6A
 100
AcDbEntity
   8
0
 100
AcDbBlockBegin
   2
_OBLIQUE
  70
0
  10
0.0
  20
0.0
  30
0.0
   3
_OBLIQUE
   0
LINE
   5
6B
 100
AcDbEntity
   8
0
 100
AcDbLine
   6
BYBLOCK
  62
0
  10
-0.50000000000000
  20
-0.50000000000000
  30
0.0
  11
 0.50000000000000
  21
 0.50000000000000
  31
0.0
   0
ENDBLK
   5
6C
 100
AcDbEntity
   8
0
 100
AcDbBlockEnd
   0
BLOCK
   5
6D
 100
AcDbEntity
   8
0
 100
AcDbBlockBegin
   2
_BOXBLANK
  70
0
  10
0.0
  20
0.0
  30
0.0
   3
_BOXBLANK
   0
LINE
   5
6E
 100
AcDbEntity
   8
0
 100
AcDbLine
   6
BYBLOCK
  62
0
  10
-0.50000000000000
  20
-0.50000000000000
  30
0.0
  11
 0.50000000000000
  21
-0.50000000000000
  31
0.0
   0
LINE
   5
6F
 100
AcDbEntity
   8
0
 100
AcDbLine
   6
BYBLOCK
  62
0
  10
 0.50000000000000
  20
-0.50000000000000
  30
0.0
  11
 0.50000000000000
  21
 0.50000000000000
  31
0.0
   0
LINE
   5
70
 100
AcDbEntity
   8
0
 100
AcDbLine
   6
BYBLOCK
  62
0
  10
 0.50000000000000
  20
 0.50000000000000
  30
0.0
  11
-0.50000000000000
  21
 0.50000000000000
  31
0.0
   0
LINE
   5
71
 100
AcDbEntity
   8
0
 100
AcDbLine
   6
BYBLOCK
  62
0
  10
-0.50000000000000
  20
 0.50000000000000
  30
0.0
  11
-0.50000000000000
  21
-0.50000000000000
  31
0.0
   0
LINE
   5
72
 100
AcDbEntity
   8
0
 100
AcDbLine
   6
BYBLOCK
  62
0
  10
-0.50000000000000
  20
0.0
  30
0.0
  11
-1.0000000000000
  21
0.0
  31
0.0
   0
ENDBLK
   5
73
 100
AcDbEntity
   8
0
 100
AcDbBlockEnd
   0
BLOCK
   5
74
 100
AcDbEntity
   8
0
 100
AcDbBlockBegin
   2
_BOXFILLED
  70
0
  10
0.0
  20
0.0
  30
0.0
   3
_BOXFILLED
   0
SOLID
   5
75
 100
AcDbEntity
   8
0
 100
AcDbTrace
   6
BYBLOCK
  62
0
  10
-0.50000000000000
  20
 0.50000000000000
  30
0.0
  11
 0.50000000000000
  21
 0.50000000000000
  31
0.0
  12
-0.50000000000000
  22
-0.50000000000000
  32
0.0
  13
 0.50000000000000
  23
-0.50000000000000
  33
0.0
   0
LINE
   5
76
 100
AcDbEntity
   8
0
 100
AcDbLine
   6
BYBLOCK
  62
0
  10
-0.50000000000000
  20
0.0
  30
0.0
  11
-1.0000000000000
  21
0.0
  31
0.0
   0
ENDBLK
   5
77
 100
AcDbEntity
   8
0
 100
AcDbBlockEnd
   0
BLOCK
   5
78
 100
AcDbEntity
   8
0
 100
AcDbBlockBegin
   2
_CLOSED
  70
0
  10
0.0
  20
0.0
  30
0.0
   3
_CLOSED
   0
LINE
   5
79
 100
AcDbEntity
   8
0
 100
AcDbLine
   6
BYBLOCK
  62
0
  10
-1.0000000000000
  20
 0.16666666666667
  30
0.0
  11
0.0
  21
0.0
  31
0.0
   0
LINE
   5
7A
 100
AcDbEntity
   8
0
 100
AcDbLine
   6
BYBLOCK
  62
0
  10
0.0
  20
0.0
  30
0.0
  11
-1.0000000000000
  21
-0.16666666666667
  31
0.0
   0
LINE
   5
7B
 100
AcDbEntity
   8
0
 100
AcDbLine
   6
BYBLOCK
  62
0
  10
-1.0000000000000
  20
 0.16666666666667
  30
0.0
  11
-1.0000000000000
  21
-0.16666666666667
  31
0.0
   0
LINE
   5
7C
 100
AcDbEntity
   8
0
 100
AcDbLine
   6
BYBLOCK
  62
0
  10
0.0
  20
0.0
  30
0.0
  11
-1.0000000000000
  21
0.0
  31
0.0
   0
ENDBLK
   5
7D
 100
AcDbEntity
   8
0
 100
AcDbBlockEnd
   0
BLOCK
   5
7E
 100
AcDbEntity
   8
0
 100
AcDbBlockBegin
   2
_OPEN
  70
0
  10
0.0
  20
0.0
  30
0.0
   3
_OPEN
   0
LINE
   5
7F
 100
AcDbEntity
   8
0
 100
AcDbLine
   6
BYBLOCK
  62
0
  10
-1.0000000000000
  20
 0.16666666666667
  30
0.0
  11
0.0
  21
0.0
  31
0.0
   0
LINE
   5
80
 100
AcDbEntity
   8
0
 100
AcDbLine
   6
BYBLOCK
  62
0
  10
0.0
  20
0.0
  30
0.0
  11
-1.0000000000000
  21
-0.16666666666667
  31
0.0
   0
LINE
   5
81
 100
AcDbEntity
   8
0
 100
AcDbLine
   6
BYBLOCK
  62
0
  10
0.0
  20
0.0
  30
0.0
  11
-1.0000000000000
  21
0.0
  31
0.0
   0
ENDBLK
   5
82
 100
AcDbEntity
   8
0
 100
AcDbBlockEnd
   0
BLOCK
   5
83
 100
AcDbEntity
   8
0
 100
AcDbBlockBegin
   2
_OPEN30
  70
0
  10
0.0
  20
0.0
  30
0.0
   3
_OPEN30
   0
LINE
   5
84
 100
AcDbEntity
   8
0
 100
AcDbLine
   6
BYBLOCK
  62
0
  10
-1.0000000000000
  20
 0.26794919243110
  30
0.0
  11
0.0
  21
0.0
  31
0.0
   0
LINE
   5
85
 100
AcDbEntity
   8
0
 100
AcDbLine
   6
BYBLOCK
  62
0
  10
0.0
  20
0.0
  30
0.0
  11
-1.0000000000000
  21
-0.26794919243110
  31
0.0
   0
LINE
   5
86
 100
AcDbEntity
   8
0
 100
AcDbLine
   6
BYBLOCK
  62
0
  10
0.0
  20
0.0
  30
0.0
  11
-1.0000000000000
  21
0.0
  31
0.0
   0
ENDBLK
   5
87
 100
AcDbEntity
   8
0
 100
AcDbBlockEnd
   0
BLOCK
   5
88
 100
AcDbEntity
   8
0
 100
AcDbBlockBegin
   2
_OPEN90
  70
0
  10
0.0
  20
0.0
  30
0.0
   3
_OPEN90
   0
LINE
   5
89
 100
AcDbEntity
   8
0
 100
AcDbLine
   6
BYBLOCK
  62
0
  10
-0.50000000000000
  20
 0.50000000000000
  30
0.0
  11
0.0
  21
0.0
  31
0.0
   0
LINE
   5
8A
 100
AcDbEntity
   8
0
 100
AcDbLine
   6
BYBLOCK
  62
0
  10
0.0
  20
0.0
  30
0.0
  11
-0.50000000000000
  21
-0.50000000000000
  31
0.0
   0
LINE
   5
8B
 100
AcDbEntity
   8
0
 100
AcDbLine
   6
BYBLOCK
  62
0
  10
0.0
  20
0.0
  30
0.0
  11
-1.0000000000000
  21
0.0
  31
0.0
   0
ENDBLK
   5
8C
 100
AcDbEntity
   8
0
 100
AcDbBlockEnd
   0
BLOCK
   5
8D
 100
AcDbEntity
   8
0
 100
AcDbBlockBegin
   2
_CLOSEDBLANK
  70
0
  10
0.0
  20
0.0
  30
0.0
   3
_CLOSEDBLANK
   0
LINE
   5
8E
 100
AcDbEntity
   8
0
 100
AcDbLine
   6
BYBLOCK
  62
0
  10
-1.0000000000000
  20
 0.16666666666667
  30
0.0
  11
0.0
  21
0.0
  31
0.0
   0
LINE
   5
8F
 100
AcDbEntity
   8
0
 100
AcDbLine
   6
BYBLOCK
  62
0
  10
0.0
  20
0.0
  30
0.0
  11
-1.0000000000000
  21
-0.16666666666667
  31
0.0
   0
LINE
   5
90
 100
AcDbEntity
   8
0
 100
AcDbLine
   6
BYBLOCK
  62
0
  10
-1.0000000000000
  20
 0.16666666666667
  30
0.0
  11
-1.0000000000000
  21
-0.16666666666667
  31
0.0
   0
ENDBLK
   5
91
 100
AcDbEntity
   8
0
 100
AcDbBlockEnd
   0
BLOCK
   5
92
 100
AcDbEntity
   8
0
 100
AcDbBlockBegin
   2
_DOT
  70
0
  10
0.0
  20
0.0
  30
0.0
   3
_DOT
   0
POLYLINE
   5
93
 100
AcDbEntity
   8
0
   6
BYBLOCK
  62
0
 100
AcDb2dPolyline
  66
1
  10
0.0
  20
0.0
  30
0.0
  70
1
  40
 0.50000000000000
  41
 0.50000000000000
   0
VERTEX
   5
94
 100
AcDbEntity
   8
0
   6
BYBLOCK
  62
0
 100
AcDbVertex
 100
AcDb2dVertex
  10
-0.25000000000000
  20
0.0
  30
0.0
  42
 1.0000000000000
  40
 0.50000000000000
  41
 0.50000000000000
   0
VERTEX
   5
95
 100
AcDbEntity
   8
0
   6
BYBLOCK
  62
0
 100
AcDbVertex
 100
AcDb2dVertex
  10
 0.25000000000000
  20
0.0
  30
0.0
  42
 1.0000000000000
  40
 0.50000000000000
  41
 0.50000000000000
   0
SEQEND
   5
96
 100
AcDbEntity
   8
0
   6
BYBLOCK
  62
0
   0
LINE
   5
97
 100
AcDbEntity
   8
0
 100
AcDbLine
   6
BYBLOCK
  62
0
  10
-0.50000000000000
  20
0.0
  30
0.0
  11
-1.0000000000000
  21
0.0
  31
0.0
   0
ENDBLK
   5
98
 100
AcDbEntity
   8
0
 100
AcDbBlockEnd
   0
BLOCK
   5
99
 100
AcDbEntity
   8
0
 100
AcDbBlockBegin
   2
_DOTSMALL
  70
0
  10
0.0
  20
0.0
  30
0.0
   3
_DOTSMALL
   0
POLYLINE
   5
9A
 100
AcDbEntity
   8
0
   6
BYBLOCK
  62
0
 100
AcDb2dPolyline
  66
1
  10
0.0
  20
0.0
  30
0.0
  70
1
  40
 0.50000000000000
  41
 0.50000000000000
   0
VERTEX
   5
9B
 100
AcDbEntity
   8
0
   6
BYBLOCK
  62
0
 100
AcDbVertex
 100
AcDb2dVertex
  10
-0.62500000000000E-1
  20
0.0
  30
0.0
  42
 1.0000000000000
  40
 0.50000000000000
  41
 0.50000000000000
   0
VERTEX
   5
9C
 100
AcDbEntity
   8
0
   6
BYBLOCK
  62
0
 100
AcDbVertex
 100
AcDb2dVertex
  10
 0.62500000000000E-1
  20
0.0
  30
0.0
  42
 1.0000000000000
  40
 0.50000000000000
  41
 0.50000000000000
   0
SEQEND
   5
9D
 100
AcDbEntity
   8
0
   6
BYBLOCK
  62
0
   0
ENDBLK
   5
9E
 100
AcDbEntity
   8
0
 100
AcDbBlockEnd
   0
BLOCK
   5
9F
 100
AcDbEntity
   8
0
 100
AcDbBlockBegin
   2
_DATUMBLANK
  70
0
  10
0.0
  20
0.0
  30
0.0
   3
_DATUMBLANK
   0
LINE
   5
A0
 100
AcDbEntity
   8
0
 100
AcDbLine
   6
BYBLOCK
  62
0
  10
0.0
  20
 0.57735027000000
  30
0.0
  11
-1.0000000000000
  21
0.0
  31
0.0
   0
LINE
   5
A1
 100
AcDbEntity
   8
0
 100
AcDbLine
   6
BYBLOCK
  62
0
  10
-1.0000000000000
  20
0.0
  30
0.0
  11
0.0
  21
-0.57735027000000
  31
0.0
   0
LINE
   5
A2
 100
AcDbEntity
   8
0
 100
AcDbLine
   6
BYBLOCK
  62
0
  10
0.0
  20
-0.57735027000000
  30
0.0
  11
0.0
  21
 0.57735027000000
  31
0.0
   0
ENDBLK
   5
A3
 100
AcDbEntity
   8
0
 100
AcDbBlockEnd
   0
BLOCK
   5
A4
 100
AcDbEntity
   8
0
 100
AcDbBlockBegin
   2
_DATUMFILLED
  70
0
  10
0.0
  20
0.0
  30
0.0
   3
_DATUMFILLED
   0
SOLID
   5
A5
 100
AcDbEntity
   8
0
 100
AcDbTrace
   6
BYBLOCK
  62
0
  10
0.0
  20
 0.57735027000000
  30
0.0
  11
-1.0000000000000
  21
0.0
  31
0.0
  12
0.0
  22
-0.57735027000000
  32
0.0
  13
0.0
  23
-0.57735027000000
  33
0.0
   0
ENDBLK
   5
A6
 100
AcDbEntity
   8
0
 100
AcDbBlockEnd
   0
BLOCK
   5
A7
 100
AcDbEntity
   8
0
 100
AcDbBlockBegin
   2
_ORIGIN
  70
0
  10
0.0
  20
0.0
  30
0.0
   3
_ORIGIN
   0
CIRCLE
   5
A8
 100
AcDbEntity
   8
0
 100
AcDbCircle
   6
BYBLOCK
  62
0
  10
0.0
  20
0.0
  30
0.0
  40
 0.50000000000000
   0
LINE
   5
A9
 100
AcDbEntity
   8
0
 100
AcDbLine
   6
BYBLOCK
  62
0
  10
0.0
  20
0.0
  30
0.0
  11
-1.0000000000000
  21
0.0
  31
0.0
   0
ENDBLK
   5
AA
 100
AcDbEntity
   8
0
 100
AcDbBlockEnd
   0
BLOCK
   5
AB
 100
AcDbEntity
   8
0
 100
AcDbBlockBegin
   2
_NONE
  70
0
  10
0.0
  20
0.0
  30
0.0
   3
_NONE
   0
CIRCLE
   5
AC
 100
AcDbEntity
   8
0
 100
AcDbCircle
   6
BYBLOCK
  62
0
  10
0.0
  20
0.0
  30
0.0
  40
 0.25000000000000
   0
ENDBLK
   5
AD
 100
AcDbEntity
   8
0
 100
AcDbBlockEnd
   0
BLOCK
   5
AE
 100
AcDbEntity
   8
0
 100
AcDbBlockBegin
   2
_DOTBLANK
  70
0
  10
0.0
  20
0.0
  30
0.0
   3
_DOTBLANK
   0
CIRCLE
   5
AF
 100
AcDbEntity
   8
0
 100
AcDbCircle
   6
BYBLOCK
  62
0
  10
0.0
  20
0.0
  30
0.0
  40
 0.50000000000000
   0
LINE
   5
B0
 100
AcDbEntity
   8
0
 100
AcDbLine
   6
BYBLOCK
  62
0
  10
-0.50000000000000
  20
0.0
  30
0.0
  11
-1.0000000000000
  21
0.0
  31
0.0
   0
ENDBLK
   5
B1
 100
AcDbEntity
   8
0
 100
AcDbBlockEnd
   0
BLOCK
   5
B2
 100
AcDbEntity
   8
0
 100
AcDbBlockBegin
   2
_INTEGRAL
  70
0
  10
0.0
  20
0.0
  30
0.0
   3
_INTEGRAL
   0
ARC
   5
B3
 100
AcDbEntity
   8
0
   6
BYBLOCK
  62
0
 100
AcDbCircle
  10
 0.44488800000000
  20
-0.91335000000000E-1
  30
0.0
  40
 0.45416700000000
 100
AcDbArc
  50
 102.00000000000
  51
 168.00000000000
   0
ARC
   5
B4
 100
AcDbEntity
   8
0
   6
BYBLOCK
  62
0
 100
AcDbCircle
  10
-0.44488800000000
  20
 0.91335000000000E-1
  30
0.0
  40
 0.45416700000000
 100
AcDbArc
  50
 282.00000000000
  51
 348.00000000000
   0
ENDBLK
   5
B5
 100
AcDbEntity
   8
0
 100
AcDbBlockEnd
   0
BLOCK
   5
B6
 100
AcDbEntity
   8
0
 100
AcDbBlockBegin
   2
*D1
  70
65
  10
0.0
  20
0.0
  30
0.0
   3
*D1
   0
LINE
   5
B7
 100
AcDbEntity
   8
LEVEL001
 100
AcDbLine
   6
CONTINUOUS
  62
3
  10
 203.93675637369
  20
 229.06438214616
  30
0.0
  11
 208.78338209460
  21
 221.77927959909
  31
0.0
   0
LINE
   5
B8
 100
AcDbEntity
   8
LEVEL001
 100
AcDbLine
   6
CONTINUOUS
  62
3
  10
 208.78338209460
  20
 221.77927959909
  30
0.0
  11
 226.78946602137
  21
 194.71381685625
  31
0.0
   0
INSERT
   5
B9
 100
AcDbEntity
   8
LEVEL001
   6
CONTINUOUS
  62
3
 100
AcDbBlockReference
   2
_OPEN30
  10
 213.63000781551
  20
 214.49417705201
  30
0.0
  41
 3.0000000000000
  42
 3.0000000000000
  43
 3.0000000000000
  50
 123.63498856240
   0
MTEXT
   5
BA
 100
AcDbEntity
   8
LEVEL001
  62
3
 100
AcDbMText
  10
 218.74506000948
  20
 209.90053168949
  30
0.0
  40
 4.0000000000000
  41
0.0
  71
7
  72
1
   1
\A1;R17.5
   7
GMM001
  11
 0.55390008238962
  21
-0.83258314823732
  31
0.0
   0
ENDBLK
   5
BB
 100
AcDbEntity
   8
0
 100
AcDbBlockEnd
   0
BLOCK
   5
BC
 100
AcDbEntity
   8
0
 100
AcDbBlockBegin
   2
*D2
  70
65
  10
0.0
  20
0.0
  30
0.0
   3
*D2
   0
POLYLINE
   5
BD
 100
AcDbEntity
   8
LEVEL001
   6
CONTINUOUS
  62
3
 100
AcDb2dPolyline
  66
1
  10
0.0
  20
0.0
  30
0.0
  70
0
   0
VERTEX
   5
BE
 100
AcDbEntity
   8
LEVEL001
   6
CONTINUOUS
  62
3
 100
AcDbVertex
 100
AcDb2dVertex
  10
 211.75137894342
  20
 210.65428507709
  30
0.0
   0
VERTEX
   5
BF
 100
AcDbEntity
   8
LEVEL001
   6
CONTINUOUS
  62
3
 100
AcDbVertex
 100
AcDb2dVertex
  10
 221.57381403205
  20
 186.23523316749
  30
0.0
   0
VERTEX
   5
C0
 100
AcDbEntity
   8
LEVEL001
   6
CONTINUOUS
  62
3
 100
AcDbVertex
 100
AcDb2dVertex
  10
 259.57381403205
  20
 186.23523316749
  30
0.0
   0
SEQEND
   5
C1
 100
AcDbEntity
   8
LEVEL001
   6
CONTINUOUS
  62
3
   0
INSERT
   5
C2
 100
AcDbEntity
   8
LEVEL001
   6
CONTINUOUS
  62
3
 100
AcDbBlockReference
   2
_OPEN30
  10
 211.75137894342
  20
 210.65428507709
  30
0.0
  41
 3.0000000000000
  42
 3.0000000000000
  43
 3.0000000000000
  50
 111.91219764348
   0
MTEXT
   5
C3
 100
AcDbEntity
   8
LEVEL001
  62
3
 100
AcDbMText
  10
 221.57381403205
  20
 187.94951888178
  30
0.0
  40
 4.0000000000000
  41
0.0
  71
7
  72
1
   1
\A1;２－%%c４穴 %%c７.２皿
   7
GMM001
   0
ENDBLK
   5
C4
 100
AcDbEntity
   8
0
 100
AcDbBlockEnd
   0
BLOCK
   5
C5
 100
AcDbEntity
   8
0
 100
AcDbBlockBegin
   2
*D3
  70
65
  10
0.0
  20
0.0
  30
0.0
   3
*D3
   0
LINE
   5
C6
 100
AcDbEntity
   8
LEVEL001
 100
AcDbLine
   6
CONTINUOUS
  62
3
  10
 181.25775318334
  20
 229.06438214616
  30
0.0
  11
 124.96878658644
  21
 229.06438214616
  31
0.0
   0
LINE
   5
C7
 100
AcDbEntity
   8
LEVEL001
 100
AcDbLine
   6
CONTINUOUS
  62
3
  10
 125.96878658644
  20
 186.06438214616
  30
0.0
  11
 125.96878658644
  21
 207.56438214616
  31
0.0
   0
LINE
   5
C8
 100
AcDbEntity
   8
LEVEL001
 100
AcDbLine
   6
CONTINUOUS
  62
3
  10
 125.96878658644
  20
 229.06438214616
  30
0.0
  11
 125.96878658644
  21
 207.56438214616
  31
0.0
   0
INSERT
   5
C9
 100
AcDbEntity
   8
LEVEL001
   6
CONTINUOUS
  62
3
 100
AcDbBlockReference
   2
_OPEN30
  10
 125.96878658644
  20
 186.06438214616
  30
0.0
  41
 3.0000000000000
  42
 3.0000000000000
  43
 3.0000000000000
  50
 270.00000000000
   0
INSERT
   5
CA
 100
AcDbEntity
   8
LEVEL001
   6
CONTINUOUS
  62
3
 100
AcDbBlockReference
   2
_OPEN30
  10
 125.96878658644
  20
 229.06438214616
  30
0.0
  41
 3.0000000000000
  42
 3.0000000000000
  43
 3.0000000000000
  50
 90.000000000000
   0
MTEXT
   5
CB
 100
AcDbEntity
   8
LEVEL001
  62
3
 100
AcDbMText
  10
 124.25450087215
  20
 207.56438214616
  30
0.0
  40
 4.0000000000000
  41
0.0
  71
8
  72
1
   1
\A1;43
   7
GMM001
  11
0.0
  21
 1.0000000000000
  31
0.0
   0
ENDBLK
   5
CC
 100
AcDbEntity
   8
0
 100
AcDbBlockEnd
   0
BLOCK
   5
CD
 100
AcDbEntity
   8
0
 100
AcDbBlockBegin
   2
*D4
  70
65
  10
0.0
  20
0.0
  30
0.0
   3
*D4
   0
POLYLINE
   5
CE
 100
AcDbEntity
   8
LEVEL001
   6
CONTINUOUS
  62
3
 100
AcDb2dPolyline
  66
1
  10
0.0
  20
0.0
  30
0.0
  70
0
   0
VERTEX
   5
CF
 100
AcDbEntity
   8
LEVEL001
   6
CONTINUOUS
  62
3
 100
AcDbVertex
 100
AcDb2dVertex
  10
 91.449188202177
  20
 147.06438214616
  30
0.0
   0
VERTEX
   5
D0
 100
AcDbEntity
   8
LEVEL001
   6
CONTINUOUS
  62
3
 100
AcDbVertex
 100
AcDb2dVertex
  10
 101.27162329080
  20
 122.64533023656
  30
0.0
   0
VERTEX
   5
D1
 100
AcDbEntity
   8
LEVEL001
   6
CONTINUOUS
  62
3
 100
AcDbVertex
 100
AcDb2dVertex
  10
 125.97162329080
  20
 122.64533023656
  30
0.0
   0
SEQEND
   5
D2
 100
AcDbEntity
   8
LEVEL001
   6
CONTINUOUS
  62
3
   0
INSERT
   5
D3
 100
AcDbEntity
   8
LEVEL001
   6
CONTINUOUS
  62
3
 100
AcDbBlockReference
   2
_OPEN30
  10
 91.449188202177
  20
 147.06438214616
  30
0.0
  41
 3.0000000000000
  42
 3.0000000000000
  43
 3.0000000000000
  50
 111.91219764348
   0
MTEXT
   5
D4
 100
AcDbEntity
   8
LEVEL001
  62
3
 100
AcDbMText
  10
 101.27162329080
  20
 124.35961595085
  30
0.0
  40
 4.0000000000000
  41
0.0
  71
7
  72
1
   1
\A1;４－%%c４.５穴
   7
GMM001
   0
ENDBLK
   5
D5
 100
AcDbEntity
   8
0
 100
AcDbBlockEnd
   0
BLOCK
   5
D6
 100
AcDbEntity
   8
0
 100
AcDbBlockBegin
   2
*D5
  70
65
  10
0.0
  20
0.0
  30
0.0
   3
*D5
   0
LINE
   5
D7
 100
AcDbEntity
   8
LEVEL001
 100
AcDbLine
   6
CONTINUOUS
  62
3
  10
 142.93675637369
  20
 186.06438214616
  30
0.0
  11
 124.96878658644
  21
 186.06438214616
  31
0.0
   0
LINE
   5
D8
 100
AcDbEntity
   8
LEVEL001
 100
AcDbLine
   6
CONTINUOUS
  62
3
  10
 142.93675637369
  20
 142.06438214616
  30
0.0
  11
 124.96878658644
  21
 142.06438214616
  31
0.0
   0
LINE
   5
D9
 100
AcDbEntity
   8
LEVEL001
 100
AcDbLine
   6
CONTINUOUS
  62
3
  10
 125.96878658644
  20
 186.06438214616
  30
0.0
  11
 125.96878658644
  21
 164.06438214616
  31
0.0
   0
LINE
   5
DA
 100
AcDbEntity
   8
LEVEL001
 100
AcDbLine
   6
CONTINUOUS
  62
3
  10
 125.96878658644
  20
 142.06438214616
  30
0.0
  11
 125.96878658644
  21
 164.06438214616
  31
0.0
   0
INSERT
   5
DB
 100
AcDbEntity
   8
LEVEL001
   6
CONTINUOUS
  62
3
 100
AcDbBlockReference
   2
_OPEN30
  10
 125.96878658644
  20
 186.06438214616
  30
0.0
  41
 3.0000000000000
  42
 3.0000000000000
  43
 3.0000000000000
  50
 90.000000000000
   0
INSERT
   5
DC
 100
AcDbEntity
   8
LEVEL001
   6
CONTINUOUS
  62
3
 100
AcDbBlockReference
   2
_OPEN30
  10
 125.96878658644
  20
 142.06438214616
  30
0.0
  41
 3.0000000000000
  42
 3.0000000000000
  43
 3.0000000000000
  50
 270.00000000000
   0
MTEXT
   5
DD
 100
AcDbEntity
   8
LEVEL001
  62
3
 100
AcDbMText
  10
 124.25450087215
  20
 164.06438214616
  30
0.0
  40
 4.0000000000000
  41
0.0
  71
8
  72
1
   1
\A1;44
   7
GMM001
  11
0.0
  21
 1.0000000000000
  31
0.0
   0
ENDBLK
   5
DE
 100
AcDbEntity
   8
0
 100
AcDbBlockEnd
   0
BLOCK
   5
DF
 100
AcDbEntity
   8
0
 100
AcDbBlockBegin
   2
*D6
  70
65
  10
0.0
  20
0.0
  30
0.0
   3
*D6
   0
LINE
   5
E0
 100
AcDbEntity
   8
LEVEL001
 100
AcDbLine
   6
CONTINUOUS
  62
3
  10
 98.966125457698
  20
 170.06438214616
  30
0.0
  11
 114.19711525128
  21
 170.06438214616
  31
0.0
   0
LINE
   5
E1
 100
AcDbEntity
   8
LEVEL001
 100
AcDbLine
   6
CONTINUOUS
  62
3
  10
 113.19711525128
  20
 170.06438214616
  30
0.0
  11
 113.19711525128
  21
 158.56438214616
  31
0.0
   0
LINE
   5
E2
 100
AcDbEntity
   8
LEVEL001
 100
AcDbLine
   6
CONTINUOUS
  62
3
  10
 113.19711525128
  20
 147.06438214616
  30
0.0
  11
 113.19711525128
  21
 158.56438214616
  31
0.0
   0
INSERT
   5
E3
 100
AcDbEntity
   8
LEVEL001
   6
CONTINUOUS
  62
3
 100
AcDbBlockReference
   2
_OPEN30
  10
 113.19711525128
  20
 170.06438214616
  30
0.0
  41
 3.0000000000000
  42
 3.0000000000000
  43
 3.0000000000000
  50
 90.000000000000
   0
INSERT
   5
E4
 100
AcDbEntity
   8
LEVEL001
   6
CONTINUOUS
  62
3
 100
AcDbBlockReference
   2
_OPEN30
  10
 113.19711525128
  20
 147.06438214616
  30
0.0
  41
 3.0000000000000
  42
 3.0000000000000
  43
 3.0000000000000
  50
 270.00000000000
   0
MTEXT
   5
E5
 100
AcDbEntity
   8
LEVEL001
  62
3
 100
AcDbMText
  10
 111.48282953700
  20
 158.56438214616
  30
0.0
  40
 4.0000000000000
  41
0.0
  71
8
  72
1
   1
\A1;23
   7
GMM001
  11
0.0
  21
 1.0000000000000
  31
0.0
   0
ENDBLK
   5
E6
 100
AcDbEntity
   8
0
 100
AcDbBlockEnd
   0
BLOCK
   5
E7
 100
AcDbEntity
   8
0
 100
AcDbBlockBegin
   2
*D7
  70
65
  10
0.0
  20
0.0
  30
0.0
   3
*D7
   0
LINE
   5
E8
 100
AcDbEntity
   8
LEVEL001
 100
AcDbLine
   6
CONTINUOUS
  62
3
  10
 97.699188202174
  20
 186.06438214616
  30
0.0
  11
 114.19711525128
  21
 186.06438214616
  31
0.0
   0
LINE
   5
E9
 100
AcDbEntity
   8
LEVEL001
 100
AcDbLine
   6
CONTINUOUS
  62
3
  10
 113.19711525128
  20
 186.06438214616
  30
0.0
  11
 113.19711525128
  21
 178.06438214616
  31
0.0
   0
LINE
   5
EA
 100
AcDbEntity
   8
LEVEL001
 100
AcDbLine
   6
CONTINUOUS
  62
3
  10
 113.19711525128
  20
 170.06438214616
  30
0.0
  11
 113.19711525128
  21
 178.06438214616
  31
0.0
   0
INSERT
   5
EB
 100
AcDbEntity
   8
LEVEL001
   6
CONTINUOUS
  62
3
 100
AcDbBlockReference
   2
_OPEN30
  10
 113.19711525128
  20
 186.06438214616
  30
0.0
  41
 3.0000000000000
  42
 3.0000000000000
  43
 3.0000000000000
  50
 90.000000000000
   0
INSERT
   5
EC
 100
AcDbEntity
   8
LEVEL001
   6
CONTINUOUS
  62
3
 100
AcDbBlockReference
   2
_OPEN30
  10
 113.19711525128
  20
 170.06438214616
  30
0.0
  41
 3.0000000000000
  42
 3.0000000000000
  43
 3.0000000000000
  50
 270.00000000000
   0
MTEXT
   5
ED
 100
AcDbEntity
   8
LEVEL001
  62
3
 100
AcDbMText
  10
 111.48282953700
  20
 178.06438214616
  30
0.0
  40
 4.0000000000000
  41
0.0
  71
8
  72
1
   1
\A1;16
   7
GMM001
  11
0.0
  21
 1.0000000000000
  31
0.0
   0
ENDBLK
   5
EE
 100
AcDbEntity
   8
0
 100
AcDbBlockEnd
   0
BLOCK
   5
EF
 100
AcDbEntity
   8
0
 100
AcDbBlockBegin
   2
*D8
  70
65
  10
0.0
  20
0.0
  30
0.0
   3
*D8
   0
LINE
   5
F0
 100
AcDbEntity
   8
LEVEL001
 100
AcDbLine
   6
CONTINUOUS
  62
3
  10
 97.699188202174
  20
 142.06438214616
  30
0.0
  11
 114.19711525128
  21
 142.06438214616
  31
0.0
   0
LINE
   5
F1
 100
AcDbEntity
   8
LEVEL001
 100
AcDbLine
   6
CONTINUOUS
  62
3
  10
 98.966125457698
  20
 147.06438214616
  30
0.0
  11
 114.19711525128
  21
 147.06438214616
  31
0.0
   0
LINE
   5
F2
 100
AcDbEntity
   8
LEVEL001
 100
AcDbLine
   6
CONTINUOUS
  62
3
  10
 113.19711525128
  20
 138.31438214616
  30
0.0
  11
 113.19711525128
  21
 144.56438214616
  31
0.0
   0
LINE
   5
F3
 100
AcDbEntity
   8
LEVEL001
 100
AcDbLine
   6
CONTINUOUS
  62
3
  10
 113.19711525128
  20
 150.81438214616
  30
0.0
  11
 113.19711525128
  21
 144.56438214616
  31
0.0
   0
INSERT
   5
F4
 100
AcDbEntity
   8
LEVEL001
   6
CONTINUOUS
  62
3
 100
AcDbBlockReference
   2
_OPEN30
  10
 113.19711525128
  20
 142.06438214616
  30
0.0
  41
 3.0000000000000
  42
 3.0000000000000
  43
 3.0000000000000
  50
 90.000000000000
   0
INSERT
   5
F5
 100
AcDbEntity
   8
LEVEL001
   6
CONTINUOUS
  62
3
 100
AcDbBlockReference
   2
_OPEN30
  10
 113.19711525128
  20
 147.06438214616
  30
0.0
  41
 3.0000000000000
  42
 3.0000000000000
  43
 3.0000000000000
  50
 270.00000000000
   0
MTEXT
   5
F6
 100
AcDbEntity
   8
LEVEL001
  62
3
 100
AcDbMText
  10
 111.48282953700
  20
 144.56438214616
  30
0.0
  40
 4.0000000000000
  41
0.0
  71
8
  72
1
   1
\A1;5
   7
GMM001
  11
0.0
  21
 1.0000000000000
  31
0.0
   0
ENDBLK
   5
F7
 100
AcDbEntity
   8
0
 100
AcDbBlockEnd
   0
BLOCK
   5
F8
 100
AcDbEntity
   8
0
 100
AcDbBlockBegin
   2
*D9
  70
65
  10
0.0
  20
0.0
  30
0.0
   3
*D9
   0
LINE
   5
F9
 100
AcDbEntity
   8
LEVEL001
 100
AcDbLine
   6
CONTINUOUS
  62
3
  10
 143.93675637369
  20
 141.06438214616
  30
0.0
  11
 143.93675637369
  21
 124.69209218386
  31
0.0
   0
LINE
   5
FA
 100
AcDbEntity
   8
LEVEL001
 100
AcDbLine
   6
CONTINUOUS
  62
3
  10
 153.93675637369
  20
 141.06438214616
  30
0.0
  11
 153.93675637369
  21
 124.69209218386
  31
0.0
   0
LINE
   5
FB
 100
AcDbEntity
   8
LEVEL001
 100
AcDbLine
   6
CONTINUOUS
  62
3
  10
 143.93675637369
  20
 125.69209218386
  30
0.0
  11
 148.93675637369
  21
 125.69209218386
  31
0.0
   0
LINE
   5
FC
 100
AcDbEntity
   8
LEVEL001
 100
AcDbLine
   6
CONTINUOUS
  62
3
  10
 153.93675637369
  20
 125.69209218386
  30
0.0
  11
 148.93675637369
  21
 125.69209218386
  31
0.0
   0
INSERT
   5
FD
 100
AcDbEntity
   8
LEVEL001
   6
CONTINUOUS
  62
3
 100
AcDbBlockReference
   2
_OPEN30
  10
 143.93675637369
  20
 125.69209218386
  30
0.0
  41
 3.0000000000000
  42
 3.0000000000000
  43
 3.0000000000000
  50
 180.00000000000
   0
INSERT
   5
FE
 100
AcDbEntity
   8
LEVEL001
   6
CONTINUOUS
  62
3
 100
AcDbBlockReference
   2
_OPEN30
  10
 153.93675637369
  20
 125.69209218386
  30
0.0
  41
 3.0000000000000
  42
 3.0000000000000
  43
 3.0000000000000
  50
0.0
   0
MTEXT
   5
FF
 100
AcDbEntity
   8
LEVEL001
  62
3
 100
AcDbMText
  10
 148.72218739792
  20
 127.76334442890
  30
0.0
  40
 4.0000000000000
  41
0.0
  71
8
  72
1
   1
\A1;10
   7
GMM001
   0
ENDBLK
   5
100
 100
AcDbEntity
   8
0
 100
AcDbBlockEnd
   0
BLOCK
   5
101
 100
AcDbEntity
   8
0
 100
AcDbBlockBegin
   2
*D10
  70
65
  10
0.0
  20
0.0
  30
0.0
   3
*D10
   0
LINE
   5
102
 100
AcDbEntity
   8
LEVEL001
 100
AcDbLine
   6
CONTINUOUS
  62
3
  10
 72.699188202174
  20
 141.06438214616
  30
0.0
  11
 72.699188202174
  21
 115.55034614111
  31
0.0
   0
LINE
   5
103
 100
AcDbEntity
   8
LEVEL001
 100
AcDbLine
   6
CONTINUOUS
  62
3
  10
 96.699188202174
  20
 141.06438214616
  30
0.0
  11
 96.699188202174
  21
 115.55034614111
  31
0.0
   0
LINE
   5
104
 100
AcDbEntity
   8
LEVEL001
 100
AcDbLine
   6
CONTINUOUS
  62
3
  10
 72.699188202174
  20
 116.55034614111
  30
0.0
  11
 84.699188202174
  21
 116.55034614111
  31
0.0
   0
LINE
   5
105
 100
AcDbEntity
   8
LEVEL001
 100
AcDbLine
   6
CONTINUOUS
  62
3
  10
 96.699188202174
  20
 116.55034614111
  30
0.0
  11
 84.699188202174
  21
 116.55034614111
  31
0.0
   0
INSERT
   5
106
 100
AcDbEntity
   8
LEVEL001
   6
CONTINUOUS
  62
3
 100
AcDbBlockReference
   2
_OPEN30
  10
 72.699188202174
  20
 116.55034614111
  30
0.0
  41
 3.0000000000000
  42
 3.0000000000000
  43
 3.0000000000000
  50
 180.00000000000
   0
INSERT
   5
107
 100
AcDbEntity
   8
LEVEL001
   6
CONTINUOUS
  62
3
 100
AcDbBlockReference
   2
_OPEN30
  10
 96.699188202174
  20
 116.55034614111
  30
0.0
  41
 3.0000000000000
  42
 3.0000000000000
  43
 3.0000000000000
  50
0.0
   0
MTEXT
   5
108
 100
AcDbEntity
   8
LEVEL001
  62
3
 100
AcDbMText
  10
 84.699188202174
  20
 118.26463185539
  30
0.0
  40
 4.0000000000000
  41
0.0
  71
8
  72
1
   1
\A1;24
   7
GMM001
   0
ENDBLK
   5
109
 100
AcDbEntity
   8
0
 100
AcDbBlockEnd
   0
BLOCK
   5
10A
 100
AcDbEntity
   8
0
 100
AcDbBlockBegin
   2
*D11
  70
65
  10
0.0
  20
0.0
  30
0.0
   3
*D11
   0
LINE
   5
10B
 100
AcDbEntity
   8
LEVEL001
 100
AcDbLine
   6
CONTINUOUS
  62
3
  10
 178.09629587355
  20
 186.06438214616
  30
0.0
  11
 179.09629587355
  21
 186.06438214616
  31
0.0
   0
LINE
   5
10C
 100
AcDbEntity
   8
LEVEL001
 100
AcDbLine
   6
CONTINUOUS
  62
3
  10
 178.09629587355
  20
 178.06438214616
  30
0.0
  11
 179.09629587355
  21
 178.06438214616
  31
0.0
   0
LINE
   5
10D
 100
AcDbEntity
   8
LEVEL001
 100
AcDbLine
   6
CONTINUOUS
  62
3
  10
 178.09629587355
  20
 186.06438214616
  30
0.0
  11
 178.09629587355
  21
 182.06438214616
  31
0.0
   0
LINE
   5
10E
 100
AcDbEntity
   8
LEVEL001
 100
AcDbLine
   6
CONTINUOUS
  62
3
  10
 178.09629587355
  20
 178.06438214616
  30
0.0
  11
 178.09629587355
  21
 182.06438214616
  31
0.0
   0
INSERT
   5
10F
 100
AcDbEntity
   8
LEVEL001
   6
CONTINUOUS
  62
3
 100
AcDbBlockReference
   2
_OPEN30
  10
 178.09629587355
  20
 186.06438214616
  30
0.0
  41
 3.0000000000000
  42
 3.0000000000000
  43
 3.0000000000000
  50
 90.000000000000
   0
INSERT
   5
110
 100
AcDbEntity
   8
LEVEL001
   6
CONTINUOUS
  62
3
 100
AcDbBlockReference
   2
_OPEN30
  10
 178.09629587355
  20
 178.06438214616
  30
0.0
  41
 3.0000000000000
  42
 3.0000000000000
  43
 3.0000000000000
  50
 270.00000000000
   0
MTEXT
   5
111
 100
AcDbEntity
   8
LEVEL001
  62
3
 100
AcDbMText
  10
 176.38201015926
  20
 182.06438214616
  30
0.0
  40
 4.0000000000000
  41
0.0
  71
8
  72
1
   1
\A1;8
   7
GMM001
  11
0.0
  21
 1.0000000000000
  31
0.0
   0
ENDBLK
   5
112
 100
AcDbEntity
   8
0
 100
AcDbBlockEnd
   0
BLOCK
   5
113
 100
AcDbEntity
   8
0
 100
AcDbBlockBegin
   2
*D12
  70
65
  10
0.0
  20
0.0
  30
0.0
   3
*D12
   0
LINE
   5
114
 100
AcDbEntity
   8
LEVEL001
 100
AcDbLine
   6
CONTINUOUS
  62
3
  10
 200.93675637369
  20
 196.61137253684
  30
0.0
  11
 200.93675637369
  21
 195.61137253684
  31
0.0
   0
LINE
   5
115
 100
AcDbEntity
   8
LEVEL001
 100
AcDbLine
   6
CONTINUOUS
  62
3
  10
 206.93675637369
  20
 196.61137253684
  30
0.0
  11
 206.93675637369
  21
 195.61137253684
  31
0.0
   0
LINE
   5
116
 100
AcDbEntity
   8
LEVEL001
 100
AcDbLine
   6
CONTINUOUS
  62
3
  10
 197.18675637369
  20
 196.61137253684
  30
0.0
  11
 203.93675637369
  21
 196.61137253684
  31
0.0
   0
LINE
   5
117
 100
AcDbEntity
   8
LEVEL001
 100
AcDbLine
   6
CONTINUOUS
  62
3
  10
 210.68675637369
  20
 196.61137253684
  30
0.0
  11
 203.93675637369
  21
 196.61137253684
  31
0.0
   0
INSERT
   5
118
 100
AcDbEntity
   8
LEVEL001
   6
CONTINUOUS
  62
3
 100
AcDbBlockReference
   2
_OPEN30
  10
 200.93675637369
  20
 196.61137253684
  30
0.0
  41
 3.0000000000000
  42
 3.0000000000000
  43
 3.0000000000000
  50
0.0
   0
INSERT
   5
119
 100
AcDbEntity
   8
LEVEL001
   6
CONTINUOUS
  62
3
 100
AcDbBlockReference
   2
_OPEN30
  10
 206.93675637369
  20
 196.61137253684
  30
0.0
  41
 3.0000000000000
  42
 3.0000000000000
  43
 3.0000000000000
  50
 180.00000000000
   0
MTEXT
   5
11A
 100
AcDbEntity
   8
LEVEL001
  62
3
 100
AcDbMText
  10
 203.93675637369
  20
 198.32565825112
  30
0.0
  40
 4.0000000000000
  41
0.0
  71
8
  72
1
   1
\A1;6
   7
GMM001
   0
ENDBLK
   5
11B
 100
AcDbEntity
   8
0
 100
AcDbBlockEnd
   0
BLOCK
   5
11C
 100
AcDbEntity
   8
0
 100
AcDbBlockBegin
   2
*D13
  70
65
  10
0.0
  20
0.0
  30
0.0
   3
*D13
   0
LINE
   5
11D
 100
AcDbEntity
   8
LEVEL001
 100
AcDbLine
   6
CONTINUOUS
  62
3
  10
 188.87875182470
  20
 200.86972665963
  30
0.0
  11
 199.18785904352
  21
 207.68827029087
  31
0.0
   0
LINE
   5
11E
 100
AcDbEntity
   8
LEVEL001
 100
AcDbLine
   6
CONTINUOUS
  62
3
  10
 199.18785904352
  20
 207.68827029087
  30
0.0
  11
 200.43896171334
  21
 208.51576174676
  31
0.0
   0
INSERT
   5
11F
 100
AcDbEntity
   8
LEVEL001
   6
CONTINUOUS
  62
3
 100
AcDbBlockReference
   2
_OPEN30
  10
 200.43896171334
  20
 208.51576174676
  30
0.0
  41
 3.0000000000000
  42
 3.0000000000000
  43
 3.0000000000000
  50
 33.481037275554
   0
MTEXT
   5
120
 100
AcDbEntity
   8
LEVEL001
  62
3
 100
AcDbMText
  10
 194.27196749746
  20
 206.49218165876
  30
0.0
  40
 4.0000000000000
  41
0.0
  71
9
  72
1
   1
\A1;R3
   7
GMM001
  11
 0.83406844654934
  21
 0.55166097058861
  31
0.0
   0
ENDBLK
   5
121
 100
AcDbEntity
   8
0
 100
AcDbBlockEnd
   0
BLOCK
   5
122
 100
AcDbEntity
   8
0
 100
AcDbBlockBegin
   2
*D14
  70
65
  10
0.0
  20
0.0
  30
0.0
   3
*D14
   0
LINE
   5
123
 100
AcDbEntity
   8
LEVEL001
 100
AcDbLine
   6
CONTINUOUS
  62
3
  10
 191.93675637369
  20
 217.09910425023
  30
0.0
  11
 191.93675637369
  21
 240.94791808846
  31
0.0
   0
LINE
   5
124
 100
AcDbEntity
   8
LEVEL001
 100
AcDbLine
   6
CONTINUOUS
  62
3
  10
 215.93675637369
  20
 217.13602977107
  30
0.0
  11
 215.93675637369
  21
 240.94791808846
  31
0.0
   0
LINE
   5
125
 100
AcDbEntity
   8
LEVEL001
 100
AcDbLine
   6
CONTINUOUS
  62
3
  10
 191.93675637369
  20
 239.94791808846
  30
0.0
  11
 203.93675637369
  21
 239.94791808846
  31
0.0
   0
LINE
   5
126
 100
AcDbEntity
   8
LEVEL001
 100
AcDbLine
   6
CONTINUOUS
  62
3
  10
 215.93675637369
  20
 239.94791808846
  30
0.0
  11
 203.93675637369
  21
 239.94791808846
  31
0.0
   0
INSERT
   5
127
 100
AcDbEntity
   8
LEVEL001
   6
CONTINUOUS
  62
3
 100
AcDbBlockReference
   2
_OPEN30
  10
 191.93675637369
  20
 239.94791808846
  30
0.0
  41
 3.0000000000000
  42
 3.0000000000000
  43
 3.0000000000000
  50
 180.00000000000
   0
INSERT
   5
128
 100
AcDbEntity
   8
LEVEL001
   6
CONTINUOUS
  62
3
 100
AcDbBlockReference
   2
_OPEN30
  10
 215.93675637369
  20
 239.94791808846
  30
0.0
  41
 3.0000000000000
  42
 3.0000000000000
  43
 3.0000000000000
  50
0.0
   0
MTEXT
   5
129
 100
AcDbEntity
   8
LEVEL001
  62
3
 100
AcDbMText
  10
 203.93675637369
  20
 241.66220380274
  30
0.0
  40
 4.0000000000000
  41
0.0
  71
8
  72
1
   1
\A1;24
   7
GMM001
   0
ENDBLK
   5
12A
 100
AcDbEntity
   8
0
 100
AcDbBlockEnd
   0
BLOCK
   5
12B
 100
AcDbEntity
   8
0
 100
AcDbBlockBegin
   2
*D15
  70
65
  10
0.0
  20
0.0
  30
0.0
   3
*D15
   0
LINE
   5
12C
 100
AcDbEntity
   8
LEVEL001
 100
AcDbLine
   6
CONTINUOUS
  62
3
  10
 272.90322605354
  20
 142.56438214616
  30
0.0
  11
 272.71444006471
  21
 142.40049239535
  31
0.0
   0
LINE
   5
12D
 100
AcDbEntity
   8
LEVEL001
 100
AcDbLine
   6
CONTINUOUS
  62
3
  10
 272.71444006471
  20
 142.40049239535
  30
0.0
  11
 260.56136486891
  21
 131.85010950985
  31
0.0
   0
INSERT
   5
12E
 100
AcDbEntity
   8
LEVEL001
   6
CONTINUOUS
  62
3
 100
AcDbBlockReference
   2
_OPEN30
  10
 272.52565407589
  20
 142.23660264453
  30
0.0
  41
 3.0000000000000
  42
 3.0000000000000
  43
 3.0000000000000
  50
 40.962050143995
   0
MTEXT
   5
12F
 100
AcDbEntity
   8
LEVEL001
  62
3
 100
AcDbMText
  10
 269.48096404021
  20
 141.86357674820
  30
0.0
  40
 4.0000000000000
  41
0.0
  71
9
  72
1
   1
\A1;R0.5
   7
GMM001
  11
 0.75514395529979
  21
 0.65555900327445
  31
0.0
   0
ENDBLK
   5
130
 100
AcDbEntity
   8
0
 100
AcDbBlockEnd
   0
BLOCK
   5
131
 100
AcDbEntity
   8
0
 100
AcDbBlockBegin
   2
*D16
  70
65
  10
0.0
  20
0.0
  30
0.0
   3
*D16
   0
LINE
   5
132
 100
AcDbEntity
   8
LEVEL001
 100
AcDbLine
   6
CONTINUOUS
  62
3
  10
 68.199188202174
  20
 217.55697584057
  30
0.0
  11
 68.199188202174
  21
 233.06053031248
  31
0.0
   0
LINE
   5
133
 100
AcDbEntity
   8
LEVEL001
 100
AcDbLine
   6
CONTINUOUS
  62
3
  10
 101.19918820217
  20
 217.55697584057
  30
0.0
  11
 101.19918820217
  21
 233.06053031248
  31
0.0
   0
LINE
   5
134
 100
AcDbEntity
   8
LEVEL001
 100
AcDbLine
   6
CONTINUOUS
  62
3
  10
 68.199188202174
  20
 232.06053031248
  30
0.0
  11
 84.699188202174
  21
 232.06053031248
  31
0.0
   0
LINE
   5
135
 100
AcDbEntity
   8
LEVEL001
 100
AcDbLine
   6
CONTINUOUS
  62
3
  10
 101.19918820217
  20
 232.06053031248
  30
0.0
  11
 84.699188202174
  21
 232.06053031248
  31
0.0
   0
INSERT
   5
136
 100
AcDbEntity
   8
LEVEL001
   6
CONTINUOUS
  62
3
 100
AcDbBlockReference
   2
_OPEN30
  10
 68.199188202174
  20
 232.06053031248
  30
0.0
  41
 3.0000000000000
  42
 3.0000000000000
  43
 3.0000000000000
  50
 180.00000000000
   0
INSERT
   5
137
 100
AcDbEntity
   8
LEVEL001
   6
CONTINUOUS
  62
3
 100
AcDbBlockReference
   2
_OPEN30
  10
 101.19918820217
  20
 232.06053031248
  30
0.0
  41
 3.0000000000000
  42
 3.0000000000000
  43
 3.0000000000000
  50
0.0
   0
MTEXT
   5
138
 100
AcDbEntity
   8
LEVEL001
  62
3
 100
AcDbMText
  10
 84.699188202174
  20
 233.77481602676
  30
0.0
  40
 4.0000000000000
  41
0.0
  71
8
  72
1
   1
\A1;33
   7
GMM001
   0
ENDBLK
   5
139
 100
AcDbEntity
   8
0
 100
AcDbBlockEnd
   0
BLOCK
   5
13A
 100
AcDbEntity
   8
0
 100
AcDbBlockBegin
   2
*D17
  70
65
  10
0.0
  20
0.0
  30
0.0
   3
*D17
   0
LINE
   5
13B
 100
AcDbEntity
   8
LEVEL001
 100
AcDbLine
   6
CONTINUOUS
  62
3
  10
 63.699188202174
  20
 215.63690399718
  30
0.0
  11
 63.699188202174
  21
 242.71906689784
  31
0.0
   0
LINE
   5
13C
 100
AcDbEntity
   8
LEVEL001
 100
AcDbLine
   6
CONTINUOUS
  62
3
  10
 105.69918820217
  20
 215.63690399718
  30
0.0
  11
 105.69918820217
  21
 242.71906689784
  31
0.0
   0
LINE
   5
13D
 100
AcDbEntity
   8
LEVEL001
 100
AcDbLine
   6
CONTINUOUS
  62
3
  10
 63.699188202174
  20
 241.71906689784
  30
0.0
  11
 84.699188202174
  21
 241.71906689784
  31
0.0
   0
LINE
   5
13E
 100
AcDbEntity
   8
LEVEL001
 100
AcDbLine
   6
CONTINUOUS
  62
3
  10
 105.69918820217
  20
 241.71906689784
  30
0.0
  11
 84.699188202174
  21
 241.71906689784
  31
0.0
   0
INSERT
   5
13F
 100
AcDbEntity
   8
LEVEL001
   6
CONTINUOUS
  62
3
 100
AcDbBlockReference
   2
_OPEN30
  10
 63.699188202174
  20
 241.71906689784
  30
0.0
  41
 3.0000000000000
  42
 3.0000000000000
  43
 3.0000000000000
  50
 180.00000000000
   0
INSERT
   5
140
 100
AcDbEntity
   8
LEVEL001
   6
CONTINUOUS
  62
3
 100
AcDbBlockReference
   2
_OPEN30
  10
 105.69918820217
  20
 241.71906689784
  30
0.0
  41
 3.0000000000000
  42
 3.0000000000000
  43
 3.0000000000000
  50
0.0
   0
MTEXT
   5
141
 100
AcDbEntity
   8
LEVEL001
  62
3
 100
AcDbMText
  10
 84.699188202174
  20
 243.43335261213
  30
0.0
  40
 4.0000000000000
  41
0.0
  71
8
  72
1
   1
\A1;42
   7
GMM001
   0
ENDBLK
   5
142
 100
AcDbEntity
   8
0
 100
AcDbBlockEnd
   0
BLOCK
   5
143
 100
AcDbEntity
   8
0
 100
AcDbBlockBegin
   2
*D18
  70
65
  10
0.0
  20
0.0
  30
0.0
   3
*D18
   0
LINE
   5
144
 100
AcDbEntity
   8
LEVEL001
 100
AcDbLine
   6
CONTINUOUS
  62
3
  10
 143.93675637369
  20
 123.50816521788
  30
0.0
  11
 143.93675637369
  21
 115.55034614111
  31
0.0
   0
LINE
   5
145
 100
AcDbEntity
   8
LEVEL001
 100
AcDbLine
   6
CONTINUOUS
  62
3
  10
 203.93675637369
  20
 140.96744101112
  30
0.0
  11
 203.93675637369
  21
 115.55034614111
  31
0.0
   0
LINE
   5
146
 100
AcDbEntity
   8
LEVEL001
 100
AcDbLine
   6
CONTINUOUS
  62
3
  10
 143.93675637369
  20
 116.55034614111
  30
0.0
  11
 173.93675637369
  21
 116.55034614111
  31
0.0
   0
LINE
   5
147
 100
AcDbEntity
   8
LEVEL001
 100
AcDbLine
   6
CONTINUOUS
  62
3
  10
 203.93675637369
  20
 116.55034614111
  30
0.0
  11
 173.93675637369
  21
 116.55034614111
  31
0.0
   0
INSERT
   5
148
 100
AcDbEntity
   8
LEVEL001
   6
CONTINUOUS
  62
3
 100
AcDbBlockReference
   2
_OPEN30
  10
 143.93675637369
  20
 116.55034614111
  30
0.0
  41
 3.0000000000000
  42
 3.0000000000000
  43
 3.0000000000000
  50
 180.00000000000
   0
INSERT
   5
149
 100
AcDbEntity
   8
LEVEL001
   6
CONTINUOUS
  62
3
 100
AcDbBlockReference
   2
_OPEN30
  10
 203.93675637369
  20
 116.55034614111
  30
0.0
  41
 3.0000000000000
  42
 3.0000000000000
  43
 3.0000000000000
  50
0.0
   0
MTEXT
   5
14A
 100
AcDbEntity
   8
LEVEL001
  62
3
 100
AcDbMText
  10
 173.93675637369
  20
 118.26463185539
  30
0.0
  40
 4.0000000000000
  41
0.0
  71
8
  72
1
   1
\A1;60
   7
GMM001
   0
ENDBLK
   5
14B
 100
AcDbEntity
   8
0
 100
AcDbBlockEnd
   0
BLOCK
   5
14C
 100
AcDbEntity
   8
0
 100
AcDbBlockBegin
   2
*D19
  70
65
  10
0.0
  20
0.0
  30
0.0
   3
*D19
   0
LINE
   5
14D
 100
AcDbEntity
   8
LEVEL001
 100
AcDbLine
   6
CONTINUOUS
  62
3
  10
 77.949188202174
  20
 138.91382800217
  30
0.0
  11
 77.949188202174
  21
 124.69209218386
  31
0.0
   0
LINE
   5
14E
 100
AcDbEntity
   8
LEVEL001
 100
AcDbLine
   6
CONTINUOUS
  62
3
  10
 91.449188202174
  20
 138.67900086131
  30
0.0
  11
 91.449188202174
  21
 124.69209218386
  31
0.0
   0
LINE
   5
14F
 100
AcDbEntity
   8
LEVEL001
 100
AcDbLine
   6
CONTINUOUS
  62
3
  10
 77.949188202174
  20
 125.69209218386
  30
0.0
  11
 84.699188202174
  21
 125.69209218386
  31
0.0
   0
LINE
   5
150
 100
AcDbEntity
   8
LEVEL001
 100
AcDbLine
   6
CONTINUOUS
  62
3
  10
 91.592061333778
  20
 125.69209218386
  30
0.0
  11
 84.699188202174
  21
 125.69209218386
  31
0.0
   0
INSERT
   5
151
 100
AcDbEntity
   8
LEVEL001
   6
CONTINUOUS
  62
3
 100
AcDbBlockReference
   2
_OPEN30
  10
 77.949188202174
  20
 125.69209218386
  30
0.0
  41
 3.0000000000000
  42
 3.0000000000000
  43
 3.0000000000000
  50
 180.00000000000
   0
INSERT
   5
152
 100
AcDbEntity
   8
LEVEL001
   6
CONTINUOUS
  62
3
 100
AcDbBlockReference
   2
_OPEN30
  10
 91.449188202174
  20
 125.69209218386
  30
0.0
  41
 3.0000000000000
  42
 3.0000000000000
  43
 3.0000000000000
  50
0.0
   0
MTEXT
   5
153
 100
AcDbEntity
   8
LEVEL001
  62
3
 100
AcDbMText
  10
 84.942061333778
  20
 127.55450554361
  30
0.0
  40
 4.0000000000000
  41
0.0
  71
8
  72
1
   1
\A1;13.5
   7
GMM001
   0
ENDBLK
   5
154
 100
AcDbEntity
   8
0
 100
AcDbBlockEnd
   0
BLOCK
   5
155
 100
AcDbEntity
   8
0
 100
AcDbBlockBegin
   2
*D20
  70
65
  10
0.0
  20
0.0
  30
0.0
   3
*D20
   0
LINE
   5
156
 100
AcDbEntity
   8
LEVEL001
 100
AcDbLine
   6
CONTINUOUS
  62
3
  10
 214.93675637369
  20
 97.887231626443
  30
0.0
  11
 215.30346895449
  21
 98.227116729208
  31
0.0
   0
LINE
   5
157
 100
AcDbEntity
   8
LEVEL001
 100
AcDbLine
   6
CONTINUOUS
  62
3
  10
 215.30346895449
  20
 98.227116729208
  30
0.0
  11
 225.23333208010
  21
 107.43054395144
  31
0.0
   0
INSERT
   5
158
 100
AcDbEntity
   8
LEVEL001
   6
CONTINUOUS
  62
3
 100
AcDbBlockReference
   2
_OPEN30
  10
 215.67018153530
  20
 98.567001831973
  30
0.0
  41
 3.0000000000000
  42
 3.0000000000000
  43
 3.0000000000000
  50
 222.82568870216
   0
MTEXT
   5
159
 100
AcDbEntity
   8
LEVEL001
  62
3
 100
AcDbMText
  10
 218.49398049957
  20
 103.52159066645
  30
0.0
  40
 4.0000000000000
  41
0.0
  71
7
  72
1
   1
\A1;R1
   7
GMM001
  11
 0.73342516160393
  21
 0.67977020552997
  31
0.0
   0
ENDBLK
   5
15A
 100
AcDbEntity
   8
0
 100
AcDbBlockEnd
   0
ENDSEC
   0
SECTION
   2
ENTITIES
   0
ARC
   5
15B
 100
AcDbEntity
   8
LEVEL001
   6
CONTINUOUS
  62
7
 100
AcDbCircle
  10
 197.93675637369
  20
 206.86077883499
  30
0.0
  40
 3.0000000000000
 100
AcDbArc
  50
0.0
  51
 74.878334685087
   0
ARC
   5
15C
 100
AcDbEntity
   8
LEVEL001
   6
CONTINUOUS
  62
7
 100
AcDbCircle
  10
 199.43675637396
  20
 208.04058610448
  30
0.0
  40
 1.5000000000000
 100
AcDbArc
  50
 77.462181125672
  51
 77.918530125810
   0
LINE
   5
15D
 100
AcDbEntity
   8
LEVEL001
 100
AcDbLine
   6
CONTINUOUS
  62
7
  10
 143.93675637369
  20
 178.06438214616
  30
0.0
  11
 143.93675637369
  21
 181.06438214616
  31
0.0
   0
POINT
   5
15E
 100
AcDbEntity
   8
LEVEL001
 100
AcDbPoint
  62
7
  10
 156.43675637364
  20
 178.06438214616
  30
0.0
   0
LINE
   5
15F
 100
AcDbEntity
   8
LEVEL001
 100
AcDbLine
   6
CONTINUOUS
  62
7
  10
 157.67939706076
  20
 178.06438214616
  30
0.0
  11
 186.43675637369
  21
 178.06438214616
  31
0.0
   0
POINT
   5
160
 100
AcDbEntity
   8
LEVEL001
 100
AcDbPoint
  62
7
  10
 149.93675637369
  20
 165.06438214616
  30
0.0
   0
LINE
   5
161
 100
AcDbEntity
   8
LEVEL001
 100
AcDbLine
   6
CONTINUOUS
  62
7
  10
 143.93675637369
  20
 142.06438214616
  30
0.0
  11
 148.30039273732
  21
 142.06438214616
  31
0.0
   0
LINE
   5
162
 100
AcDbEntity
   8
LEVEL001
 100
AcDbLine
   6
CONTINUOUS
  62
7
  10
 143.93675637369
  20
 142.06438214616
  30
0.0
  11
 143.93675637369
  21
 186.06438214616
  31
0.0
   0
LINE
   5
163
 100
AcDbEntity
   8
LEVEL001
 100
AcDbLine
   6
CONTINUOUS
  62
7
  10
 148.30039273732
  20
 142.06438214616
  30
0.0
  11
 148.43675637369
  21
 142.06438214616
  31
0.0
   0
ARC
   5
164
 100
AcDbEntity
   8
LEVEL001
   6
CONTINUOUS
  62
7
 100
AcDbCircle
  10
 195.93675637369
  20
 215.20797568562
  30
0.0
  40
 4.0000000000000
 100
AcDbArc
  50
 173.46734586652
  51
 240.00000000009
   0
ARC
   5
165
 100
AcDbEntity
   8
LEVEL001
   6
CONTINUOUS
  62
7
 100
AcDbCircle
  10
 203.93675637369
  20
 229.06438214616
  30
0.0
  40
 17.500000000000
 100
AcDbArc
  50
 229.00799287654
  51
 310.99200712344
   0
ARC
   5
166
 100
AcDbEntity
   8
LEVEL001
   6
CONTINUOUS
  62
7
 100
AcDbCircle
  10
 192.26077981768
  20
 215.62892266525
  30
0.0
  40
 0.30000000000000
 100
AcDbArc
  50
 49.007992876510
  51
 173.46734586657
   0
ARC
   5
167
 100
AcDbEntity
   8
LEVEL001
   6
CONTINUOUS
  62
7
 100
AcDbCircle
  10
 209.93675637369
  20
 206.86077883499
  30
0.0
  40
 3.0000000000000
 100
AcDbArc
  50
 105.12166531491
  51
 180.00000000000
   0
LINE
   5
168
 100
AcDbEntity
   8
LEVEL001
 100
AcDbLine
   6
CONTINUOUS
  62
7
  10
 284.40322605353
  20
 209.06438214616
  30
0.0
  11
 296.90322605353
  21
 209.06438214616
  31
0.0
   0
LINE
   5
169
 100
AcDbEntity
   8
LEVEL001
 100
AcDbLine
   6
CONTINUOUS
  62
7
  10
 271.90322605353
  20
 209.06438214616
  30
0.0
  11
 284.40322605353
  21
 209.06438214616
  31
0.0
   0
ARC
   5
16A
 100
AcDbEntity
   8
LEVEL001
   6
CONTINUOUS
  62
7
 100
AcDbCircle
  10
 297.40322605353
  20
 208.06438214617
  30
0.0
  40
 1.0000000000000
 100
AcDbArc
  50
 90.000000000000
  51
 180.00000000012
   0
ARC
   5
16B
 100
AcDbEntity
   8
LEVEL001
   6
CONTINUOUS
  62
7
 100
AcDbCircle
  10
 271.40322605353
  20
 208.06438214617
  30
0.0
  40
 1.0000000000000
 100
AcDbArc
  50
0.0
  51
 90.000000000007
   0
LINE
   5
16C
 100
AcDbEntity
   8
LEVEL001
 100
AcDbLine
   6
CONTINUOUS
  62
7
  10
 278.15322605353
  20
 178.06438214616
  30
0.0
  11
 284.40322605353
  21
 178.06438214616
  31
0.0
   0
LINE
   5
16D
 100
AcDbEntity
   8
LEVEL001
 100
AcDbLine
   6
CONTINUOUS
  62
7
  10
 284.40322605353
  20
 178.06438214616
  30
0.0
  11
 290.65322605353
  21
 178.06438214616
  31
0.0
   0
LINE
   5
16E
 100
AcDbEntity
   8
LEVEL001
 100
AcDbLine
   6
CONTINUOUS
  62
7
  10
 263.40322605353
  20
 209.06438214616
  30
0.0
  11
 263.40322605353
  21
 212.25764157074
  31
0.0
   0
LINE
   5
16F
 100
AcDbEntity
   8
LEVEL001
 100
AcDbLine
   6
CONTINUOUS
  62
7
  10
 305.40322605353
  20
 209.06438214616
  30
0.0
  11
 305.40322605353
  21
 212.25764157074
  31
0.0
   0
LINE
   5
170
 100
AcDbEntity
   8
LEVEL001
 100
AcDbLine
   6
CONTINUOUS
  62
7
  10
 263.40322605353
  20
 209.06438214616
  30
0.0
  11
 271.90322605353
  21
 209.06438214616
  31
0.0
   0
LINE
   5
171
 100
AcDbEntity
   8
LEVEL001
 100
AcDbLine
   6
CONTINUOUS
  62
7
  10
 296.90322605353
  20
 209.06438214616
  30
0.0
  11
 305.40322605353
  21
 209.06438214616
  31
0.0
   0
ARC
   5
172
 100
AcDbEntity
   8
LEVEL001
   6
CONTINUOUS
  62
7
 100
AcDbCircle
  10
 211.93675637369
  20
 215.20797568561
  30
0.0
  40
 4.0000000000000
 100
AcDbArc
  50
 300.00000000003
  51
 6.5326541334606
   0
ARC
   5
173
 100
AcDbEntity
   8
LEVEL001
   6
CONTINUOUS
  62
7
 100
AcDbCircle
  10
 215.61273292970
  20
 215.62892266525
  30
0.0
  40
 0.30000000000000
 100
AcDbArc
  50
 6.5326541327391
  51
 130.99200712385
   0
ARC
   5
174
 100
AcDbEntity
   8
LEVEL001
   6
CONTINUOUS
  62
7
 100
AcDbCircle
  10
 272.90322605354
  20
 142.56438214616
  30
0.0
  40
 0.50000000000000
 100
AcDbArc
  50
 180.00000000001
  51
 269.99999999915
   0
POINT
   5
175
 100
AcDbEntity
   8
LEVEL001
 100
AcDbPoint
  62
7
  10
 272.40322605353
  20
 142.06438214616
  30
0.0
   0
LINE
   5
176
 100
AcDbEntity
   8
LEVEL001
 100
AcDbLine
   6
CONTINUOUS
  62
7
  10
 272.90322605353
  20
 142.06438214616
  30
0.0
  11
 284.40322605353
  21
 142.06438214616
  31
0.0
   0
LINE
   5
177
 100
AcDbEntity
   8
LEVEL001
 100
AcDbLine
   6
CONTINUOUS
  62
7
  10
 284.40322605353
  20
 142.06438214616
  30
0.0
  11
 295.90322605353
  21
 142.06438214616
  31
0.0
   0
ARC
   5
178
 100
AcDbEntity
   8
LEVEL001
   6
CONTINUOUS
  62
7
 100
AcDbCircle
  10
 295.90322605353
  20
 142.56438214616
  30
0.0
  40
 0.50000000000000
 100
AcDbArc
  50
 270.00000000000
  51
 0.16284439969093E-9
   0
POINT
   5
179
 100
AcDbEntity
   8
LEVEL001
 100
AcDbPoint
  62
7
  10
 296.40322605353
  20
 142.06438214616
  30
0.0
   0
LINE
   5
17A
 100
AcDbEntity
   8
LEVEL001
 100
AcDbLine
   6
CONTINUOUS
  62
7
  10
 273.40322605353
  20
 174.56438214616
  30
0.0
  11
 278.15322605353
  21
 174.56438214616
  31
0.0
   0
LINE
   5
17B
 100
AcDbEntity
   8
LEVEL001
 100
AcDbLine
   6
CONTINUOUS
  62
7
  10
 272.40322605353
  20
 174.56438214616
  30
0.0
  11
 273.40322605353
  21
 174.56438214616
  31
0.0
   0
LINE
   5
17C
 100
AcDbEntity
   8
LEVEL001
 100
AcDbLine
   6
CONTINUOUS
  62
7
  10
 278.15322605353
  20
 174.56438214616
  30
0.0
  11
 284.40322605353
  21
 174.56438214616
  31
0.0
   0
LINE
   5
17D
 100
AcDbEntity
   8
LEVEL001
 100
AcDbLine
   6
CONTINUOUS
  62
7
  10
 284.40322605353
  20
 174.56438214616
  30
0.0
  11
 290.65322605353
  21
 174.56438214616
  31
0.0
   0
LINE
   5
17E
 100
AcDbEntity
   8
LEVEL001
 100
AcDbLine
   6
CONTINUOUS
  62
7
  10
 290.65322605353
  20
 174.56438214616
  30
0.0
  11
 295.40322605353
  21
 174.56438214616
  31
0.0
   0
LINE
   5
17F
 100
AcDbEntity
   8
LEVEL001
 100
AcDbLine
   6
CONTINUOUS
  62
7
  10
 295.40322605353
  20
 174.56438214616
  30
0.0
  11
 296.40322605353
  21
 174.56438214616
  31
0.0
   0
LINE
   5
180
 100
AcDbEntity
   8
LEVEL001
 100
AcDbLine
   6
CONTINUOUS
  62
7
  10
 143.93675637369
  20
 186.06438214616
  30
0.0
  11
 193.69411568657
  21
 186.06438214616
  31
0.0
   0
ARC
   5
181
 100
AcDbEntity
   8
LEVEL001
   6
CONTINUOUS
  62
7
 100
AcDbCircle
  10
 193.69411568657
  20
 189.06438214616
  30
0.0
  40
 3.0000000000000
 100
AcDbArc
  50
 270.00000000000
  51
 315.00000000000
   0
POINT
   5
182
 100
AcDbEntity
   8
LEVEL001
 100
AcDbPoint
  62
7
  10
 194.93675637369
  20
 186.06438214616
  30
0.0
   0
LINE
   5
183
 100
AcDbEntity
   8
LEVEL001
 100
AcDbLine
   6
CONTINUOUS
  62
7
  10
 195.81543603013
  20
 186.94306180260
  30
0.0
  11
 200.05807671725
  21
 191.18570248972
  31
0.0
   0
ARC
   5
184
 100
AcDbEntity
   8
LEVEL001
   6
CONTINUOUS
  62
7
 100
AcDbCircle
  10
 197.93675637369
  20
 193.30702283328
  30
0.0
  40
 3.0000000000000
 100
AcDbArc
  50
 315.00000000002
  51
 0.26055103950549E-10
   0
POINT
   5
185
 100
AcDbEntity
   8
LEVEL001
 100
AcDbPoint
  62
7
  10
 200.93675637369
  20
 192.06438214616
  30
0.0
   0
LINE
   5
186
 100
AcDbEntity
   8
LEVEL001
 100
AcDbLine
   6
CONTINUOUS
  62
7
  10
 200.93675637369
  20
 193.30702283328
  30
0.0
  11
 200.93675637369
  21
 206.86077883499
  31
0.0
   0
ARC
   5
187
 100
AcDbEntity
   8
LEVEL001
   6
CONTINUOUS
  62
7
 100
AcDbCircle
  10
 203.93675637369
  20
 187.30702283328
  30
0.0
  40
 3.0000000000000
 100
AcDbArc
  50
 314.99999999999
  51
0.0
   0
POINT
   5
188
 100
AcDbEntity
   8
LEVEL001
 100
AcDbPoint
  62
7
  10
 206.93675637369
  20
 186.06438214616
  30
0.0
   0
LINE
   5
189
 100
AcDbEntity
   8
LEVEL001
 100
AcDbLine
   6
CONTINUOUS
  62
7
  10
 206.93675637369
  20
 187.30702283328
  30
0.0
  11
 206.93675637369
  21
 206.86077883499
  31
0.0
   0
LINE
   5
18A
 100
AcDbEntity
   8
LEVEL001
 100
AcDbLine
   6
CONTINUOUS
  62
7
  10
 186.43675637369
  20
 178.06438214616
  30
0.0
  11
 197.69411568657
  21
 178.06438214616
  31
0.0
   0
ARC
   5
18B
 100
AcDbEntity
   8
LEVEL001
   6
CONTINUOUS
  62
7
 100
AcDbCircle
  10
 197.69411568657
  20
 181.06438214616
  30
0.0
  40
 3.0000000000000
 100
AcDbArc
  50
 270.00000000001
  51
 315.00000000002
   0
POINT
   5
18C
 100
AcDbEntity
   8
LEVEL001
 100
AcDbPoint
  62
7
  10
 198.93675637369
  20
 178.06438214616
  30
0.0
   0
LINE
   5
18D
 100
AcDbEntity
   8
LEVEL001
 100
AcDbLine
   6
CONTINUOUS
  62
7
  10
 199.81543603013
  20
 178.94306180260
  30
0.0
  11
 206.05807671725
  21
 185.18570248972
  31
0.0
   0
LINE
   5
18E
 100
AcDbEntity
   8
LEVEL001
 100
AcDbLine
   6
CONTINUOUS
  62
7
  10
 154.73675637369
  20
 176.06438214621
  30
0.0
  11
 155.85807671720
  21
 177.18570248972
  31
0.0
   0
ARC
   5
18F
 100
AcDbEntity
   8
LEVEL001
   6
CONTINUOUS
  62
7
 100
AcDbCircle
  10
 157.97939706076
  20
 175.06438214616
  30
0.0
  40
 3.0000000000000
 100
AcDbArc
  50
 90.000000000004
  51
 135.00000000000
   0
ARC
   5
190
 100
AcDbEntity
   8
LEVEL001
   6
CONTINUOUS
  62
7
 100
AcDbCircle
  10
 273.20322605353
  20
 178.86438214616
  30
0.0
  40
 0.80000000000000
 100
AcDbArc
  50
 180.00000000000
  51
 269.99999999982
   0
POINT
   5
191
 100
AcDbEntity
   8
LEVEL001
 100
AcDbPoint
  62
7
  10
 272.40322605353
  20
 178.06438214616
  30
0.0
   0
LINE
   5
192
 100
AcDbEntity
   8
LEVEL001
 100
AcDbLine
   6
CONTINUOUS
  62
7
  10
 273.20322605353
  20
 178.06438214616
  30
0.0
  11
 278.15322605353
  21
 178.06438214616
  31
0.0
   0
ARC
   5
193
 100
AcDbEntity
   8
LEVEL001
   6
CONTINUOUS
  62
7
 100
AcDbCircle
  10
 295.60322605353
  20
 178.86438214616
  30
0.0
  40
 0.80000000000000
 100
AcDbArc
  50
 270.00000000012
  51
0.0
   0
POINT
   5
194
 100
AcDbEntity
   8
LEVEL001
 100
AcDbPoint
  62
7
  10
 296.40322605353
  20
 178.06438214616
  30
0.0
   0
LINE
   5
195
 100
AcDbEntity
   8
LEVEL001
 100
AcDbLine
   6
CONTINUOUS
  62
7
  10
 290.65322605353
  20
 178.06438214616
  30
0.0
  11
 295.60322605353
  21
 178.06438214616
  31
0.0
   0
LINE
   5
196
 100
AcDbEntity
   8
LEVEL001
 100
AcDbLine
   6
CONTINUOUS
  62
7
  10
 272.40322605353
  20
 178.86438214616
  30
0.0
  11
 272.40322605353
  21
 208.06438214616
  31
0.0
   0
LINE
   5
197
 100
AcDbEntity
   8
LEVEL001
 100
AcDbLine
   6
CONTINUOUS
  62
7
  10
 296.40322605353
  20
 178.86438214616
  30
0.0
  11
 296.40322605353
  21
 208.06438214616
  31
0.0
   0
LINE
   5
198
 100
AcDbEntity
   8
LEVEL001
 100
AcDbLine
   6
CONTINUOUS
  62
7
  10
 272.40322605353
  20
 142.56438214616
  30
0.0
  11
 272.40322605353
  21
 178.06438214616
  31
0.0
   0
LINE
   5
199
 100
AcDbEntity
   8
LEVEL001
 100
AcDbLine
   6
CONTINUOUS
  62
7
  10
 296.40322605353
  20
 142.56438214616
  30
0.0
  11
 296.40322605353
  21
 178.06438214616
  31
0.0
   0
LINE
   5
19A
 100
AcDbEntity
   8
LEVEL001
 100
AcDbLine
   6
CONTINUOUS
  62
7
  10
 263.40322605353
  20
 212.25764157074
  30
0.0
  11
 263.40322605353
  21
 213.63690399718
  31
0.0
   0
ARC
   5
19B
 100
AcDbEntity
   8
LEVEL001
   6
CONTINUOUS
  62
7
 100
AcDbCircle
  10
 264.40322605353
  20
 213.63690399718
  30
0.0
  40
 1.0000000000000
 100
AcDbArc
  50
 90.000000000072
  51
 180.00000000000
   0
POINT
   5
19C
 100
AcDbEntity
   8
LEVEL001
 100
AcDbPoint
  62
7
  10
 263.40322605353
  20
 214.63690399718
  30
0.0
   0
LINE
   5
19D
 100
AcDbEntity
   8
LEVEL001
 100
AcDbLine
   6
CONTINUOUS
  62
7
  10
 264.40322605353
  20
 214.63690399718
  30
0.0
  11
 304.40322605353
  21
 214.63690399718
  31
0.0
   0
ARC
   5
19E
 100
AcDbEntity
   8
LEVEL001
   6
CONTINUOUS
  62
7
 100
AcDbCircle
  10
 304.40322605353
  20
 213.63690399718
  30
0.0
  40
 1.0000000000000
 100
AcDbArc
  50
 0.39082655925824E-10
  51
 90.000000000000
   0
POINT
   5
19F
 100
AcDbEntity
   8
LEVEL001
 100
AcDbPoint
  62
7
  10
 305.40322605353
  20
 214.63690399718
  30
0.0
   0
LINE
   5
1A0
 100
AcDbEntity
   8
LEVEL001
 100
AcDbLine
   6
CONTINUOUS
  62
7
  10
 305.40322605353
  20
 212.25764157074
  30
0.0
  11
 305.40322605353
  21
 213.63690399718
  31
0.0
   0
LINE
   5
1A1
 100
AcDbEntity
   8
LEVEL001
 100
AcDbLine
   6
DASHDOT
  62
3
  10
 284.40322605353
  20
 225.91777855397
  30
0.0
  11
 284.40322605353
  21
 135.59366534312
  31
0.0
   0
LINE
   5
1A2
 100
AcDbEntity
   8
LEVEL001
 100
AcDbLine
   6
DOT
  62
1
  10
 294.90322605353
  20
 156.56438214616
  30
0.0
  11
 294.90322605353
  21
 158.56438214616
  31
0.0
   0
LINE
   5
1A3
 100
AcDbEntity
   8
LEVEL001
 100
AcDbLine
   6
DOT
  62
1
  10
 294.90322605353
  20
 156.56438214616
  30
0.0
  11
 295.30322605353
  21
 156.56438214616
  31
0.0
   0
LINE
   5
1A4
 100
AcDbEntity
   8
LEVEL001
 100
AcDbLine
   6
DOT
  62
1
  10
 294.90322605353
  20
 158.56438214616
  30
0.0
  11
 294.90322605353
  21
 160.56438214616
  31
0.0
   0
LINE
   5
1A5
 100
AcDbEntity
   8
LEVEL001
 100
AcDbLine
   6
DOT
  62
1
  10
 294.90322605353
  20
 160.56438214616
  30
0.0
  11
 295.30322605353
  21
 160.56438214616
  31
0.0
   0
LINE
   5
1A6
 100
AcDbEntity
   8
LEVEL001
 100
AcDbLine
   6
DOT
  62
1
  10
 273.90322605353
  20
 158.56438214616
  30
0.0
  11
 273.90322605353
  21
 160.56438214616
  31
0.0
   0
LINE
   5
1A7
 100
AcDbEntity
   8
LEVEL001
 100
AcDbLine
   6
DOT
  62
1
  10
 273.50322605353
  20
 160.56438214616
  30
0.0
  11
 273.90322605353
  21
 160.56438214616
  31
0.0
   0
LINE
   5
1A8
 100
AcDbEntity
   8
LEVEL001
 100
AcDbLine
   6
DOT
  62
1
  10
 273.90322605353
  20
 156.56438214616
  30
0.0
  11
 273.90322605353
  21
 158.56438214616
  31
0.0
   0
LINE
   5
1A9
 100
AcDbEntity
   8
LEVEL001
 100
AcDbLine
   6
DOT
  62
1
  10
 273.50322605353
  20
 156.56438214616
  30
0.0
  11
 273.90322605353
  21
 156.56438214616
  31
0.0
   0
LINE
   5
1AA
 100
AcDbEntity
   8
LEVEL001
 100
AcDbLine
   6
DOT
  62
1
  10
 273.50322605353
  20
 150.66438214616
  30
0.0
  11
 277.65322605353
  21
 150.66438214616
  31
0.0
   0
CIRCLE
   5
1AB
 100
AcDbEntity
   8
LEVEL001
 100
AcDbCircle
   6
DOT
  62
1
  10
 277.65322605353
  20
 147.06438214616
  30
0.0
  40
 2.2500000000000
   0
CIRCLE
   5
1AC
 100
AcDbEntity
   8
LEVEL001
 100
AcDbCircle
   6
DOT
  62
1
  10
 291.15322605353
  20
 147.06438214616
  30
0.0
  40
 2.2500000000000
   0
LINE
   5
1AD
 100
AcDbEntity
   8
LEVEL001
 100
AcDbLine
   6
DOT
  62
1
  10
 291.15322605353
  20
 150.66438214616
  30
0.0
  11
 295.30322605353
  21
 150.66438214616
  31
0.0
   0
LINE
   5
1AE
 100
AcDbEntity
   8
LEVEL001
 100
AcDbLine
   6
DOT
  62
1
  10
 273.50322605353
  20
 166.46438214616
  30
0.0
  11
 277.65322605353
  21
 166.46438214616
  31
0.0
   0
CIRCLE
   5
1AF
 100
AcDbEntity
   8
LEVEL001
 100
AcDbCircle
   6
DOT
  62
1
  10
 277.65322605353
  20
 170.06438214616
  30
0.0
  40
 2.2500000000000
   0
CIRCLE
   5
1B0
 100
AcDbEntity
   8
LEVEL001
 100
AcDbCircle
   6
DOT
  62
1
  10
 291.15322605353
  20
 170.06438214616
  30
0.0
  40
 2.2500000000000
   0
LINE
   5
1B1
 100
AcDbEntity
   8
LEVEL001
 100
AcDbLine
   6
DOT
  62
1
  10
 291.15322605353
  20
 166.46438214616
  30
0.0
  11
 295.30322605353
  21
 166.46438214616
  31
0.0
   0
LINE
   5
1B2
 100
AcDbEntity
   8
LEVEL001
 100
AcDbLine
   6
DOT
  62
1
  10
 273.50322605353
  20
 173.66438214616
  30
0.0
  11
 277.65322605353
  21
 173.66438214616
  31
0.0
   0
LINE
   5
1B3
 100
AcDbEntity
   8
LEVEL001
 100
AcDbLine
   6
DOT
  62
1
  10
 291.15322605353
  20
 173.66438214616
  30
0.0
  11
 295.30322605353
  21
 173.66438214616
  31
0.0
   0
ARC
   5
1B4
 100
AcDbEntity
   8
LEVEL001
   6
DOT
  62
1
 100
AcDbCircle
  10
 277.65322605353
  20
 170.06438214616
  30
0.0
  40
 3.6000000000000
 100
AcDbArc
  50
 270.00000000000
  51
 90.000000000000
   0
ARC
   5
1B5
 100
AcDbEntity
   8
LEVEL001
   6
DOT
  62
1
 100
AcDbCircle
  10
 291.15322605353
  20
 170.06438214616
  30
0.0
  40
 3.6000000000000
 100
AcDbArc
  50
 90.000000000000
  51
 270.00000000000
   0
LINE
   5
1B6
 100
AcDbEntity
   8
LEVEL001
 100
AcDbLine
   6
DASHDOT
  62
3
  10
 277.65322605353
  20
 176.42010293255
  30
0.0
  11
 277.65322605353
  21
 140.04010904098
  31
0.0
   0
LINE
   5
1B7
 100
AcDbEntity
   8
LEVEL001
 100
AcDbLine
   6
DASHDOT
  62
3
  10
 269.73253804524
  20
 170.06438214616
  30
0.0
  11
 298.63442208132
  21
 170.06438214616
  31
0.0
   0
LINE
   5
1B8
 100
AcDbEntity
   8
LEVEL001
 100
AcDbLine
   6
DASHDOT
  62
3
  10
 291.15322605353
  20
 176.42010293255
  30
0.0
  11
 291.15322605353
  21
 140.04010904098
  31
0.0
   0
LINE
   5
1B9
 100
AcDbEntity
   8
LEVEL001
 100
AcDbLine
   6
DASHDOT
  62
3
  10
 268.11564942784
  20
 158.56438214616
  30
0.0
  11
 300.90042932792
  21
 158.56438214616
  31
0.0
   0
LINE
   5
1BA
 100
AcDbEntity
   8
LEVEL001
 100
AcDbLine
   6
DASHDOT
  62
3
  10
 270.13676019959
  20
 147.06438214616
  30
0.0
  11
 298.73547761991
  21
 147.06438214616
  31
0.0
   0
LINE
   5
1BB
 100
AcDbEntity
   8
LEVEL001
 100
AcDbLine
   6
DOT
  62
1
  10
 273.50322605353
  20
 142.06438214616
  30
0.0
  11
 273.50322605353
  21
 174.56438214616
  31
0.0
   0
ARC
   5
1BC
 100
AcDbEntity
   8
LEVEL001
   6
DOT
  62
1
 100
AcDbCircle
  10
 277.65322605353
  20
 147.06438214616
  30
0.0
  40
 3.6000000000000
 100
AcDbArc
  50
 270.00000000000
  51
 90.000000000000
   0
LINE
   5
1BD
 100
AcDbEntity
   8
LEVEL001
 100
AcDbLine
   6
DOT
  62
1
  10
 273.50322605353
  20
 143.46438214616
  30
0.0
  11
 277.65322605353
  21
 143.46438214616
  31
0.0
   0
ARC
   5
1BE
 100
AcDbEntity
   8
LEVEL001
   6
DOT
  62
1
 100
AcDbCircle
  10
 291.15322605353
  20
 147.06438214616
  30
0.0
  40
 3.6000000000000
 100
AcDbArc
  50
 90.000000000000
  51
 270.00000000000
   0
LINE
   5
1BF
 100
AcDbEntity
   8
LEVEL001
 100
AcDbLine
   6
DOT
  62
1
  10
 295.30322605353
  20
 142.06438214616
  30
0.0
  11
 295.30322605353
  21
 174.56438214616
  31
0.0
   0
LINE
   5
1C0
 100
AcDbEntity
   8
LEVEL001
 100
AcDbLine
   6
DOT
  62
1
  10
 291.15322605353
  20
 143.46438214616
  30
0.0
  11
 295.30322605353
  21
 143.46438214616
  31
0.0
   0
LINE
   5
1C1
 100
AcDbEntity
   8
LEVEL001
 100
AcDbLine
   6
DASHDOT
  62
3
  10
 182.25775318334
  20
 229.06438214616
  30
0.0
  11
 228.11179449857
  21
 229.06438214616
  31
0.0
   0
LINE
   5
1C2
 100
AcDbEntity
   8
LEVEL001
 100
AcDbLine
   6
DASHDOT
  62
3
  10
 205.35276392268
  20
 232.40028688035
  30
0.0
  11
 195.12200309542
  21
 208.29812478128
  31
0.0
   0
LINE
   5
1C3
 100
AcDbEntity
   8
LEVEL001
 100
AcDbLine
   6
DASHDOT
  62
3
  10
 202.22179843634
  20
 233.10456986001
  30
0.0
  11
 213.14936553385
  21
 207.36083506066
  31
0.0
   0
LINE
   5
1C4
 100
AcDbEntity
   8
LEVEL001
 100
AcDbLine
   6
DOT
  62
1
  10
 195.13433874883
  20
 213.44579509001
  30
0.0
  11
 192.93956119624
  21
 212.55904739888
  31
0.0
   0
LINE
   5
1C5
 100
AcDbEntity
   8
LEVEL001
 100
AcDbLine
   6
DOT
  62
1
  10
 195.13433874883
  20
 213.44579509001
  30
0.0
  11
 198.81635816264
  21
 211.88287057604
  31
0.0
   0
LINE
   5
1C6
 100
AcDbEntity
   8
LEVEL001
 100
AcDbLine
   6
DOT
  62
1
  10
 195.13433874885
  20
 213.44579509001
  30
0.0
  11
 195.30275367669
  21
 213.84255579621
  31
0.0
   0
LINE
   5
1C7
 100
AcDbEntity
   8
LEVEL001
 100
AcDbLine
   6
DOT
  62
1
  10
 198.81635816265
  20
 211.88287057602
  30
0.0
  11
 198.98477309051
  21
 212.27963128227
  31
0.0
   0
LINE
   5
1C8
 100
AcDbEntity
   8
LEVEL001
 100
AcDbLine
   6
DOT
  62
1
  10
 198.81635816264
  20
 211.88287057604
  30
0.0
  11
 199.77852255752
  21
 209.50143013145
  31
0.0
   0
LINE
   5
1C9
 100
AcDbEntity
   8
LEVEL001
 100
AcDbLine
   6
DOT
  62
1
  10
 209.05715458476
  20
 211.88287057609
  30
0.0
  11
 208.09499018987
  21
 209.50143013145
  31
0.0
   0
LINE
   5
1CA
 100
AcDbEntity
   8
LEVEL001
 100
AcDbLine
   6
DOT
  62
1
  10
 209.05715458476
  20
 211.88287057609
  30
0.0
  11
 212.73917399860
  21
 213.44579508999
  31
0.0
   0
LINE
   5
1CB
 100
AcDbEntity
   8
LEVEL001
 100
AcDbLine
   6
DOT
  62
1
  10
 209.05715458476
  20
 211.88287057609
  30
0.0
  11
 208.88873965692
  21
 212.27963128228
  31
0.0
   0
LINE
   5
1CC
 100
AcDbEntity
   8
LEVEL001
 100
AcDbLine
   6
DOT
  62
1
  10
 212.73917399860
  20
 213.44579508999
  30
0.0
  11
 214.93395155115
  21
 212.55904739888
  31
0.0
   0
LINE
   5
1CD
 100
AcDbEntity
   8
LEVEL001
 100
AcDbLine
   6
DOT
  62
1
  10
 212.73917399860
  20
 213.44579508999
  30
0.0
  11
 212.57075907073
  21
 213.84255579623
  31
0.0
   0
ARC
   5
1CE
 100
AcDbEntity
   8
LEVEL001
   6
CONTINUOUS
  62
7
 100
AcDbCircle
  10
 203.93675637369
  20
 229.06438214616
  30
0.0
  40
 20.000000000000
 100
AcDbArc
  50
 240.00000000000
  51
 300.00000000000
   0
LINE
   5
1CF
 100
AcDbEntity
   8
LEVEL001
 100
AcDbLine
   6
DOT
  62
1
  10
 143.93675637369
  20
 184.06438214616
  30
0.0
  11
 146.43675637369
  21
 184.06438214616
  31
0.0
   0
LINE
   5
1D0
 100
AcDbEntity
   8
LEVEL001
 100
AcDbLine
   6
DOT
  62
1
  10
 143.93675637369
  20
 175.06438214616
  30
0.0
  11
 146.43675637369
  21
 175.06438214616
  31
0.0
   0
LINE
   5
1D1
 100
AcDbEntity
   8
LEVEL001
 100
AcDbLine
   6
DOT
  62
1
  10
 146.43675637369
  20
 175.06438214616
  30
0.0
  11
 146.43675637369
  21
 184.06438214616
  31
0.0
   0
LINE
   5
1D2
 100
AcDbEntity
   8
LEVEL001
 100
AcDbLine
   6
DOT
  62
1
  10
 143.93675637369
  20
 172.31438214616
  30
0.0
  11
 149.93675637369
  21
 172.31438214616
  31
0.0
   0
LINE
   5
1D3
 100
AcDbEntity
   8
LEVEL001
 100
AcDbLine
   6
DOT
  62
1
  10
 143.93675637369
  20
 167.81438214616
  30
0.0
  11
 149.93675637369
  21
 167.81438214616
  31
0.0
   0
LINE
   5
1D4
 100
AcDbEntity
   8
LEVEL001
 100
AcDbLine
   6
DOT
  62
1
  10
 143.93675637369
  20
 165.06438214616
  30
0.0
  11
 149.43675637369
  21
 165.06438214616
  31
0.0
   0
POINT
   5
1D5
 100
AcDbEntity
   8
LEVEL001
 100
AcDbPoint
  62
1
  10
 149.93675637369
  20
 165.06438214616
  30
0.0
   0
ARC
   5
1D6
 100
AcDbEntity
   8
LEVEL001
   6
DOT
  62
1
 100
AcDbCircle
  10
 149.43675637369
  20
 164.56438214616
  30
0.0
  40
 0.50000000000000
 100
AcDbArc
  50
 0.13027551975275E-10
  51
 90.000000000000
   0
LINE
   5
1D7
 100
AcDbEntity
   8
LEVEL001
 100
AcDbLine
   6
DOT
  62
1
  10
 143.93675637369
  20
 151.56438214616
  30
0.0
  11
 149.43675637369
  21
 151.56438214616
  31
0.0
   0
ARC
   5
1D8
 100
AcDbEntity
   8
LEVEL001
   6
DOT
  62
1
 100
AcDbCircle
  10
 149.43675637369
  20
 152.06438214616
  30
0.0
  40
 0.50000000000000
 100
AcDbArc
  50
 270.00000000035
  51
 0.65137759875973E-11
   0
POINT
   5
1D9
 100
AcDbEntity
   8
LEVEL001
 100
AcDbPoint
  62
1
  10
 149.93675637369
  20
 151.56438214616
  30
0.0
   0
LINE
   5
1DA
 100
AcDbEntity
   8
LEVEL001
 100
AcDbLine
   6
DOT
  62
1
  10
 149.93675637369
  20
 152.06438214616
  30
0.0
  11
 149.93675637369
  21
 156.56438214616
  31
0.0
   0
ARC
   5
1DB
 100
AcDbEntity
   8
LEVEL001
   6
DOT
  62
1
 100
AcDbCircle
  10
 149.43675637369
  20
 145.56438214616
  30
0.0
  40
 0.50000000000000
 100
AcDbArc
  50
 0.26055103950549E-10
  51
 90.000000000000
   0
POINT
   5
1DC
 100
AcDbEntity
   8
LEVEL001
 100
AcDbPoint
  62
1
  10
 149.93675637369
  20
 146.06438214616
  30
0.0
   0
LINE
   5
1DD
 100
AcDbEntity
   8
LEVEL001
 100
AcDbLine
   6
DOT
  62
1
  10
 143.93675637369
  20
 144.81438214616
  30
0.0
  11
 149.93675637369
  21
 144.81438214616
  31
0.0
   0
ARC
   5
1DE
 100
AcDbEntity
   8
LEVEL001
   6
DOT
  62
1
 100
AcDbCircle
  10
 149.43675637369
  20
 144.56438214616
  30
0.0
  40
 0.50000000000000
 100
AcDbArc
  50
 270.00000000000
  51
 0.24771890080985E-7
   0
LINE
   5
1DF
 100
AcDbEntity
   8
LEVEL001
 100
AcDbLine
   6
DOT
  62
1
  10
 143.93675637369
  20
 149.31438214616
  30
0.0
  11
 149.93675637369
  21
 149.31438214616
  31
0.0
   0
LINE
   5
1E0
 100
AcDbEntity
   8
LEVEL001
 100
AcDbLine
   6
DOT
  62
1
  10
 143.93675637369
  20
 146.06438214616
  30
0.0
  11
 149.43675637369
  21
 146.06438214616
  31
0.0
   0
LINE
   5
1E1
 100
AcDbEntity
   8
LEVEL001
 100
AcDbLine
   6
DOT
  62
1
  10
 143.93675637369
  20
 144.06438214616
  30
0.0
  11
 149.43675637369
  21
 144.06438214616
  31
0.0
   0
LINE
   5
1E2
 100
AcDbEntity
   8
LEVEL001
 100
AcDbLine
   6
CONTINUOUS
  62
7
  10
 148.43675637369
  20
 174.56438214616
  30
0.0
  11
 148.43675637369
  21
 142.06438214616
  31
0.0
   0
LINE
   5
1E3
 100
AcDbEntity
   8
LEVEL001
 100
AcDbLine
   6
CONTINUOUS
  62
7
  10
 148.43675637369
  20
 174.56438214616
  30
0.0
  11
 153.93675637369
  21
 174.56438214616
  31
0.0
   0
LINE
   5
1E4
 100
AcDbEntity
   8
LEVEL001
 100
AcDbLine
   6
CONTINUOUS
  62
7
  10
 153.93675637369
  20
 142.06438214616
  30
0.0
  11
 153.93675637369
  21
 174.56438214616
  31
0.0
   0
LINE
   5
1E5
 100
AcDbEntity
   8
LEVEL001
 100
AcDbLine
   6
CONTINUOUS
  62
7
  10
 148.30039273732
  20
 142.06438214616
  30
0.0
  11
 153.93675637369
  21
 142.06438214616
  31
0.0
   0
LINE
   5
1E6
 100
AcDbEntity
   8
LEVEL001
 100
AcDbLine
   6
DOT
  62
1
  10
 152.23675637369
  20
 172.32174145909
  30
0.0
  11
 152.23675637369
  21
 142.06438214616
  31
0.0
   0
LINE
   5
1E7
 100
AcDbEntity
   8
LEVEL001
 100
AcDbLine
   6
DOT
  62
1
  10
 149.93675637369
  20
 143.46438214616
  30
0.0
  11
 152.23675637369
  21
 143.46438214616
  31
0.0
   0
LINE
   5
1E8
 100
AcDbEntity
   8
LEVEL001
 100
AcDbLine
   6
DOT
  62
1
  10
 149.93675637369
  20
 150.66438214616
  30
0.0
  11
 152.23675637369
  21
 150.66438214616
  31
0.0
   0
LINE
   5
1E9
 100
AcDbEntity
   8
LEVEL001
 100
AcDbLine
   6
DOT
  62
1
  10
 149.93675637369
  20
 143.46438214616
  30
0.0
  11
 149.93675637369
  21
 150.66438214616
  31
0.0
   0
LINE
   5
1EA
 100
AcDbEntity
   8
LEVEL001
 100
AcDbLine
   6
DOT
  62
1
  10
 148.43675637369
  20
 160.56438214616
  30
0.0
  11
 149.93675637369
  21
 160.56438214616
  31
0.0
   0
LINE
   5
1EB
 100
AcDbEntity
   8
LEVEL001
 100
AcDbLine
   6
DOT
  62
1
  10
 149.93675637369
  20
 160.56438214616
  30
0.0
  11
 149.93675637369
  21
 156.56438214616
  31
0.0
   0
LINE
   5
1EC
 100
AcDbEntity
   8
LEVEL001
 100
AcDbLine
   6
DOT
  62
1
  10
 149.93675637369
  20
 160.56438214616
  30
0.0
  11
 149.93675637369
  21
 164.56438214616
  31
0.0
   0
LINE
   5
1ED
 100
AcDbEntity
   8
LEVEL001
 100
AcDbLine
   6
DOT
  62
1
  10
 148.43675637369
  20
 156.56438214616
  30
0.0
  11
 149.93675637369
  21
 156.56438214616
  31
0.0
   0
LINE
   5
1EE
 100
AcDbEntity
   8
LEVEL001
 100
AcDbLine
   6
DOT
  62
1
  10
 149.93675637369
  20
 166.46438214616
  30
0.0
  11
 152.23675637369
  21
 166.46438214616
  31
0.0
   0
LINE
   5
1EF
 100
AcDbEntity
   8
LEVEL001
 100
AcDbLine
   6
DOT
  62
1
  10
 149.93675637369
  20
 173.66438214616
  30
0.0
  11
 152.55297367808
  21
 173.66438214616
  31
0.0
   0
LINE
   5
1F0
 100
AcDbEntity
   8
LEVEL001
 100
AcDbLine
   6
DOT
  62
1
  10
 149.93675637369
  20
 166.46438214616
  30
0.0
  11
 149.93675637369
  21
 173.66438214616
  31
0.0
   0
LINE
   5
1F1
 100
AcDbEntity
   8
LEVEL001
 100
AcDbLine
   6
CONTINUOUS
  62
7
  10
 153.23675637364
  20
 174.56438214616
  30
0.0
  11
 154.73675637364
  21
 176.06438214616
  31
0.0
   0
ARC
   5
1F2
 100
AcDbEntity
   8
LEVEL001
   6
DOT
  62
1
 100
AcDbCircle
  10
 155.23675637369
  20
 172.32174145909
  30
0.0
  40
 3.0000000000000
 100
AcDbArc
  50
 132.55609519967
  51
 180.00000000002
   0
LINE
   5
1F3
 100
AcDbEntity
   8
LEVEL001
 100
AcDbLine
   6
DASHDOT
  62
3
  10
 140.97438883430
  20
 170.06438214616
  30
0.0
  11
 156.02598036394
  21
 170.06438214616
  31
0.0
   0
LINE
   5
1F4
 100
AcDbEntity
   8
LEVEL001
 100
AcDbLine
   6
DASHDOT
  62
3
  10
 141.28788862916
  20
 158.56438214616
  30
0.0
  11
 156.76444579019
  21
 158.56438214616
  31
0.0
   0
LINE
   5
1F5
 100
AcDbEntity
   8
LEVEL001
 100
AcDbLine
   6
DASHDOT
  62
3
  10
 140.97438883430
  20
 147.06438214616
  30
0.0
  11
 155.69031426109
  21
 147.06438214616
  31
0.0
   0
DIMENSION
   5
1F6
 100
AcDbEntity
   8
LEVEL001
   6
CONTINUOUS
  62
3
 100
AcDbDimension
   2
*D1
  10
 203.93675637369
  20
 229.06438214616
  30
0.0
  11
 217.31777461250
  21
 208.95098869111
  31
0.0
  70
132
   3
GMM001
 100
AcDbRadialDimension
  15
 213.63000781551
  25
 214.49417705201
  35
0.0
  40
 6.8749790300523
   0
INSERT
   5
1F7
 100
AcDbEntity
   8
LEVEL001
 100
AcDbBlockReference
   2
*D2
  10
0.0
  20
0.0
  30
0.0
   0
ARC
   5
1F8
 100
AcDbEntity
   8
LEVEL001
   6
CONTINUOUS
  62
7
 100
AcDbCircle
  10
 71.699188202174
  20
 208.06438214617
  30
0.0
  40
 1.0000000000000
 100
AcDbArc
  50
0.0
  51
 90.000000000000
   0
ARC
   5
1F9
 100
AcDbEntity
   8
LEVEL001
   6
CONTINUOUS
  62
7
 100
AcDbCircle
  10
 97.699188202174
  20
 208.06438214616
  30
0.0
  40
 1.0000000000000
 100
AcDbArc
  50
 90.000000000000
  51
 179.99999999995
   0
LINE
   5
1FA
 100
AcDbEntity
   8
LEVEL001
 100
AcDbLine
   6
CONTINUOUS
  62
7
  10
 90.949188202174
  20
 186.06438214616
  30
0.0
  11
 84.699188202174
  21
 186.06438214616
  31
0.0
   0
LINE
   5
1FB
 100
AcDbEntity
   8
LEVEL001
 100
AcDbLine
   6
CONTINUOUS
  62
7
  10
 84.699188202174
  20
 186.06438214616
  30
0.0
  11
 78.449188202174
  21
 186.06438214616
  31
0.0
   0
POINT
   5
1FC
 100
AcDbEntity
   8
LEVEL001
 100
AcDbPoint
  62
7
  10
 74.699188202174
  20
 184.06438214616
  30
0.0
   0
POINT
   5
1FD
 100
AcDbEntity
   8
LEVEL001
 100
AcDbPoint
  62
7
  10
 83.449188202174
  20
 184.06438214616
  30
0.0
   0
POINT
   5
1FE
 100
AcDbEntity
   8
LEVEL001
 100
AcDbPoint
  62
7
  10
 85.949188202174
  20
 184.06438214616
  30
0.0
   0
POINT
   5
1FF
 100
AcDbEntity
   8
LEVEL001
 100
AcDbPoint
  62
7
  10
 94.699188202174
  20
 184.06438214616
  30
0.0
   0
LINE
   5
200
 100
AcDbEntity
   8
LEVEL001
 100
AcDbLine
   6
CONTINUOUS
  62
7
  10
 91.199188202174
  20
 184.06438214616
  30
0.0
  11
 93.699188202174
  21
 184.06438214616
  31
0.0
   0
ARC
   5
201
 100
AcDbEntity
   8
LEVEL001
   6
CONTINUOUS
  62
7
 100
AcDbCircle
  10
 93.699188202174
  20
 183.06438214617
  30
0.0
  40
 1.0000000000000
 100
AcDbArc
  50
0.0
  51
 90.000000000000
   0
ARC
   5
202
 100
AcDbEntity
   8
LEVEL001
   6
CONTINUOUS
  62
7
 100
AcDbCircle
  10
 75.699188202176
  20
 183.06438214616
  30
0.0
  40
 1.0000000000000
 100
AcDbArc
  50
 90.000000000104
  51
 180.00000000000
   0
LINE
   5
203
 100
AcDbEntity
   8
LEVEL001
 100
AcDbLine
   6
CONTINUOUS
  62
7
  10
 75.699188202174
  20
 184.06438214616
  30
0.0
  11
 78.199188202174
  21
 184.06438214616
  31
0.0
   0
ARC
   5
204
 100
AcDbEntity
   8
LEVEL001
   6
CONTINUOUS
  62
7
 100
AcDbCircle
  10
 82.699188202174
  20
 183.06438214617
  30
0.0
  40
 1.0000000000000
 100
AcDbArc
  50
0.0
  51
 90.000000000000
   0
ARC
   5
205
 100
AcDbEntity
   8
LEVEL001
   6
CONTINUOUS
  62
7
 100
AcDbCircle
  10
 86.199188202175
  20
 171.81438214616
  30
0.0
  40
 0.50000000000000
 100
AcDbArc
  50
 180.00000000001
  51
 269.99999999989
   0
ARC
   5
206
 100
AcDbEntity
   8
LEVEL001
   6
CONTINUOUS
  62
7
 100
AcDbCircle
  10
 86.699188202176
  20
 183.06438214616
  30
0.0
  40
 1.0000000000000
 100
AcDbArc
  50
 90.000000000104
  51
 180.00000000000
   0
LINE
   5
207
 100
AcDbEntity
   8
LEVEL001
 100
AcDbLine
   6
CONTINUOUS
  62
7
  10
 78.199188202174
  20
 184.06438214616
  30
0.0
  11
 82.699188202174
  21
 184.06438214616
  31
0.0
   0
LINE
   5
208
 100
AcDbEntity
   8
LEVEL001
 100
AcDbLine
   6
CONTINUOUS
  62
7
  10
 86.699188202174
  20
 184.06438214616
  30
0.0
  11
 91.199188202174
  21
 184.06438214616
  31
0.0
   0
ARC
   5
209
 100
AcDbEntity
   8
LEVEL001
   6
CONTINUOUS
  62
7
 100
AcDbCircle
  10
 83.199188202174
  20
 171.81438214616
  30
0.0
  40
 0.50000000000000
 100
AcDbArc
  50
 269.99999999996
  51
0.0
   0
LINE
   5
20A
 100
AcDbEntity
   8
LEVEL001
 100
AcDbLine
   6
CONTINUOUS
  62
7
  10
 87.023347902601
  20
 144.06438214616
  30
0.0
  11
 87.230561235577
  21
 144.06438214616
  31
0.0
   0
LINE
   5
20B
 100
AcDbEntity
   8
LEVEL001
 100
AcDbLine
   6
CONTINUOUS
  62
7
  10
 105.69918820217
  20
 209.06438214616
  30
0.0
  11
 105.69918820217
  21
 212.25764157074
  31
0.0
   0
LINE
   5
20C
 100
AcDbEntity
   8
LEVEL001
 100
AcDbLine
   6
CONTINUOUS
  62
7
  10
 63.699188202174
  20
 209.06438214616
  30
0.0
  11
 63.699188202174
  21
 212.25764157074
  31
0.0
   0
ARC
   5
20D
 100
AcDbEntity
   8
LEVEL001
   6
CONTINUOUS
  62
7
 100
AcDbCircle
  10
 94.399188202174
  20
 175.36438214616
  30
0.0
  40
 0.30000000000000
 100
AcDbArc
  50
 270.00000000000
  51
 0.21712586625458E-9
   0
POINT
   5
20E
 100
AcDbEntity
   8
LEVEL001
 100
AcDbPoint
  62
7
  10
 94.699188202174
  20
 175.06438214616
  30
0.0
   0
ARC
   5
20F
 100
AcDbEntity
   8
LEVEL001
   6
CONTINUOUS
  62
7
 100
AcDbCircle
  10
 74.999188202172
  20
 175.36438214616
  30
0.0
  40
 0.30000000000000
 100
AcDbArc
  50
 180.00000000001
  51
 270.00000000032
   0
POINT
   5
210
 100
AcDbEntity
   8
LEVEL001
 100
AcDbPoint
  62
7
  10
 74.699188202174
  20
 175.06438214616
  30
0.0
   0
CIRCLE
   5
211
 100
AcDbEntity
   8
LEVEL001
 100
AcDbCircle
   6
CONTINUOUS
  62
7
  10
 77.949188202174
  20
 170.06438214616
  30
0.0
  40
 2.2500000000000
   0
ARC
   5
212
 100
AcDbEntity
   8
LEVEL001
   6
CONTINUOUS
  62
7
 100
AcDbCircle
  10
 77.949188202174
  20
 170.06438214616
  30
0.0
  40
 5.0000000000000
 100
AcDbArc
  50
 46.054480437690
  51
 64.158067236832
   0
ARC
   5
213
 100
AcDbEntity
   8
LEVEL001
   6
CONTINUOUS
  62
7
 100
AcDbCircle
  10
 77.949188202174
  20
 170.06438214616
  30
0.0
  40
 5.0000000000000
 100
AcDbArc
  50
 17.004860591815
  51
 46.054480437691
   0
ARC
   5
214
 100
AcDbEntity
   8
LEVEL001
   6
CONTINUOUS
  62
7
 100
AcDbCircle
  10
 77.949188202174
  20
 170.06438214616
  30
0.0
  40
 5.0000000000000
 100
AcDbArc
  50
 270.00000000000
  51
 313.94551956231
   0
ARC
   5
215
 100
AcDbEntity
   8
LEVEL001
   6
CONTINUOUS
  62
7
 100
AcDbCircle
  10
 83.017471935354
  20
 171.61438214616
  30
0.0
  40
 0.30000000000000
 100
AcDbArc
  50
 197.00486059139
  51
 269.99999999983
   0
ARC
   5
216
 100
AcDbEntity
   8
LEVEL001
   6
CONTINUOUS
  62
7
 100
AcDbCircle
  10
 77.949188202174
  20
 170.06438214616
  30
0.0
  40
 5.0000000000000
 100
AcDbArc
  50
 64.158067236833
  51
 90.000000000000
   0
LINE
   5
217
 100
AcDbEntity
   8
LEVEL001
 100
AcDbLine
   6
CONTINUOUS
  62
7
  10
 74.749188202174
  20
 175.06438214616
  30
0.0
  11
 77.949188202174
  21
 175.06438214616
  31
0.0
   0
ARC
   5
218
 100
AcDbEntity
   8
LEVEL001
   6
CONTINUOUS
  62
7
 100
AcDbCircle
  10
 77.949188202175
  20
 147.06438214617
  30
0.0
  40
 5.0000000000000
 100
AcDbArc
  50
 46.054480437615
  51
 90.000000000014
   0
ARC
   5
219
 100
AcDbEntity
   8
LEVEL001
   6
CONTINUOUS
  62
7
 100
AcDbCircle
  10
 77.949188202174
  20
 147.06438214616
  30
0.0
  40
 4.5000000000000
 100
AcDbArc
  50
 325.77113367219
  51
 344.28613895199
   0
ARC
   5
21A
 100
AcDbEntity
   8
LEVEL001
   6
CONTINUOUS
  62
7
 100
AcDbCircle
  10
 82.569794223034
  20
 145.76438214617
  30
0.0
  40
 0.30000000000000
 100
AcDbArc
  50
 90.000000000239
  51
 164.28613895286
   0
ARC
   5
21B
 100
AcDbEntity
   8
LEVEL001
   6
CONTINUOUS
  62
7
 100
AcDbCircle
  10
 81.917815168767
  20
 144.36438214616
  30
0.0
  40
 0.30000000000000
 100
AcDbArc
  50
 145.77113367101
  51
 270.00000000067
   0
CIRCLE
   5
21C
 100
AcDbEntity
   8
LEVEL001
 100
AcDbCircle
   6
CONTINUOUS
  62
7
  10
 77.949188202174
  20
 147.06438214616
  30
0.0
  40
 2.2500000000000
   0
CIRCLE
   5
21D
 100
AcDbEntity
   8
LEVEL001
 100
AcDbCircle
   6
CONTINUOUS
  62
7
  10
 91.449188202174
  20
 170.06438214616
  30
0.0
  40
 2.2500000000000
   0
ARC
   5
21E
 100
AcDbEntity
   8
LEVEL001
   6
CONTINUOUS
  62
7
 100
AcDbCircle
  10
 91.449188202180
  20
 170.06438214616
  30
0.0
  40
 5.0000000000000
 100
AcDbArc
  50
 226.05448043769
  51
 269.99999999993
   0
LINE
   5
21F
 100
AcDbEntity
   8
LEVEL001
 100
AcDbLine
   6
CONTINUOUS
  62
7
  10
 91.449188202180
  20
 175.06438214616
  30
0.0
  11
 94.649188202174
  21
 175.06438214616
  31
0.0
   0
ARC
   5
220
 100
AcDbEntity
   8
LEVEL001
   6
CONTINUOUS
  62
7
 100
AcDbCircle
  10
 91.449188202180
  20
 170.06438214616
  30
0.0
  40
 5.0000000000000
 100
AcDbArc
  50
 90.000000000065
  51
 115.84193276316
   0
ARC
   5
221
 100
AcDbEntity
   8
LEVEL001
   6
CONTINUOUS
  62
7
 100
AcDbCircle
  10
 86.380904469001
  20
 171.61438214616
  30
0.0
  40
 0.30000000000000
 100
AcDbArc
  50
 270.00000000020
  51
 342.99513940844
   0
ARC
   5
222
 100
AcDbEntity
   8
LEVEL001
   6
CONTINUOUS
  62
7
 100
AcDbCircle
  10
 91.449188202180
  20
 170.06438214616
  30
0.0
  40
 5.0000000000000
 100
AcDbArc
  50
 133.94551956231
  51
 162.99513940817
   0
ARC
   5
223
 100
AcDbEntity
   8
LEVEL001
   6
CONTINUOUS
  62
7
 100
AcDbCircle
  10
 91.449188202180
  20
 170.06438214616
  30
0.0
  40
 5.0000000000000
 100
AcDbArc
  50
 115.84193276317
  51
 133.94551956232
   0
ARC
   5
224
 100
AcDbEntity
   8
LEVEL001
   6
CONTINUOUS
  62
7
 100
AcDbCircle
  10
 91.449188202174
  20
 147.06438214616
  30
0.0
  40
 5.0000000000000
 100
AcDbArc
  50
 90.000000000002
  51
 133.94551956230
   0
CIRCLE
   5
225
 100
AcDbEntity
   8
LEVEL001
 100
AcDbCircle
   6
CONTINUOUS
  62
7
  10
 91.449188202174
  20
 147.06438214616
  30
0.0
  40
 2.2500000000000
   0
ARC
   5
226
 100
AcDbEntity
   8
LEVEL001
   6
CONTINUOUS
  62
7
 100
AcDbCircle
  10
 86.828582181314
  20
 145.76438214617
  30
0.0
  40
 0.30000000000000
 100
AcDbArc
  50
 15.713861047576
  51
 89.999999999878
   0
ARC
   5
227
 100
AcDbEntity
   8
LEVEL001
   6
CONTINUOUS
  62
7
 100
AcDbCircle
  10
 91.449188202174
  20
 147.06438214616
  30
0.0
  40
 4.5000000000000
 100
AcDbArc
  50
 195.71386104801
  51
 214.22886632782
   0
ARC
   5
228
 100
AcDbEntity
   8
LEVEL001
   6
CONTINUOUS
  62
7
 100
AcDbCircle
  10
 87.480561235577
  20
 144.36438214616
  30
0.0
  40
 0.30000000000000
 100
AcDbArc
  50
 270.00000000008
  51
 34.228866327654
   0
LINE
   5
229
 100
AcDbEntity
   8
LEVEL001
 100
AcDbLine
   6
CONTINUOUS
  62
7
  10
 83.017471935320
  20
 171.31438214618
  30
0.0
  11
 83.199188202130
  21
 171.31438214617
  31
0.0
   0
LINE
   5
22A
 100
AcDbEntity
   8
LEVEL001
 100
AcDbLine
   6
CONTINUOUS
  62
7
  10
 86.199188202240
  20
 171.31438214616
  30
0.0
  11
 86.380904469037
  21
 171.31438214618
  31
0.0
   0
LINE
   5
22B
 100
AcDbEntity
   8
LEVEL001
 100
AcDbLine
   6
CONTINUOUS
  62
7
  10
 96.199188202174
  20
 142.06438214616
  30
0.0
  11
 84.699188202174
  21
 142.06438214616
  31
0.0
   0
ARC
   5
22C
 100
AcDbEntity
   8
LEVEL001
   6
CONTINUOUS
  62
7
 100
AcDbCircle
  10
 96.199188202174
  20
 142.56438214616
  30
0.0
  40
 0.50000000000000
 100
AcDbArc
  50
 270.00000000000
  51
 0.71651535864010E-10
   0
POINT
   5
22D
 100
AcDbEntity
   8
LEVEL001
 100
AcDbPoint
  62
7
  10
 96.699188202174
  20
 142.06438214616
  30
0.0
   0
ARC
   5
22E
 100
AcDbEntity
   8
LEVEL001
   6
CONTINUOUS
  62
7
 100
AcDbCircle
  10
 73.199188202175
  20
 142.56438214616
  30
0.0
  40
 0.50000000000000
 100
AcDbArc
  50
 180.00000000001
  51
 269.99999999992
   0
POINT
   5
22F
 100
AcDbEntity
   8
LEVEL001
 100
AcDbPoint
  62
7
  10
 72.699188202174
  20
 142.06438214616
  30
0.0
   0
LINE
   5
230
 100
AcDbEntity
   8
LEVEL001
 100
AcDbLine
   6
CONTINUOUS
  62
7
  10
 84.699188202174
  20
 142.06438214616
  30
0.0
  11
 73.199188202174
  21
 142.06438214616
  31
0.0
   0
ARC
   5
231
 100
AcDbEntity
   8
LEVEL001
   6
CONTINUOUS
  62
7
 100
AcDbCircle
  10
 75.499188202175
  20
 164.76438214616
  30
0.0
  40
 0.30000000000000
 100
AcDbArc
  50
 90.000000000198
  51
 180.00000000001
   0
LINE
   5
232
 100
AcDbEntity
   8
LEVEL001
 100
AcDbLine
   6
CONTINUOUS
  62
7
  10
 75.199188202174
  20
 152.36438214616
  30
0.0
  11
 75.199188202174
  21
 164.76438214616
  31
0.0
   0
ARC
   5
233
 100
AcDbEntity
   8
LEVEL001
   6
CONTINUOUS
  62
7
 100
AcDbCircle
  10
 75.499188202169
  20
 152.36438214616
  30
0.0
  40
 0.30000000000000
 100
AcDbArc
  50
 180.00000000002
  51
 270.00000000100
   0
ARC
   5
234
 100
AcDbEntity
   8
LEVEL001
   6
CONTINUOUS
  62
7
 100
AcDbCircle
  10
 93.899188202174
  20
 152.36438214617
  30
0.0
  40
 0.30000000000000
 100
AcDbArc
  50
 270.00000000000
  51
0.0
   0
LINE
   5
235
 100
AcDbEntity
   8
LEVEL001
 100
AcDbLine
   6
CONTINUOUS
  62
7
  10
 94.199188202174
  20
 152.36438214616
  30
0.0
  11
 94.199188202174
  21
 164.76438214616
  31
0.0
   0
ARC
   5
236
 100
AcDbEntity
   8
LEVEL001
   6
CONTINUOUS
  62
7
 100
AcDbCircle
  10
 93.899188202174
  20
 164.76438214617
  30
0.0
  40
 0.30000000000000
 100
AcDbArc
  50
0.0
  51
 90.000000000000
   0
ARC
   5
237
 100
AcDbEntity
   8
LEVEL001
   6
CONTINUOUS
  62
7
 100
AcDbCircle
  10
 86.699188202177
  20
 167.29174801957
  30
0.0
  40
 0.50000000000000
 100
AcDbArc
  50
 30.272641319485
  51
 179.99999999941
   0
ARC
   5
238
 100
AcDbEntity
   8
LEVEL001
   6
CONTINUOUS
  62
7
 100
AcDbCircle
  10
 82.699188202176
  20
 167.29174801957
  30
0.0
  40
 0.50000000000000
 100
AcDbArc
  50
0.0
  51
 149.72735868163
   0
ARC
   5
239
 100
AcDbEntity
   8
LEVEL001
   6
CONTINUOUS
  62
7
 100
AcDbCircle
  10
 82.699188202174
  20
 149.83701627277
  30
0.0
  40
 0.50000000000000
 100
AcDbArc
  50
 210.27264131881
  51
 0.12376174376523E-9
   0
ARC
   5
23A
 100
AcDbEntity
   8
LEVEL001
   6
CONTINUOUS
  62
7
 100
AcDbCircle
  10
 86.699188202173
  20
 149.83701627276
  30
0.0
  40
 0.50000000000000
 100
AcDbArc
  50
 179.99999999978
  51
 329.72735868135
   0
LINE
   5
23B
 100
AcDbEntity
   8
LEVEL001
 100
AcDbLine
   6
CONTINUOUS
  62
7
  10
 83.199188202174
  20
 149.83701627277
  30
0.0
  11
 83.199188202174
  21
 167.29174801956
  31
0.0
   0
LINE
   5
23C
 100
AcDbEntity
   8
LEVEL001
 100
AcDbLine
   6
CONTINUOUS
  62
7
  10
 86.199188202174
  20
 149.83701627277
  30
0.0
  11
 86.199188202174
  21
 167.29174801957
  31
0.0
   0
ARC
   5
23D
 100
AcDbEntity
   8
LEVEL001
   6
CONTINUOUS
  62
7
 100
AcDbCircle
  10
 73.499188202174
  20
 185.26438214616
  30
0.0
  40
 0.80000000000000
 100
AcDbArc
  50
 90.000000000032
  51
 180.00000000000
   0
POINT
   5
23E
 100
AcDbEntity
   8
LEVEL001
 100
AcDbPoint
  62
7
  10
 72.699188202174
  20
 186.06438214616
  30
0.0
   0
LINE
   5
23F
 100
AcDbEntity
   8
LEVEL001
 100
AcDbLine
   6
CONTINUOUS
  62
7
  10
 78.449188202174
  20
 186.06438214616
  30
0.0
  11
 73.499188202174
  21
 186.06438214616
  31
0.0
   0
LINE
   5
240
 100
AcDbEntity
   8
LEVEL001
 100
AcDbLine
   6
CONTINUOUS
  62
7
  10
 95.899188202174
  20
 186.06438214616
  30
0.0
  11
 90.949188202174
  21
 186.06438214616
  31
0.0
   0
ARC
   5
241
 100
AcDbEntity
   8
LEVEL001
   6
CONTINUOUS
  62
7
 100
AcDbCircle
  10
 95.899188202174
  20
 185.26438214616
  30
0.0
  40
 0.80000000000000
 100
AcDbArc
  50
 0.52924429899553E-10
  51
 90.000000000001
   0
POINT
   5
242
 100
AcDbEntity
   8
LEVEL001
 100
AcDbPoint
  62
7
  10
 96.699188202174
  20
 186.06438214616
  30
0.0
   0
LINE
   5
243
 100
AcDbEntity
   8
LEVEL001
 100
AcDbLine
   6
CONTINUOUS
  62
7
  10
 72.699188202174
  20
 178.86438214616
  30
0.0
  11
 72.699188202174
  21
 208.06438214616
  31
0.0
   0
POINT
   5
244
 100
AcDbEntity
   8
LEVEL001
 100
AcDbPoint
  62
7
  10
 72.699188202174
  20
 178.06438214616
  30
0.0
   0
POINT
   5
245
 100
AcDbEntity
   8
LEVEL001
 100
AcDbPoint
  62
7
  10
 96.699188202174
  20
 178.06438214616
  30
0.0
   0
LINE
   5
246
 100
AcDbEntity
   8
LEVEL001
 100
AcDbLine
   6
CONTINUOUS
  62
7
  10
 96.699188202174
  20
 178.86438214616
  30
0.0
  11
 96.699188202174
  21
 208.06438214616
  31
0.0
   0
LINE
   5
247
 100
AcDbEntity
   8
LEVEL001
 100
AcDbLine
   6
CONTINUOUS
  62
7
  10
 72.699188202174
  20
 142.56438214616
  30
0.0
  11
 72.699188202174
  21
 178.86438214616
  31
0.0
   0
LINE
   5
248
 100
AcDbEntity
   8
LEVEL001
 100
AcDbLine
   6
CONTINUOUS
  62
7
  10
 96.699188202174
  20
 142.56438214616
  30
0.0
  11
 96.699188202174
  21
 178.86438214616
  31
0.0
   0
LINE
   5
249
 100
AcDbEntity
   8
LEVEL001
 100
AcDbLine
   6
CONTINUOUS
  62
7
  10
 105.69918820217
  20
 209.06438214616
  30
0.0
  11
 63.699188202174
  21
 209.06438214616
  31
0.0
   0
ARC
   5
24A
 100
AcDbEntity
   8
LEVEL001
   6
DOT
  62
1
 100
AcDbCircle
  10
 73.499188202174
  20
 178.86438214616
  30
0.0
  40
 0.80000000000000
 100
AcDbArc
  50
 180.00000000000
  51
 270.00000000002
   0
ARC
   5
24B
 100
AcDbEntity
   8
LEVEL001
   6
DOT
  62
1
 100
AcDbCircle
  10
 95.899188202174
  20
 178.86438214616
  30
0.0
  40
 0.80000000000000
 100
AcDbArc
  50
 270.00000000000
  51
 0.56995539891826E-10
   0
LINE
   5
24C
 100
AcDbEntity
   8
LEVEL001
 100
AcDbLine
   6
DOT
  62
1
  10
 95.899188202174
  20
 178.06438214616
  30
0.0
  11
 73.499188202174
  21
 178.06438214616
  31
0.0
   0
LINE
   5
24D
 100
AcDbEntity
   8
LEVEL001
 100
AcDbLine
   6
CONTINUOUS
  62
7
  10
 74.699188202174
  20
 175.36438214616
  30
0.0
  11
 74.699188202174
  21
 183.06438214616
  31
0.0
   0
LINE
   5
24E
 100
AcDbEntity
   8
LEVEL001
 100
AcDbLine
   6
CONTINUOUS
  62
7
  10
 83.699188202174
  20
 171.81438214616
  30
0.0
  11
 83.699188202174
  21
 183.06438214616
  31
0.0
   0
LINE
   5
24F
 100
AcDbEntity
   8
LEVEL001
 100
AcDbLine
   6
CONTINUOUS
  62
7
  10
 85.699188202174
  20
 171.81438214616
  30
0.0
  11
 85.699188202174
  21
 183.06438214616
  31
0.0
   0
LINE
   5
250
 100
AcDbEntity
   8
LEVEL001
 100
AcDbLine
   6
CONTINUOUS
  62
7
  10
 94.699188202174
  20
 175.36438214616
  30
0.0
  11
 94.699188202174
  21
 183.06438214616
  31
0.0
   0
LINE
   5
251
 100
AcDbEntity
   8
LEVEL001
 100
AcDbLine
   6
DOT
  62
1
  10
 96.699188202174
  20
 174.56438214616
  30
0.0
  11
 72.699188202174
  21
 174.56438214616
  31
0.0
   0
LINE
   5
252
 100
AcDbEntity
   8
LEVEL001
 100
AcDbLine
   6
DOT
  62
1
  10
 91.449188202180
  20
 173.66438214616
  30
0.0
  11
 95.599188202174
  21
 173.66438214616
  31
0.0
   0
LINE
   5
253
 100
AcDbEntity
   8
LEVEL001
 100
AcDbLine
   6
DOT
  62
1
  10
 91.449188202180
  20
 166.46438214616
  30
0.0
  11
 95.599188202174
  21
 166.46438214616
  31
0.0
   0
ARC
   5
254
 100
AcDbEntity
   8
LEVEL001
   6
DOT
  62
1
 100
AcDbCircle
  10
 91.449188202177
  20
 170.06438214616
  30
0.0
  40
 3.6000000000000
 100
AcDbArc
  50
 89.999999999952
  51
 269.99999999995
   0
ARC
   5
255
 100
AcDbEntity
   8
LEVEL001
   6
DOT
  62
1
 100
AcDbCircle
  10
 77.949188202174
  20
 170.06438214616
  30
0.0
  40
 3.6000000000000
 100
AcDbArc
  50
 270.00000000000
  51
 90.000000000000
   0
LINE
   5
256
 100
AcDbEntity
   8
LEVEL001
 100
AcDbLine
   6
DOT
  62
1
  10
 73.799188202174
  20
 173.66438214616
  30
0.0
  11
 77.949188202174
  21
 173.66438214616
  31
0.0
   0
LINE
   5
257
 100
AcDbEntity
   8
LEVEL001
 100
AcDbLine
   6
DOT
  62
1
  10
 73.799188202174
  20
 166.46438214616
  30
0.0
  11
 77.949188202174
  21
 166.46438214616
  31
0.0
   0
ARC
   5
258
 100
AcDbEntity
   8
LEVEL001
   6
CONTINUOUS
  62
7
 100
AcDbCircle
  10
 77.949188202174
  20
 170.06438214616
  30
0.0
  40
 5.0000000000000
 100
AcDbArc
  50
 313.94551956231
  51
 329.72735868116
   0
ARC
   5
259
 100
AcDbEntity
   8
LEVEL001
   6
CONTINUOUS
  62
7
 100
AcDbCircle
  10
 91.449188202179
  20
 170.06438214616
  30
0.0
  40
 5.0000000000000
 100
AcDbArc
  50
 210.27264131879
  51
 226.05448043770
   0
LINE
   5
25A
 100
AcDbEntity
   8
LEVEL001
 100
AcDbLine
   6
CONTINUOUS
  62
7
  10
 91.449188202180
  20
 165.06438214616
  30
0.0
  11
 93.899188202174
  21
 165.06438214616
  31
0.0
   0
LINE
   5
25B
 100
AcDbEntity
   8
LEVEL001
 100
AcDbLine
   6
CONTINUOUS
  62
7
  10
 75.499188202177
  20
 165.06438214616
  30
0.0
  11
 77.949188202174
  21
 165.06438214616
  31
0.0
   0
LINE
   5
25C
 100
AcDbEntity
   8
LEVEL001
 100
AcDbLine
   6
DASHDOT
  62
3
  10
 71.866096576913
  20
 158.56438214616
  30
0.0
  11
 97.269251516717
  21
 158.56438214616
  31
0.0
   0
LINE
   5
25D
 100
AcDbEntity
   8
LEVEL001
 100
AcDbLine
   6
CONTINUOUS
  62
7
  10
 75.499188202175
  20
 152.06438214616
  30
0.0
  11
 77.949188202174
  21
 152.06438214616
  31
0.0
   0
ARC
   5
25E
 100
AcDbEntity
   8
LEVEL001
   6
CONTINUOUS
  62
7
 100
AcDbCircle
  10
 77.949188202175
  20
 147.06438214617
  30
0.0
  40
 5.0000000000000
 100
AcDbArc
  50
 30.272641318873
  51
 46.054480437612
   0
ARC
   5
25F
 100
AcDbEntity
   8
LEVEL001
   6
CONTINUOUS
  62
7
 100
AcDbCircle
  10
 91.449188202175
  20
 147.06438214616
  30
0.0
  40
 5.0000000000000
 100
AcDbArc
  50
 133.94551956232
  51
 149.72735868114
   0
LINE
   5
260
 100
AcDbEntity
   8
LEVEL001
 100
AcDbLine
   6
CONTINUOUS
  62
7
  10
 91.449188202174
  20
 152.06438214616
  30
0.0
  11
 93.899188202174
  21
 152.06438214616
  31
0.0
   0
LINE
   5
261
 100
AcDbEntity
   8
LEVEL001
 100
AcDbLine
   6
CONTINUOUS
  62
7
  10
 82.569794223033
  20
 146.06438214630
  30
0.0
  11
 86.828582181328
  21
 146.06438214616
  31
0.0
   0
LINE
   5
262
 100
AcDbEntity
   8
LEVEL001
 100
AcDbLine
   6
CONTINUOUS
  62
7
  10
 81.917815168771
  20
 144.06438214639
  30
0.0
  11
 87.480561235575
  21
 144.06438214615
  31
0.0
   0
ARC
   5
263
 100
AcDbEntity
   8
LEVEL001
   6
DOT
  62
1
 100
AcDbCircle
  10
 77.949188202174
  20
 147.06438214616
  30
0.0
  40
 3.6000000000000
 100
AcDbArc
  50
 270.00000000000
  51
 90.000000000000
   0
LINE
   5
264
 100
AcDbEntity
   8
LEVEL001
 100
AcDbLine
   6
DOT
  62
1
  10
 73.799188202174
  20
 150.66438214616
  30
0.0
  11
 77.949188202174
  21
 150.66438214616
  31
0.0
   0
LINE
   5
265
 100
AcDbEntity
   8
LEVEL001
 100
AcDbLine
   6
DOT
  62
1
  10
 73.799188202174
  20
 143.46438214616
  30
0.0
  11
 77.949188202174
  21
 143.46438214616
  31
0.0
   0
ARC
   5
266
 100
AcDbEntity
   8
LEVEL001
   6
DOT
  62
1
 100
AcDbCircle
  10
 91.449188202177
  20
 147.06438214616
  30
0.0
  40
 3.6000000000000
 100
AcDbArc
  50
 89.999999999952
  51
 269.99999999995
   0
LINE
   5
267
 100
AcDbEntity
   8
LEVEL001
 100
AcDbLine
   6
DOT
  62
1
  10
 91.449188202180
  20
 143.46438214616
  30
0.0
  11
 95.599188202174
  21
 143.46438214616
  31
0.0
   0
LINE
   5
268
 100
AcDbEntity
   8
LEVEL001
 100
AcDbLine
   6
DOT
  62
1
  10
 91.449188202180
  20
 150.66438214616
  30
0.0
  11
 95.599188202174
  21
 150.66438214616
  31
0.0
   0
LINE
   5
269
 100
AcDbEntity
   8
LEVEL001
 100
AcDbLine
   6
DOT
  62
1
  10
 73.799188202174
  20
 142.06438214616
  30
0.0
  11
 73.799188202174
  21
 174.56438214616
  31
0.0
   0
LINE
   5
26A
 100
AcDbEntity
   8
LEVEL001
 100
AcDbLine
   6
DOT
  62
1
  10
 95.599188202174
  20
 142.06438214616
  30
0.0
  11
 95.599188202174
  21
 174.56438214616
  31
0.0
   0
LINE
   5
26B
 100
AcDbEntity
   8
LEVEL001
 100
AcDbLine
   6
DOT
  62
1
  10
 74.199188202174
  20
 158.56438214616
  30
0.0
  11
 74.199188202174
  21
 160.56438214616
  31
0.0
   0
LINE
   5
26C
 100
AcDbEntity
   8
LEVEL001
 100
AcDbLine
   6
DOT
  62
1
  10
 73.799188202174
  20
 160.56438214616
  30
0.0
  11
 74.199188202174
  21
 160.56438214616
  31
0.0
   0
LINE
   5
26D
 100
AcDbEntity
   8
LEVEL001
 100
AcDbLine
   6
DOT
  62
1
  10
 74.199188202174
  20
 156.56438214616
  30
0.0
  11
 74.199188202174
  21
 158.56438214616
  31
0.0
   0
LINE
   5
26E
 100
AcDbEntity
   8
LEVEL001
 100
AcDbLine
   6
DOT
  62
1
  10
 73.799188202174
  20
 156.56438214616
  30
0.0
  11
 74.199188202174
  21
 156.56438214616
  31
0.0
   0
LINE
   5
26F
 100
AcDbEntity
   8
LEVEL001
 100
AcDbLine
   6
DOT
  62
1
  10
 95.199188202174
  20
 158.56438214616
  30
0.0
  11
 95.199188202174
  21
 160.56438214616
  31
0.0
   0
LINE
   5
270
 100
AcDbEntity
   8
LEVEL001
 100
AcDbLine
   6
DOT
  62
1
  10
 95.199188202174
  20
 160.56438214616
  30
0.0
  11
 95.599188202174
  21
 160.56438214616
  31
0.0
   0
LINE
   5
271
 100
AcDbEntity
   8
LEVEL001
 100
AcDbLine
   6
DOT
  62
1
  10
 95.199188202174
  20
 156.56438214616
  30
0.0
  11
 95.199188202174
  21
 158.56438214616
  31
0.0
   0
LINE
   5
272
 100
AcDbEntity
   8
LEVEL001
 100
AcDbLine
   6
DOT
  62
1
  10
 95.199188202174
  20
 156.56438214616
  30
0.0
  11
 95.599188202174
  21
 156.56438214616
  31
0.0
   0
DIMENSION
   5
273
 100
AcDbEntity
   8
LEVEL001
   6
CONTINUOUS
  62
3
 100
AcDbDimension
   2
*D3
  10
 125.96878658644
  20
 229.06438214616
  30
0.0
  11
 125.96878658644
  21
 207.56438214616
  31
0.0
  70
0
   3
GMM002
 100
AcDbAlignedDimension
  13
 125.96878658644
  23
 186.06438214616
  33
0.0
  14
 182.25775318334
  24
 229.06438214616
  34
0.0
  50
 90.000000000000
 100
AcDbRotatedDimension
   0
INSERT
   5
274
 100
AcDbEntity
   8
LEVEL001
 100
AcDbBlockReference
   2
*D4
  10
0.0
  20
0.0
  30
0.0
   0
LINE
   5
275
 100
AcDbEntity
   8
LEVEL001
 100
AcDbLine
   6
DASHDOT
  62
3
  10
 97.966125457698
  20
 170.06438214616
  30
0.0
  11
 71.199984855116
  21
 170.06438214616
  31
0.0
   0
LINE
   5
276
 100
AcDbEntity
   8
LEVEL001
 100
AcDbLine
   6
DASHDOT
  62
3
  10
 97.966125457698
  20
 147.06438214616
  30
0.0
  11
 71.199984855116
  21
 147.06438214616
  31
0.0
   0
DIMENSION
   5
277
 100
AcDbEntity
   8
LEVEL001
   6
CONTINUOUS
  62
3
 100
AcDbDimension
   2
*D5
  10
 125.96878658644
  20
 142.06438214616
  30
0.0
  11
 125.96878658644
  21
 164.06438214616
  31
0.0
  70
0
   3
GMM002
 100
AcDbAlignedDimension
  13
 143.93675637369
  23
 186.06438214616
  33
0.0
  14
 143.93675637369
  24
 142.06438214616
  34
0.0
  50
 270.00000000000
 100
AcDbRotatedDimension
   0
DIMENSION
   5
278
 100
AcDbEntity
   8
LEVEL001
   6
CONTINUOUS
  62
3
 100
AcDbDimension
   2
*D6
  10
 113.19711525128
  20
 147.06438214616
  30
0.0
  11
 113.19711525128
  21
 158.56438214616
  31
0.0
  70
0
   3
GMM002
 100
AcDbAlignedDimension
  13
 97.966125457698
  23
 170.06438214616
  33
0.0
  14
 113.19711525128
  24
 147.06438214616
  34
0.0
  50
 270.00000000000
 100
AcDbRotatedDimension
   0
DIMENSION
   5
279
 100
AcDbEntity
   8
LEVEL001
   6
CONTINUOUS
  62
3
 100
AcDbDimension
   2
*D7
  10
 113.19711525128
  20
 170.06438214616
  30
0.0
  11
 113.19711525128
  21
 178.06438214616
  31
0.0
  70
0
   3
GMM002
 100
AcDbAlignedDimension
  13
 96.699188202174
  23
 186.06438214616
  33
0.0
  14
 113.19711525128
  24
 170.06438214616
  34
0.0
  50
 270.00000000000
 100
AcDbRotatedDimension
   0
DIMENSION
   5
27A
 100
AcDbEntity
   8
LEVEL001
   6
CONTINUOUS
  62
3
 100
AcDbDimension
   2
*D8
  10
 113.19711525128
  20
 147.06438214616
  30
0.0
  11
 113.19711525128
  21
 144.56438214616
  31
0.0
  70
0
   3
GMM002
 100
AcDbAlignedDimension
  13
 96.699188202174
  23
 142.06438214616
  33
0.0
  14
 97.966125457698
  24
 147.06438214616
  34
0.0
  50
 90.000000000000
 100
AcDbRotatedDimension
   0
DIMENSION
   5
27B
 100
AcDbEntity
   8
LEVEL001
   6
CONTINUOUS
  62
3
 100
AcDbDimension
   2
*D9
  10
 153.93675637369
  20
 125.69209218386
  30
0.0
  11
 148.72218739792
  21
 125.69209218386
  31
0.0
  70
128
   3
GMM003
 100
AcDbAlignedDimension
  13
 143.93675637369
  23
 142.06438214616
  33
0.0
  14
 153.93675637369
  24
 142.06438214616
  34
0.0
 100
AcDbRotatedDimension
   0
DIMENSION
   5
27C
 100
AcDbEntity
   8
LEVEL001
   6
CONTINUOUS
  62
3
 100
AcDbDimension
   2
*D10
  10
 96.699188202174
  20
 116.55034614111
  30
0.0
  11
 84.699188202174
  21
 116.55034614111
  31
0.0
  70
0
   3
GMM002
 100
AcDbAlignedDimension
  13
 72.699188202174
  23
 142.06438214616
  33
0.0
  14
 96.699188202174
  24
 142.06438214616
  34
0.0
 100
AcDbRotatedDimension
   0
DIMENSION
   5
27D
 100
AcDbEntity
   8
LEVEL001
   6
CONTINUOUS
  62
3
 100
AcDbDimension
   2
*D11
  10
 178.09629587355
  20
 178.06438214616
  30
0.0
  11
 178.09629587355
  21
 182.06438214616
  31
0.0
  70
0
   3
GMM002
 100
AcDbAlignedDimension
  13
 177.23638603723
  23
 186.06438214616
  33
0.0
  14
 177.18264167247
  24
 178.06438214616
  34
0.0
  50
 270.00000000000
 100
AcDbRotatedDimension
   0
DIMENSION
   5
27E
 100
AcDbEntity
   8
LEVEL001
   6
CONTINUOUS
  62
3
 100
AcDbDimension
   2
*D12
  10
 206.93675637369
  20
 196.61137253684
  30
0.0
  11
 203.93675637369
  21
 196.61137253684
  31
0.0
  70
0
   3
GMM002
 100
AcDbAlignedDimension
  13
 200.93675637369
  23
 196.79841754454
  33
0.0
  14
 206.93675637369
  24
 196.68619053992
  34
0.0
 100
AcDbRotatedDimension
   0
LINE
   5
27F
 100
AcDbEntity
   8
LEVEL001
 100
AcDbLine
   6
DASHDOT
  62
3
  10
 203.93675637369
  20
 236.86695055068
  30
0.0
  11
 203.93675637369
  21
 203.08434907963
  31
0.0
   0
DIMENSION
   5
280
 100
AcDbEntity
   8
LEVEL001
   6
CONTINUOUS
  62
3
 100
AcDbDimension
   2
*D13
  10
 197.93675637369
  20
 206.86077883499
  30
0.0
  11
 195.21767201847
  21
 205.06235003611
  31
0.0
  70
132
   3
GMM001
 100
AcDbRadialDimension
  15
 200.43896171334
  25
 208.51576174676
  35
0.0
  40
 6.4905079948486
   0
DIMENSION
   5
281
 100
AcDbEntity
   8
LEVEL001
   6
CONTINUOUS
  62
3
 100
AcDbDimension
   2
*D14
  10
 215.93675637369
  20
 239.94791808846
  30
0.0
  11
 203.93675637369
  21
 239.94791808846
  31
0.0
  70
0
   3
GMM002
 100
AcDbAlignedDimension
  13
 191.93675637369
  23
 216.09910425023
  33
0.0
  14
 215.93675637369
  24
 216.13602977107
  34
0.0
 100
AcDbRotatedDimension
   0
LINE
   5
282
 100
AcDbEntity
   8
LEVEL001
 100
AcDbLine
   6
CONTINUOUS
  62
7
  10
 195.30275367669
  20
 213.84255579621
  30
0.0
  11
 198.98477309051
  21
 212.27963128227
  31
0.0
   0
ELLIPSE
   5
283
 100
AcDbEntity
   8
LEVEL001
   6
DOT
  62
1
 100
AcDbEllipse
  10
 101.19918820217
  20
 212.66433283303
  30
0.0
  11
-2.0000000000000
  21
0.0
  31
0.0
  40
 0.39073112849240
  41
0.0
  42
 6.2831853071796
   0
ELLIPSE
   5
284
 100
AcDbEntity
   8
LEVEL001
   6
DOT
  62
1
 100
AcDbEllipse
  10
 101.19918820217
  20
 213.06109353925
  30
0.0
  11
-2.0000000000000
  21
0.0
  31
0.0
  40
 0.39073112849240
  41
0.0
  42
 6.2831853071796
   0
LINE
   5
285
 100
AcDbEntity
   8
LEVEL001
 100
AcDbLine
   6
DOT
  62
1
  10
 99.199188202174
  20
 213.06109353925
  30
0.0
  11
 99.199188202174
  21
 212.66433283303
  31
0.0
   0
LINE
   5
286
 100
AcDbEntity
   8
LEVEL001
 100
AcDbLine
   6
DOT
  62
1
  10
 103.19918820217
  20
 213.06109353925
  30
0.0
  11
 103.19918820217
  21
 212.66433283303
  31
0.0
   0
LINE
   5
287
 100
AcDbEntity
   8
LEVEL001
 100
AcDbLine
   6
DOT
  62
1
  10
 103.19918820217
  20
 212.66433283303
  30
0.0
  11
 104.36000457591
  21
 211.77634239636
  31
0.0
   0
LINE
   5
288
 100
AcDbEntity
   8
LEVEL001
 100
AcDbLine
   6
DOT
  62
1
  10
 99.199188202174
  20
 212.66433283303
  30
0.0
  11
 98.038371828435
  21
 211.77634239636
  31
0.0
   0
ELLIPSE
   5
289
 100
AcDbEntity
   8
LEVEL001
   6
DOT
  62
1
 100
AcDbEllipse
  10
 101.19918820217
  20
 211.05773649797
  30
0.0
  11
-3.6000000000000
  21
0.0
  31
0.0
  40
 0.41703080580885
  41
0.0
  42
 6.2831853071796
   0
LINE
   5
28A
 100
AcDbEntity
   8
LEVEL001
 100
AcDbLine
   6
DOT
  62
1
  10
 70.199188202174
  20
 213.06109353925
  30
0.0
  11
 70.199188202174
  21
 212.66433283303
  31
0.0
   0
LINE
   5
28B
 100
AcDbEntity
   8
LEVEL001
 100
AcDbLine
   6
DOT
  62
1
  10
 66.199188202174
  20
 213.06109353925
  30
0.0
  11
 66.199188202174
  21
 212.66433283303
  31
0.0
   0
LINE
   5
28C
 100
AcDbEntity
   8
LEVEL001
 100
AcDbLine
   6
DOT
  62
1
  10
 66.199188202174
  20
 212.66433283303
  30
0.0
  11
 65.038371828435
  21
 211.77634239636
  31
0.0
   0
LINE
   5
28D
 100
AcDbEntity
   8
LEVEL001
 100
AcDbLine
   6
DOT
  62
1
  10
 70.199188202174
  20
 212.66433283303
  30
0.0
  11
 71.360004575913
  21
 211.77634239636
  31
0.0
   0
LINE
   5
28E
 100
AcDbEntity
   8
LEVEL001
 100
AcDbLine
   6
DASHDOT
  62
3
  10
 68.199188202174
  20
 216.55697584057
  30
0.0
  11
 68.199188202174
  21
 207.84067848151
  31
0.0
   0
LINE
   5
28F
 100
AcDbEntity
   8
LEVEL001
 100
AcDbLine
   6
DASHDOT
  62
3
  10
 101.19918820217
  20
 216.55697584057
  30
0.0
  11
 101.19918820217
  21
 207.84067848151
  31
0.0
   0
ELLIPSE
   5
290
 100
AcDbEntity
   8
LEVEL001
   6
CONTINUOUS
  62
7
 100
AcDbEllipse
  10
 68.199188202174
  20
 211.05773649797
  30
0.0
  11
 3.6000000000000
  21
0.0
  31
0.0
  40
 0.41703080580885
  41
0.0
  42
 6.2831853071796
   0
ELLIPSE
   5
291
 100
AcDbEntity
   8
LEVEL001
   6
DOT
  62
1
 100
AcDbEllipse
  10
 68.199188202174
  20
 212.66433283303
  30
0.0
  11
 2.0000000000000
  21
0.0
  31
0.0
  40
 0.39073112849240
  41
-0.41358416042160
  42
-2.7280084931682
   0
ELLIPSE
   5
292
 100
AcDbEntity
   8
LEVEL001
   6
DOT
  62
1
 100
AcDbEllipse
  10
 68.199188202174
  20
 213.06109353925
  30
0.0
  11
 2.0000000000000
  21
0.0
  31
0.0
  40
 0.39073112849240
  41
-0.87588559095891
  42
-2.2657070626309
   0
LINE
   5
293
 100
AcDbEntity
   8
LEVEL001
 100
AcDbLine
   6
CONTINUOUS
  62
15
  10
 66.035536551787
  20
 212.25764157074
  30
0.0
  11
 63.699188202174
  21
 212.25764157074
  31
0.0
   0
LINE
   5
294
 100
AcDbEntity
   8
LEVEL001
 100
AcDbLine
   6
CONTINUOUS
  62
15
  10
 105.69918820217
  20
 212.25764157074
  30
0.0
  11
 70.362839852560
  21
 212.25764157074
  31
0.0
   0
ELLIPSE
   5
295
 100
AcDbEntity
   8
LEVEL001
   6
CONTINUOUS
  62
15
 100
AcDbEllipse
  10
 68.199188202174
  20
 213.06109353925
  30
0.0
  11
 2.0000000000000
  21
0.0
  31
0.0
  40
 0.39073112849240
  41
-2.2536165586034
  42
-0.87588559095891
   0
ELLIPSE
   5
296
 100
AcDbEntity
   8
LEVEL001
   6
CONTINUOUS
  62
15
 100
AcDbEllipse
  10
 68.199188202174
  20
 212.66433283303
  30
0.0
  11
 2.0000000000000
  21
0.0
  31
0.0
  40
 0.39073112849240
  41
-2.7280084931682
  42
-0.41358416042164
   0
DIMENSION
   5
297
 100
AcDbEntity
   8
LEVEL001
   6
CONTINUOUS
  62
3
 100
AcDbDimension
   2
*D15
  10
 272.90322605354
  20
 142.56438214616
  30
0.0
  11
 270.60477947440
  21
 140.56904425340
  31
0.0
  70
132
   3
GMM001
 100
AcDbRadialDimension
  15
 272.52565407589
  25
 142.23660264453
  35
0.0
  40
 3.0674559055799
   0
ARC
   5
298
 100
AcDbEntity
   8
LEVEL001
   6
DOT
  62
1
 100
AcDbCircle
  10
 295.60322605353
  20
 185.26438214616
  30
0.0
  40
 0.80000000000000
 100
AcDbArc
  50
0.0
  51
 90.000000000004
   0
POINT
   5
299
 100
AcDbEntity
   8
LEVEL001
 100
AcDbPoint
  62
1
  10
 296.40322605353
  20
 186.06438214616
  30
0.0
   0
LINE
   5
29A
 100
AcDbEntity
   8
LEVEL001
 100
AcDbLine
   6
DOT
  62
1
  10
 273.20322605353
  20
 186.06438214616
  30
0.0
  11
 295.60322605353
  21
 186.06438214616
  31
0.0
   0
ARC
   5
29B
 100
AcDbEntity
   8
LEVEL001
   6
DOT
  62
1
 100
AcDbCircle
  10
 273.20322605353
  20
 185.26438214616
  30
0.0
  40
 0.80000000000000
 100
AcDbArc
  50
 89.999999999996
  51
 180.00000000008
   0
POINT
   5
29C
 100
AcDbEntity
   8
LEVEL001
 100
AcDbPoint
  62
1
  10
 272.40322605353
  20
 186.06438214616
  30
0.0
   0
DIMENSION
   5
29D
 100
AcDbEntity
   8
LEVEL001
   6
CONTINUOUS
  62
3
 100
AcDbDimension
   2
*D16
  10
 101.19918820217
  20
 232.06053031248
  30
0.0
  11
 84.699188202174
  21
 232.06053031248
  31
0.0
  70
0
   3
GMM002
 100
AcDbAlignedDimension
  13
 68.199188202174
  23
 216.55697584057
  33
0.0
  14
 101.19918820217
  24
 216.55697584057
  34
0.0
 100
AcDbRotatedDimension
   0
ARC
   5
29E
 100
AcDbEntity
   8
LEVEL001
   6
CONTINUOUS
  62
7
 100
AcDbCircle
  10
 64.699188202174
  20
 213.63690399718
  30
0.0
  40
 1.0000000000000
 100
AcDbArc
  50
 90.000000000000
  51
 180.00000000012
   0
POINT
   5
29F
 100
AcDbEntity
   8
LEVEL001
 100
AcDbPoint
  62
7
  10
 63.699188202174
  20
 214.63690399718
  30
0.0
   0
LINE
   5
2A0
 100
AcDbEntity
   8
LEVEL001
 100
AcDbLine
   6
CONTINUOUS
  62
7
  10
 63.699188202174
  20
 212.25764157074
  30
0.0
  11
 63.699188202174
  21
 213.63690399718
  31
0.0
   0
LINE
   5
2A1
 100
AcDbEntity
   8
LEVEL001
 100
AcDbLine
   6
CONTINUOUS
  62
7
  10
 104.69918820217
  20
 214.63690399718
  30
0.0
  11
 64.699188202174
  21
 214.63690399718
  31
0.0
   0
ARC
   5
2A2
 100
AcDbEntity
   8
LEVEL001
   6
CONTINUOUS
  62
7
 100
AcDbCircle
  10
 104.69918820217
  20
 213.63690399718
  30
0.0
  40
 1.0000000000000
 100
AcDbArc
  50
 0.84679087839285E-10
  51
 90.000000000000
   0
POINT
   5
2A3
 100
AcDbEntity
   8
LEVEL001
 100
AcDbPoint
  62
7
  10
 105.69918820217
  20
 214.63690399718
  30
0.0
   0
LINE
   5
2A4
 100
AcDbEntity
   8
LEVEL001
 100
AcDbLine
   6
CONTINUOUS
  62
7
  10
 105.69918820217
  20
 212.25764157074
  30
0.0
  11
 105.69918820217
  21
 213.63690399718
  31
0.0
   0
DIMENSION
   5
2A5
 100
AcDbEntity
   8
LEVEL001
   6
CONTINUOUS
  62
3
 100
AcDbDimension
   2
*D17
  10
 105.69918820217
  20
 241.71906689784
  30
0.0
  11
 84.699188202174
  21
 241.71906689784
  31
0.0
  70
0
   3
GMM002
 100
AcDbAlignedDimension
  13
 63.699188202174
  23
 214.63690399718
  33
0.0
  14
 105.69918820217
  24
 214.63690399718
  34
0.0
 100
AcDbRotatedDimension
   0
LINE
   5
2A6
 100
AcDbEntity
   8
LEVEL001
 100
AcDbLine
   6
DASHDOT
  62
3
  10
 203.93675637369
  20
 195.88779240818
  30
0.0
  11
 203.93675637369
  21
 142.56442995486
  31
0.0
   0
LINE
   5
2A7
 100
AcDbEntity
   8
LEVEL001
 100
AcDbLine
   6
DASHDOT
  62
3
  10
 203.93675637369
  20
 104.15110690464
  30
0.0
  11
 203.93675637369
  21
 50.108416003808
  31
0.0
   0
DIMENSION
   5
2A8
 100
AcDbEntity
   8
LEVEL001
   6
CONTINUOUS
  62
3
 100
AcDbDimension
   2
*D18
  10
 203.93675637369
  20
 116.55034614111
  30
0.0
  11
 173.93675637369
  21
 116.55034614111
  31
0.0
  70
0
   3
GMM002
 100
AcDbAlignedDimension
  13
 143.93675637369
  23
 124.50816521788
  33
0.0
  14
 203.93675637369
  24
 141.96744101112
  34
0.0
 100
AcDbRotatedDimension
   0
LINE
   5
2A9
 100
AcDbEntity
   8
LEVEL001
 100
AcDbLine
   6
DASHDOT
  62
3
  10
 84.699188202174
  20
 224.82361715774
  30
0.0
  11
 84.699188202174
  21
 135.43625857800
  31
0.0
   0
DIMENSION
   5
2AA
 100
AcDbEntity
   8
LEVEL001
   6
CONTINUOUS
  62
3
 100
AcDbDimension
   2
*D19
  10
 91.449188202174
  20
 125.69209218386
  30
0.0
  11
 84.942061333778
  21
 125.69209218386
  31
0.0
  70
128
   3
GMM004
 100
AcDbAlignedDimension
  13
 77.949188202174
  23
 139.91382800217
  33
0.0
  14
 91.449188202174
  24
 139.67900086131
  34
0.0
 100
AcDbRotatedDimension
   0
LINE
   5
2AB
 100
AcDbEntity
   8
LEVEL001
 100
AcDbLine
   6
DASHDOT
  62
3
  10
 77.949188202174
  20
 176.76706327316
  30
0.0
  11
 77.949188202174
  21
 139.91382800217
  31
0.0
   0
LINE
   5
2AC
 100
AcDbEntity
   8
LEVEL001
 100
AcDbLine
   6
DASHDOT
  62
3
  10
 91.449188202174
  20
 176.76706327316
  30
0.0
  11
 91.449188202174
  21
 139.67900086131
  31
0.0
   0
LINE
   5
2AD
 100
AcDbEntity
   8
LEVEL001
 100
AcDbLine
   6
CONTINUOUS
  62
15
  10
 305.40322605353
  20
 212.25764157074
  30
0.0
  11
 270.06687770392
  21
 212.25764157074
  31
0.0
   0
ELLIPSE
   5
2AE
 100
AcDbEntity
   8
LEVEL001
   6
DOT
  62
1
 100
AcDbEllipse
  10
 300.90322605353
  20
 212.66433283303
  30
0.0
  11
-2.0000000000000
  21
0.0
  31
0.0
  40
 0.39073112849240
  41
0.0
  42
 6.2831853071796
   0
ELLIPSE
   5
2AF
 100
AcDbEntity
   8
LEVEL001
   6
DOT
  62
1
 100
AcDbEllipse
  10
 300.90322605353
  20
 213.06109353925
  30
0.0
  11
-2.0000000000000
  21
0.0
  31
0.0
  40
 0.39073112849240
  41
0.0
  42
 6.2831853071796
   0
LINE
   5
2B0
 100
AcDbEntity
   8
LEVEL001
 100
AcDbLine
   6
DOT
  62
1
  10
 298.90322605353
  20
 213.06109353925
  30
0.0
  11
 298.90322605353
  21
 212.66433283303
  31
0.0
   0
LINE
   5
2B1
 100
AcDbEntity
   8
LEVEL001
 100
AcDbLine
   6
DOT
  62
1
  10
 302.90322605353
  20
 213.06109353925
  30
0.0
  11
 302.90322605353
  21
 212.66433283303
  31
0.0
   0
LINE
   5
2B2
 100
AcDbEntity
   8
LEVEL001
 100
AcDbLine
   6
DOT
  62
1
  10
 302.90322605353
  20
 212.66433283303
  30
0.0
  11
 304.06404242727
  21
 211.77634239636
  31
0.0
   0
LINE
   5
2B3
 100
AcDbEntity
   8
LEVEL001
 100
AcDbLine
   6
DOT
  62
1
  10
 298.90322605353
  20
 212.66433283303
  30
0.0
  11
 297.74240967979
  21
 211.77634239636
  31
0.0
   0
ELLIPSE
   5
2B4
 100
AcDbEntity
   8
LEVEL001
   6
DOT
  62
1
 100
AcDbEllipse
  10
 300.90322605353
  20
 211.05773649797
  30
0.0
  11
-3.6000000000000
  21
0.0
  31
0.0
  40
 0.41703080580885
  41
0.0
  42
 6.2831853071796
   0
LINE
   5
2B5
 100
AcDbEntity
   8
LEVEL001
 100
AcDbLine
   6
DASHDOT
  62
3
  10
 300.90322605353
  20
 216.55697584057
  30
0.0
  11
 300.90322605353
  21
 207.84067848151
  31
0.0
   0
LINE
   5
2B6
 100
AcDbEntity
   8
LEVEL001
 100
AcDbLine
   6
DOT
  62
1
  10
 269.90322605353
  20
 213.06109353925
  30
0.0
  11
 269.90322605353
  21
 212.66433283303
  31
0.0
   0
LINE
   5
2B7
 100
AcDbEntity
   8
LEVEL001
 100
AcDbLine
   6
DOT
  62
1
  10
 265.90322605353
  20
 213.06109353925
  30
0.0
  11
 265.90322605353
  21
 212.66433283303
  31
0.0
   0
LINE
   5
2B8
 100
AcDbEntity
   8
LEVEL001
 100
AcDbLine
   6
DOT
  62
1
  10
 265.90322605353
  20
 212.66433283303
  30
0.0
  11
 264.74240967979
  21
 211.77634239636
  31
0.0
   0
LINE
   5
2B9
 100
AcDbEntity
   8
LEVEL001
 100
AcDbLine
   6
DOT
  62
1
  10
 269.90322605353
  20
 212.66433283303
  30
0.0
  11
 271.06404242727
  21
 211.77634239636
  31
0.0
   0
LINE
   5
2BA
 100
AcDbEntity
   8
LEVEL001
 100
AcDbLine
   6
DASHDOT
  62
3
  10
 267.90322605353
  20
 216.55697584057
  30
0.0
  11
 267.90322605353
  21
 207.84067848151
  31
0.0
   0
ELLIPSE
   5
2BB
 100
AcDbEntity
   8
LEVEL001
   6
CONTINUOUS
  62
7
 100
AcDbEllipse
  10
 267.90322605353
  20
 211.05773649797
  30
0.0
  11
 3.6000000000000
  21
0.0
  31
0.0
  40
 0.41703080580885
  41
0.0
  42
 6.2831853071796
   0
ELLIPSE
   5
2BC
 100
AcDbEntity
   8
LEVEL001
   6
DOT
  62
1
 100
AcDbEllipse
  10
 267.90322605353
  20
 212.66433283303
  30
0.0
  11
 2.0000000000000
  21
0.0
  31
0.0
  40
 0.39073112849240
  41
-0.41358416042160
  42
-2.7280084931682
   0
ELLIPSE
   5
2BD
 100
AcDbEntity
   8
LEVEL001
   6
DOT
  62
1
 100
AcDbEllipse
  10
 267.90322605353
  20
 213.06109353925
  30
0.0
  11
 2.0000000000000
  21
0.0
  31
0.0
  40
 0.39073112849240
  41
-0.87588559095890
  42
-2.2657070626309
   0
LINE
   5
2BE
 100
AcDbEntity
   8
LEVEL001
 100
AcDbLine
   6
CONTINUOUS
  62
15
  10
 265.73957440314
  20
 212.25764157074
  30
0.0
  11
 263.40322605353
  21
 212.25764157074
  31
0.0
   0
ELLIPSE
   5
2BF
 100
AcDbEntity
   8
LEVEL001
   6
CONTINUOUS
  62
15
 100
AcDbEllipse
  10
 267.90322605353
  20
 213.06109353925
  30
0.0
  11
 2.0000000000000
  21
0.0
  31
0.0
  40
 0.39073112849240
  41
-2.2536165586034
  42
-0.87588559095890
   0
ELLIPSE
   5
2C0
 100
AcDbEntity
   8
LEVEL001
   6
CONTINUOUS
  62
15
 100
AcDbEllipse
  10
 267.90322605353
  20
 212.66433283303
  30
0.0
  11
 2.0000000000000
  21
0.0
  31
0.0
  40
 0.39073112849240
  41
-2.7280084931681
  42
-0.41358416042163
   0
LINE
   5
2C1
 100
AcDbEntity
   8
LEVEL001
 100
AcDbLine
   6
CONTINUOUS
  62
7
  10
 191.93675637369
  20
 97.887231626445
  30
0.0
  11
 191.93675637369
  21
 89.887231626445
  31
0.0
   0
ARC
   5
2C2
 100
AcDbEntity
   8
LEVEL001
   6
CONTINUOUS
  62
7
 100
AcDbCircle
  10
 192.93675637369
  20
 97.887231626445
  30
0.0
  40
 1.0000000000000
 100
AcDbArc
  50
 89.999999999997
  51
 180.00000000000
   0
POINT
   5
2C3
 100
AcDbEntity
   8
LEVEL001
 100
AcDbPoint
  62
7
  10
 191.93675637369
  20
 98.887231626445
  30
0.0
   0
LINE
   5
2C4
 100
AcDbEntity
   8
LEVEL001
 100
AcDbLine
   6
CONTINUOUS
  62
7
  10
 192.93675637369
  20
 98.887231626445
  30
0.0
  11
 214.93675637369
  21
 98.887231626445
  31
0.0
   0
ARC
   5
2C5
 100
AcDbEntity
   8
LEVEL001
   6
CONTINUOUS
  62
7
 100
AcDbCircle
  10
 214.93675637369
  20
 97.887231626445
  30
0.0
  40
 1.0000000000000
 100
AcDbArc
  50
 0.21169771959821E-10
  51
 90.000000000000
   0
POINT
   5
2C6
 100
AcDbEntity
   8
LEVEL001
 100
AcDbPoint
  62
7
  10
 215.93675637369
  20
 98.887231626445
  30
0.0
   0
LINE
   5
2C7
 100
AcDbEntity
   8
LEVEL001
 100
AcDbLine
   6
CONTINUOUS
  62
7
  10
 215.93675637369
  20
 97.887231626445
  30
0.0
  11
 215.93675637369
  21
 57.887231626445
  31
0.0
   0
LINE
   5
2C8
 100
AcDbEntity
   8
LEVEL001
 100
AcDbLine
   6
CONTINUOUS
  62
7
  10
 143.93675637369
  20
 77.887231626445
  30
0.0
  11
 143.93675637369
  21
 89.887231626445
  31
0.0
   0
LINE
   5
2C9
 100
AcDbEntity
   8
LEVEL001
 100
AcDbLine
   6
CONTINUOUS
  62
7
  10
 143.93675637369
  20
 65.887231626445
  30
0.0
  11
 143.93675637369
  21
 77.887231626445
  31
0.0
   0
LINE
   5
2CA
 100
AcDbEntity
   8
LEVEL001
 100
AcDbLine
   6
CONTINUOUS
  62
7
  10
 198.93675637369
  20
 77.887231626445
  30
0.0
  11
 198.93675637369
  21
 89.887231626445
  31
0.0
   0
LINE
   5
2CB
 100
AcDbEntity
   8
LEVEL001
 100
AcDbLine
   6
CONTINUOUS
  62
7
  10
 198.93675637369
  20
 65.887231626445
  30
0.0
  11
 198.93675637369
  21
 77.887231626445
  31
0.0
   0
LINE
   5
2CC
 100
AcDbEntity
   8
LEVEL001
 100
AcDbLine
   6
CONTINUOUS
  62
7
  10
 206.93675637369
  20
 77.887231626445
  30
0.0
  11
 206.93675637369
  21
 88.887231626445
  31
0.0
   0
LINE
   5
2CD
 100
AcDbEntity
   8
LEVEL001
 100
AcDbLine
   6
CONTINUOUS
  62
7
  10
 148.43675637369
  20
 65.887231626445
  30
0.0
  11
 148.43675637369
  21
 67.087231626445
  31
0.0
   0
LINE
   5
2CE
 100
AcDbEntity
   8
LEVEL001
 100
AcDbLine
   6
CONTINUOUS
  62
7
  10
 192.93675637369
  20
 56.887231626445
  30
0.0
  11
 214.93675637369
  21
 56.887231626445
  31
0.0
   0
ARC
   5
2CF
 100
AcDbEntity
   8
LEVEL001
   6
CONTINUOUS
  62
7
 100
AcDbCircle
  10
 192.93675637369
  20
 57.887231626445
  30
0.0
  40
 1.0000000000000
 100
AcDbArc
  50
 179.99999999999
  51
 270.00000000000
   0
POINT
   5
2D0
 100
AcDbEntity
   8
LEVEL001
 100
AcDbPoint
  62
7
  10
 191.93675637369
  20
 56.887231626445
  30
0.0
   0
LINE
   5
2D1
 100
AcDbEntity
   8
LEVEL001
 100
AcDbLine
   6
CONTINUOUS
  62
7
  10
 191.93675637369
  20
 65.887231626445
  30
0.0
  11
 191.93675637369
  21
 57.887231626445
  31
0.0
   0
ARC
   5
2D2
 100
AcDbEntity
   8
LEVEL001
   6
CONTINUOUS
  62
7
 100
AcDbCircle
  10
 206.13675637369
  20
 89.087231626448
  30
0.0
  40
 0.80000000000000
 100
AcDbArc
  50
0.0
  51
 90.000000000006
   0
POINT
   5
2D3
 100
AcDbEntity
   8
LEVEL001
 100
AcDbPoint
  62
7
  10
 206.93675637369
  20
 89.887231626445
  30
0.0
   0
LINE
   5
2D4
 100
AcDbEntity
   8
LEVEL001
 100
AcDbLine
   6
CONTINUOUS
  62
7
  10
 206.93675637369
  20
 77.887231626445
  30
0.0
  11
 206.93675637369
  21
 89.087231626445
  31
0.0
   0
ARC
   5
2D5
 100
AcDbEntity
   8
LEVEL001
   6
CONTINUOUS
  62
7
 100
AcDbCircle
  10
 206.13675637369
  20
 66.687231626443
  30
0.0
  40
 0.80000000000000
 100
AcDbArc
  50
 270.00000000000
  51
 0.19032439213877E-9
   0
POINT
   5
2D6
 100
AcDbEntity
   8
LEVEL001
 100
AcDbPoint
  62
7
  10
 206.93675637369
  20
 65.887231626445
  30
0.0
   0
LINE
   5
2D7
 100
AcDbEntity
   8
LEVEL001
 100
AcDbLine
   6
CONTINUOUS
  62
7
  10
 206.93675637369
  20
 66.687231626445
  30
0.0
  11
 206.93675637369
  21
 77.887231626445
  31
0.0
   0
LINE
   5
2D8
 100
AcDbEntity
   8
LEVEL001
 100
AcDbLine
   6
DASHDOT
  62
3
  10
 140.65294668894
  20
 84.637231626445
  30
0.0
  11
 155.50938639873
  21
 84.637231626445
  31
0.0
   0
LINE
   5
2D9
 100
AcDbEntity
   8
LEVEL001
 100
AcDbLine
   6
DOT
  62
1
  10
 143.93675637369
  20
 86.887231626445
  30
0.0
  11
 149.93675637369
  21
 86.887231626445
  31
0.0
   0
LINE
   5
2DA
 100
AcDbEntity
   8
LEVEL001
 100
AcDbLine
   6
DOT
  62
1
  10
 143.93675637369
  20
 82.387231626445
  30
0.0
  11
 149.93675637369
  21
 82.387231626445
  31
0.0
   0
LINE
   5
2DB
 100
AcDbEntity
   8
LEVEL001
 100
AcDbLine
   6
DOT
  62
1
  10
 148.43675637369
  20
 88.387231626445
  30
0.0
  11
 149.93675637369
  21
 88.387231626445
  31
0.0
   0
LINE
   5
2DC
 100
AcDbEntity
   8
LEVEL001
 100
AcDbLine
   6
DOT
  62
1
  10
 148.43675637369
  20
 88.387231626445
  30
0.0
  11
 148.43675637369
  21
 88.687231626445
  31
0.0
   0
LINE
   5
2DD
 100
AcDbEntity
   8
LEVEL001
 100
AcDbLine
   6
CONTINUOUS
  62
7
  10
 148.43675637369
  20
 88.687231626445
  30
0.0
  11
 148.43675637369
  21
 89.887231626445
  31
0.0
   0
LINE
   5
2DE
 100
AcDbEntity
   8
LEVEL001
 100
AcDbLine
   6
DOT
  62
1
  10
 149.93675637369
  20
 81.037231626445
  30
0.0
  11
 149.93675637369
  21
 88.687231626445
  31
0.0
   0
LINE
   5
2DF
 100
AcDbEntity
   8
LEVEL001
 100
AcDbLine
   6
DOT
  62
1
  10
 149.93675637369
  20
 81.037231626445
  30
0.0
  11
 152.23675637369
  21
 81.037231626445
  31
0.0
   0
LINE
   5
2E0
 100
AcDbEntity
   8
LEVEL001
 100
AcDbLine
   6
DOT
  62
1
  10
 143.93675637369
  20
 68.887231626445
  30
0.0
  11
 149.93675637369
  21
 68.887231626445
  31
0.0
   0
LINE
   5
2E1
 100
AcDbEntity
   8
LEVEL001
 100
AcDbLine
   6
DOT
  62
1
  10
 149.93675637369
  20
 74.737231626445
  30
0.0
  11
 149.93675637369
  21
 67.087231626445
  31
0.0
   0
LINE
   5
2E2
 100
AcDbEntity
   8
LEVEL001
 100
AcDbLine
   6
DOT
  62
1
  10
 148.43675637369
  20
 67.387231626445
  30
0.0
  11
 149.93675637369
  21
 67.387231626445
  31
0.0
   0
LINE
   5
2E3
 100
AcDbEntity
   8
LEVEL001
 100
AcDbLine
   6
DOT
  62
1
  10
 148.43675637369
  20
 67.387231626445
  30
0.0
  11
 148.43675637369
  21
 67.087231626445
  31
0.0
   0
LINE
   5
2E4
 100
AcDbEntity
   8
LEVEL001
 100
AcDbLine
   6
DOT
  62
1
  10
 143.93675637369
  20
 73.387231626445
  30
0.0
  11
 149.93675637369
  21
 73.387231626445
  31
0.0
   0
LINE
   5
2E5
 100
AcDbEntity
   8
LEVEL001
 100
AcDbLine
   6
DOT
  62
1
  10
 149.93675637369
  20
 74.737231626445
  30
0.0
  11
 152.23675637369
  21
 74.737231626445
  31
0.0
   0
LINE
   5
2E6
 100
AcDbEntity
   8
LEVEL001
 100
AcDbLine
   6
DASHDOT
  62
3
  10
 134.11237712591
  20
 77.887231626445
  30
0.0
  11
 232.19310853292
  21
 77.887231626445
  31
0.0
   0
LINE
   5
2E7
 100
AcDbEntity
   8
LEVEL001
 100
AcDbLine
   6
DASHDOT
  62
3
  10
 188.60276274520
  20
 61.387231626445
  30
0.0
  11
 202.53397761166
  21
 61.387231626445
  31
0.0
   0
LINE
   5
2E8
 100
AcDbEntity
   8
LEVEL001
 100
AcDbLine
   6
DOT
  62
1
  10
 192.93675637369
  20
 77.887231626445
  30
0.0
  11
 192.93675637369
  21
 89.887231626445
  31
0.0
   0
LINE
   5
2E9
 100
AcDbEntity
   8
LEVEL001
 100
AcDbLine
   6
DOT
  62
1
  10
 191.93675637369
  20
 77.887231626445
  30
0.0
  11
 191.93675637369
  21
 89.887231626445
  31
0.0
   0
ARC
   5
2EA
 100
AcDbEntity
   8
LEVEL001
   6
DOT
  62
1
 100
AcDbCircle
  10
 201.73675637369
  20
 89.087231626445
  30
0.0
  40
 0.80000000000000
 100
AcDbArc
  50
 90.000000000157
  51
 180.00000000000
   0
POINT
   5
2EB
 100
AcDbEntity
   8
LEVEL001
 100
AcDbPoint
  62
1
  10
 200.93675637369
  20
 89.887231626445
  30
0.0
   0
LINE
   5
2EC
 100
AcDbEntity
   8
LEVEL001
 100
AcDbLine
   6
DOT
  62
1
  10
 200.93675637369
  20
 77.887231626445
  30
0.0
  11
 200.93675637369
  21
 89.087231626445
  31
0.0
   0
LINE
   5
2ED
 100
AcDbEntity
   8
LEVEL001
 100
AcDbLine
   6
DOT
  62
1
  10
 192.93675637369
  20
 65.887231626445
  30
0.0
  11
 192.93675637369
  21
 77.887231626445
  31
0.0
   0
LINE
   5
2EE
 100
AcDbEntity
   8
LEVEL001
 100
AcDbLine
   6
DOT
  62
1
  10
 191.93675637369
  20
 65.887231626445
  30
0.0
  11
 191.93675637369
  21
 77.887231626445
  31
0.0
   0
LINE
   5
2EF
 100
AcDbEntity
   8
LEVEL001
 100
AcDbLine
   6
DOT
  62
1
  10
 200.93675637369
  20
 66.687231626445
  30
0.0
  11
 200.93675637369
  21
 77.887231626445
  31
0.0
   0
ARC
   5
2F0
 100
AcDbEntity
   8
LEVEL001
   6
DOT
  62
1
 100
AcDbCircle
  10
 201.73675637369
  20
 66.687231626445
  30
0.0
  40
 0.80000000000000
 100
AcDbArc
  50
 180.00000000000
  51
 269.99999999982
   0
POINT
   5
2F1
 100
AcDbEntity
   8
LEVEL001
 100
AcDbPoint
  62
1
  10
 200.93675637369
  20
 65.887231626445
  30
0.0
   0
LINE
   5
2F2
 100
AcDbEntity
   8
LEVEL001
 100
AcDbLine
   6
CONTINUOUS
  62
7
  10
 143.93675637369
  20
 89.887231626445
  30
0.0
  11
 206.13675637369
  21
 89.887231626445
  31
0.0
   0
LINE
   5
2F3
 100
AcDbEntity
   8
LEVEL001
 100
AcDbLine
   6
CONTINUOUS
  62
7
  10
 143.93675637369
  20
 65.887231626445
  30
0.0
  11
 206.13675637369
  21
 65.887231626445
  31
0.0
   0
ARC
   5
2F4
 100
AcDbEntity
   8
LEVEL001
   6
CONTINUOUS
  62
7
 100
AcDbCircle
  10
 214.93675637369
  20
 57.887231626445
  30
0.0
  40
 1.0000000000000
 100
AcDbArc
  50
 270.00000000000
  51
0.0
   0
POINT
   5
2F5
 100
AcDbEntity
   8
LEVEL001
 100
AcDbPoint
  62
7
  10
 215.93675637369
  20
 56.887231626445
  30
0.0
   0
DIMENSION
   5
2F6
 100
AcDbEntity
   8
LEVEL001
   6
CONTINUOUS
  62
3
 100
AcDbDimension
   2
*D20
  10
 214.93675637369
  20
 97.887231626443
  30
0.0
  11
 219.65930085191
  21
 102.26429038941
  31
0.0
  70
132
   3
GMM001
 100
AcDbRadialDimension
  15
 215.67018153530
  25
 98.567001831973
  35
0.0
  40
 5.7027880119595
   0
LINE
   5
2F7
 100
AcDbEntity
   8
LEVEL001
 100
AcDbLine
   6
DASHDOT
  62
3
  10
 140.65294668894
  20
 71.137231626445
  30
0.0
  11
 155.50938639873
  21
 71.137231626445
  31
0.0
   0
LINE
   5
2F8
 100
AcDbEntity
   8
LEVEL001
 100
AcDbLine
   6
CONTINUOUS
  62
7
  10
 148.53675637369
  20
 66.887231626445
  30
0.0
  11
 148.53675637369
  21
 65.887231626445
  31
0.0
   0
LINE
   5
2F9
 100
AcDbEntity
   8
LEVEL001
 100
AcDbLine
   6
CONTINUOUS
  62
7
  10
 149.83675637369
  20
 66.887231626445
  30
0.0
  11
 152.43675637369
  21
 66.887231626445
  31
0.0
   0
LINE
   5
2FA
 100
AcDbEntity
   8
LEVEL001
 100
AcDbLine
   6
CONTINUOUS
  62
7
  10
 152.43675637369
  20
 66.887231626445
  30
0.0
  11
 152.43675637369
  21
 88.887231626445
  31
0.0
   0
LINE
   5
2FB
 100
AcDbEntity
   8
LEVEL001
 100
AcDbLine
   6
CONTINUOUS
  62
7
  10
 149.83675637369
  20
 88.887231626445
  30
0.0
  11
 152.43675637369
  21
 88.887231626445
  31
0.0
   0
LINE
   5
2FC
 100
AcDbEntity
   8
LEVEL001
 100
AcDbLine
   6
CONTINUOUS
  62
7
  10
 148.53675637369
  20
 88.887231626445
  30
0.0
  11
 148.53675637369
  21
 89.887231626445
  31
0.0
   0
LINE
   5
2FD
 100
AcDbEntity
   8
LEVEL001
 100
AcDbLine
   6
CONTINUOUS
  62
7
  10
 148.43675637369
  20
 67.087231626445
  30
0.0
  11
 151.73675637369
  21
 67.087231626445
  31
0.0
   0
ARC
   5
2FE
 100
AcDbEntity
   8
LEVEL001
   6
CONTINUOUS
  62
7
 100
AcDbCircle
  10
 151.73675637369
  20
 67.587231626445
  30
0.0
  40
 0.50000000000000
 100
AcDbArc
  50
 270.00000000000
  51
 0.29311991944368E-10
   0
POINT
   5
2FF
 100
AcDbEntity
   8
LEVEL001
 100
AcDbPoint
  62
7
  10
 152.23675637369
  20
 67.087231626445
  30
0.0
   0
LINE
   5
300
 100
AcDbEntity
   8
LEVEL001
 100
AcDbLine
   6
CONTINUOUS
  62
7
  10
 148.43675637369
  20
 88.687231626445
  30
0.0
  11
 151.73675637369
  21
 88.687231626445
  31
0.0
   0
ARC
   5
301
 100
AcDbEntity
   8
LEVEL001
   6
CONTINUOUS
  62
7
 100
AcDbCircle
  10
 151.73675637369
  20
 88.187231626446
  30
0.0
  40
 0.50000000000000
 100
AcDbArc
  50
0.0
  51
 90.000000000000
   0
POINT
   5
302
 100
AcDbEntity
   8
LEVEL001
 100
AcDbPoint
  62
7
  10
 152.23675637369
  20
 88.687231626445
  30
0.0
   0
LINE
   5
303
 100
AcDbEntity
   8
LEVEL001
 100
AcDbLine
   6
CONTINUOUS
  62
7
  10
 152.23675637369
  20
 88.187231626445
  30
0.0
  11
 152.23675637369
  21
 67.587231626445
  31
0.0
   0
ARC
   5
304
 100
AcDbEntity
   8
LEVEL001
   6
CONTINUOUS
  62
7
 100
AcDbCircle
  10
 148.93675637369
  20
 88.887231626444
  30
0.0
  40
 0.40000000000000
 100
AcDbArc
  50
 179.99999999978
  51
 209.99999999974
   0
ARC
   5
305
 100
AcDbEntity
   8
LEVEL001
   6
CONTINUOUS
  62
7
 100
AcDbCircle
  10
 149.43675637369
  20
 88.887231626445
  30
0.0
  40
 0.40000000000000
 100
AcDbArc
  50
 330.00000000028
  51
 0.11602663477979E-9
   0
LINE
   5
306
 100
AcDbEntity
   8
LEVEL001
 100
AcDbLine
   6
DOT
  62
15
  10
 148.93675637369
  20
 88.487231626445
  30
0.0
  11
 149.43675637369
  21
 88.487231626445
  31
0.0
   0
ARC
   5
307
 100
AcDbEntity
   8
LEVEL001
   6
DOT
  62
15
 100
AcDbCircle
  10
 148.93675637369
  20
 88.887231626445
  30
0.0
  40
 0.40000000000000
 100
AcDbArc
  50
 210.00000000010
  51
 270.00000000030
   0
ARC
   5
308
 100
AcDbEntity
   8
LEVEL001
   6
DOT
  62
15
 100
AcDbCircle
  10
 149.43675637369
  20
 88.887231626444
  30
0.0
  40
 0.40000000000000
 100
AcDbArc
  50
 269.99999999980
  51
 330.00000000027
   0
ARC
   5
309
 100
AcDbEntity
   8
LEVEL001
   6
CONTINUOUS
  62
7
 100
AcDbCircle
  10
 148.93675637369
  20
 66.887231626444
  30
0.0
  40
 0.40000000000000
 100
AcDbArc
  50
 149.99999999977
  51
 179.99999999978
   0
ARC
   5
30A
 100
AcDbEntity
   8
LEVEL001
   6
CONTINUOUS
  62
7
 100
AcDbCircle
  10
 149.43675637369
  20
 66.887231626449
  30
0.0
  40
 0.40000000000000
 100
AcDbArc
  50
0.0
  51
 29.999999999401
   0
LINE
   5
30B
 100
AcDbEntity
   8
LEVEL001
 100
AcDbLine
   6
DOT
  62
15
  10
 148.93675637369
  20
 67.287231626446
  30
0.0
  11
 149.43675637369
  21
 67.287231626446
  31
0.0
   0
ARC
   5
30C
 100
AcDbEntity
   8
LEVEL001
   6
DOT
  62
15
 100
AcDbCircle
  10
 148.93675637369
  20
 66.887231626446
  30
0.0
  40
 0.40000000000000
 100
AcDbArc
  50
 89.999999999784
  51
 149.99999999994
   0
ARC
   5
30D
 100
AcDbEntity
   8
LEVEL001
   6
DOT
  62
15
 100
AcDbCircle
  10
 149.43675637369
  20
 66.887231626448
  30
0.0
  40
 0.40000000000000
 100
AcDbArc
  50
 29.999999999645
  51
 90.000000000155
   0
LINE
   5
30E
 100
AcDbEntity
   8
LEVEL001
 100
AcDbLine
   6
DOT
  62
1
  10
 192.93956119622
  20
 212.55904739888
  30
0.0
  11
 199.76854364082
  21
 209.66031633079
  31
0.0
   0
ELLIPSE
   5
30F
 100
AcDbEntity
   8
LEVEL001
   6
CONTINUOUS
  62
7
 100
AcDbEllipse
  10
 196.97533874885
  20
 61.387231626445
  30
0.0
  11
0.0
  21
-2.2500000000000
  31
0.0
  40
 0.81822222222223
  41
0.0
  42
 6.2831853071796
   0
ELLIPSE
   5
310
 100
AcDbEntity
   8
LEVEL001
   6
CONTINUOUS
  62
7
 100
AcDbEllipse
  10
 196.35343205117
  20
 61.387231626445
  30
0.0
  11
0.0
  21
-4.0000000000000
  31
0.0
  40
 0.85346771373719
  41
0.0
  42
 6.2831853071796
   0
LINE
   5
311
 100
AcDbEntity
   8
LEVEL001
 100
AcDbLine
   6
DASHDOT
  62
3
  10
 219.27075000218
  20
 94.387231626445
  30
0.0
  11
 205.33953513572
  21
 94.387231626445
  31
0.0
   0
ELLIPSE
   5
312
 100
AcDbEntity
   8
LEVEL001
   6
CONTINUOUS
  62
7
 100
AcDbEllipse
  10
 210.89817399853
  20
 94.387231626445
  30
0.0
  11
0.0
  21
 2.2500000000000
  31
0.0
  40
 0.81822222222223
  41
0.0
  42
 6.2831853071796
   0
ELLIPSE
   5
313
 100
AcDbEntity
   8
LEVEL001
   6
CONTINUOUS
  62
7
 100
AcDbEllipse
  10
 211.52008069622
  20
 94.387231626445
  30
0.0
  11
0.0
  21
 4.0000000000000
  31
0.0
  40
 0.85346771373719
  41
0.0
  42
 6.2831853071796
   0
LINE
   5
314
 100
AcDbEntity
   8
LEVEL001
 100
AcDbLine
   6
CONTINUOUS
  62
7
  10
 153.93675637369
  20
 65.887231626445
  30
0.0
  11
 153.93675637369
  21
 89.887231626445
  31
0.0
   0
LINE
   5
315
 100
AcDbEntity
   8
LEVEL001
 100
AcDbLine
   6
CONTINUOUS
  62
15
  10
 156.43675637364
  20
 65.887231626445
  30
0.0
  11
 156.43675637364
  21
 89.887231626445
  31
0.0
   0
ENDSEC
  0
SECTION
  2
OBJECTS
  0
DICTIONARY
  5
C
100
AcDbDictionary
  3
ACAD_GROUP
350
D
  3
ACAD_MLINESTYLE
350
1B
  0
DICTIONARY
  5
D
102
{ACAD_REACTORS
330
C
102
}
100
AcDbDictionary
  0
DICTIONARY
  5
1B
102
{ACAD_REACTORS
330
C
102
}
100
AcDbDictionary
  3
STANDARD
350
1C
  0
MLINESTYLE
  5
1C
102
{ACAD_REACTORS
330
1B
102
}
100
AcDbMlineStyle
  2
STANDARD
 70
     0
  3

 62
   256
 51
90.0
 52
90.0
 71
     2
 49
0.5
 62
   256
  6
BYLAYER
 49
-0.5
 62
   256
  6
BYLAYER
  0
ENDSEC
   0
EOF
