   0
SECTION
   2
HEADER
   9
$ACADVER
   1
AC1014
   9
$LIMMIN
  10
-1.0000000000000
  20
-4.0000000000000
   9
$LIMMAX
  10
 419.00000000000
  20
 293.00000000000
   9
$EXTMIN
  10
-1.0000000000000
  20
-4.0000000000000
  30
0.0
   9
$EXTMAX
  10
 419.00000000000
  20
 293.00000000000
  30
0.0
   9
$LTSCALE
  40
 8.4000000000000
   9
$HANDSEED
   5
641
   0
ENDSEC
   0
SECTION
   2
TABLES
  0
TABLE
  2
VPORT
  5
8
100
AcDbSymbolTable
 70
     1
  0
VPORT
  5
640
100
AcDbSymbolTableRecord
100
AcDbViewportTableRecord
  2
*ACTIVE
 70
     0
 10
0.0
 20
0.0
 11
1.0
 21
1.0
  12
 209.00000000000
  22
 144.50000000000
 13
0.0
 23
0.0
 14
1.0
 24
1.0
 15
0.0
 25
0.0
 16
0.0
 26
0.0
 36
1.0
 17
0.0
 27
0.0
 37
0.0
  40
 420.00000000000
  41
 1.4787878787879
 42
50.0
 43
0.0
 44
0.0
 50
0.0
 51
0.0
 71
     0
 72
   100
 73
     1
 74
     1
 75
     0
 76
     0
 77
     0
 78
     0
  0
ENDTAB
  0
TABLE
  2
LTYPE
  5
5
100
AcDbSymbolTable
 70
    25
  0
LTYPE
  5
12
100
AcDbSymbolTableRecord
100
AcDbLinetypeTableRecord
  2
BYBLOCK
 70
     0
  3

 72
    65
 73
     0
 40
0.0
  0
LTYPE
  5
13
100
AcDbSymbolTableRecord
100
AcDbLinetypeTableRecord
  2
BYLAYER
 70
     0
  3

 72
    65
 73
     0
 40
0.0
  0
LTYPE
  5
14
100
AcDbSymbolTableRecord
100
AcDbLinetypeTableRecord
  2
CONTINUOUS
 70
     0
  3
Solid line
 72
    65
 73
     0
 40
0.0
  0
LTYPE
  5
20
100
AcDbSymbolTableRecord
100
AcDbLinetypeTableRecord
  2
BORDER
 70
     0
  3
__ __ . __ __ . __ __ . __ __ . __ __ . __ __ .
 72
    65
 73
     6
 40
1.75
 49
0.5
 74
     0
 49
-0.25
 74
     0
 49
0.5
 74
     0
 49
-0.25
 74
     0
 49
0.0
 74
     0
 49
-0.25
 74
     0
  0
LTYPE
  5
21
100
AcDbSymbolTableRecord
100
AcDbLinetypeTableRecord
  2
BORDER2
 70
     0
  3
__.__.__.__.__.__.__.__.__.__.__.__.__.__.__.__
 72
    65
 73
     6
 40
0.875
 49
0.25
 74
     0
 49
-0.125
 74
     0
 49
0.25
 74
     0
 49
-0.125
 74
     0
 49
0.0
 74
     0
 49
-0.125
 74
     0
  0
LTYPE
  5
22
100
AcDbSymbolTableRecord
100
AcDbLinetypeTableRecord
  2
BORDERX2
 70
     0
  3
____  ____  .  ____  ____  .  ____  ____  .  __
 72
    65
 73
     6
 40
3.5
 49
1.0
 74
     0
 49
-0.5
 74
     0
 49
1.0
 74
     0
 49
-0.5
 74
     0
 49
0.0
 74
     0
 49
-0.5
 74
     0
  0
LTYPE
  5
23
100
AcDbSymbolTableRecord
100
AcDbLinetypeTableRecord
  2
CENTER
 70
     0
  3
____ _ ____ _ ____ _ ____ _ ____ _ ____ _ ____ 
 72
    65
 73
     4
 40
2.0
 49
1.25
 74
     0
 49
-0.25
 74
     0
 49
0.25
 74
     0
 49
-0.25
 74
     0
  0
LTYPE
  5
24
100
AcDbSymbolTableRecord
100
AcDbLinetypeTableRecord
  2
CENTER2
 70
     0
  3
___ _ ___ _ ___ _ ___ _ ___ _ ___ _ ___ _ ___ _
 72
    65
 73
     4
 40
1.125
 49
0.75
 74
     0
 49
-0.125
 74
     0
 49
0.125
 74
     0
 49
-0.125
 74
     0
  0
LTYPE
  5
25
100
AcDbSymbolTableRecord
100
AcDbLinetypeTableRecord
  2
CENTERX2
 70
     0
  3
________  __  ________  __  ________  __  _____
 72
    65
 73
     4
 40
4.0
 49
2.5
 74
     0
 49
-0.5
 74
     0
 49
0.5
 74
     0
 49
-0.5
 74
     0
  0
LTYPE
  5
26
100
AcDbSymbolTableRecord
100
AcDbLinetypeTableRecord
  2
DASHDOT
 70
     0
  3
__ . __ . __ . __ . __ . __ . __ . __ . __ . __
 72
    65
 73
     4
 40
1.0
 49
0.5
 74
     0
 49
-0.25
 74
     0
 49
0.0
 74
     0
 49
-0.25
 74
     0
  0
LTYPE
  5
27
100
AcDbSymbolTableRecord
100
AcDbLinetypeTableRecord
  2
DASHDOT2
 70
     0
  3
_._._._._._._._._._._._._._._._._._._._._._._._
 72
    65
 73
     4
 40
0.5
 49
0.25
 74
     0
 49
-0.125
 74
     0
 49
0.0
 74
     0
 49
-0.125
 74
     0
  0
LTYPE
  5
28
100
AcDbSymbolTableRecord
100
AcDbLinetypeTableRecord
  2
DASHDOTX2
 70
     0
  3
____  .  ____  .  ____  .  ____  .  ____  .  __
 72
    65
 73
     4
 40
2.0
 49
1.0
 74
     0
 49
-0.5
 74
     0
 49
0.0
 74
     0
 49
-0.5
 74
     0
  0
LTYPE
  5
29
100
AcDbSymbolTableRecord
100
AcDbLinetypeTableRecord
  2
DASHED
 70
     0
  3
__ __ __ __ __ __ __ __ __ __ __ __ __ __ __ __
 72
    65
 73
     2
 40
0.75
 49
0.5
 74
     0
 49
-0.25
 74
     0
  0
LTYPE
  5
2A
100
AcDbSymbolTableRecord
100
AcDbLinetypeTableRecord
  2
DASHED2
 70
     0
  3
_ _ _ _ _ _ _ _ _ _ _ _ _ _ _ _ _ _ _ _ _ _ _ _
 72
    65
 73
     2
 40
0.375
 49
0.25
 74
     0
 49
-0.125
 74
     0
  0
LTYPE
  5
2B
100
AcDbSymbolTableRecord
100
AcDbLinetypeTableRecord
  2
DASHEDX2
 70
     0
  3
____  ____  ____  ____  ____  ____  ____  ____ 
 72
    65
 73
     2
 40
1.5
 49
1.0
 74
     0
 49
-0.5
 74
     0
  0
LTYPE
  5
2C
100
AcDbSymbolTableRecord
100
AcDbLinetypeTableRecord
  2
DIVIDE
 70
     0
  3
____ . . ____ . . ____ . . ____ . . ____ . . __
 72
    65
 73
     6
 40
1.25
 49
0.5
 74
     0
 49
-0.25
 74
     0
 49
0.0
 74
     0
 49
-0.25
 74
     0
 49
0.0
 74
     0
 49
-0.25
 74
     0
  0
LTYPE
  5
2D
100
AcDbSymbolTableRecord
100
AcDbLinetypeTableRecord
  2
DIVIDE2
 70
     0
  3
__..__..__..__..__..__..__..__..__..__..__..__.
 72
    65
 73
     6
 40
0.625
 49
0.25
 74
     0
 49
-0.125
 74
     0
 49
0.0
 74
     0
 49
-0.125
 74
     0
 49
0.0
 74
     0
 49
-0.125
 74
     0
  0
LTYPE
  5
2E
100
AcDbSymbolTableRecord
100
AcDbLinetypeTableRecord
  2
DIVIDEX2
 70
     0
  3
________  .  .  ________  .  .  ________  .  . 
 72
    65
 73
     6
 40
2.5
 49
1.0
 74
     0
 49
-0.5
 74
     0
 49
0.0
 74
     0
 49
-0.5
 74
     0
 49
0.0
 74
     0
 49
-0.5
 74
     0
  0
LTYPE
  5
2F
100
AcDbSymbolTableRecord
100
AcDbLinetypeTableRecord
  2
DOT
 70
     0
  3
. . . . . . . . . . . . . . . . . . . . . . . .
 72
    65
 73
     2
 40
0.25
 49
0.0
 74
     0
 49
-0.25
 74
     0
  0
LTYPE
  5
30
100
AcDbSymbolTableRecord
100
AcDbLinetypeTableRecord
  2
DOT2
 70
     0
  3
...............................................
 72
    65
 73
     2
 40
0.125
 49
0.0
 74
     0
 49
-0.125
 74
     0
  0
LTYPE
  5
31
100
AcDbSymbolTableRecord
100
AcDbLinetypeTableRecord
  2
DOTX2
 70
     0
  3
.  .  .  .  .  .  .  .  .  .  .  .  .  .  .  . 
 72
    65
 73
     2
 40
0.5
 49
0.0
 74
     0
 49
-0.5
 74
     0
  0
LTYPE
  5
32
100
AcDbSymbolTableRecord
100
AcDbLinetypeTableRecord
  2
HIDDEN
 70
     0
  3
__ __ __ __ __ __ __ __ __ __ __ __ __ __ __ __
 72
    65
 73
     2
 40
0.375
 49
0.25
 74
     0
 49
-0.125
 74
     0
  0
LTYPE
  5
33
100
AcDbSymbolTableRecord
100
AcDbLinetypeTableRecord
  2
HIDDEN2
 70
     0
  3
_ _ _ _ _ _ _ _ _ _ _ _ _ _ _ _ _ _ _ _ _ _ _ _
 72
    65
 73
     2
 40
0.1875
 49
0.125
 74
     0
 49
-0.0625
 74
     0
  0
LTYPE
  5
34
100
AcDbSymbolTableRecord
100
AcDbLinetypeTableRecord
  2
HIDDENX2
 70
     0
  3
____ ____ ____ ____ ____ ____ ____ ____ ____ __
 72
    65
 73
     2
 40
0.75
 49
0.5
 74
     0
 49
-0.25
 74
     0
  0
LTYPE
  5
35
100
AcDbSymbolTableRecord
100
AcDbLinetypeTableRecord
  2
PHANTOM
 70
     0
  3
______  __  __  ______  __  __  ______  __  __ 
 72
    65
 73
     6
 40
2.5
 49
1.25
 74
     0
 49
-0.25
 74
     0
 49
0.25
 74
     0
 49
-0.25
 74
     0
 49
0.25
 74
     0
 49
-0.25
 74
     0
  0
LTYPE
  5
36
100
AcDbSymbolTableRecord
100
AcDbLinetypeTableRecord
  2
PHANTOM2
 70
     0
  3
___ _ _ ___ _ _ ___ _ _ ___ _ _ ___ _ _ ___ _ _
 72
    65
 73
     6
 40
1.25
 49
0.625
 74
     0
 49
-0.125
 74
     0
 49
0.125
 74
     0
 49
-0.125
 74
     0
 49
0.125
 74
     0
 49
-0.125
 74
     0
  0
LTYPE
  5
37
100
AcDbSymbolTableRecord
100
AcDbLinetypeTableRecord
  2
PHANTOMX2
 70
     0
  3
____________    ____    ____    ____________   
 72
    65
 73
     6
 40
5.0
 49
2.5
 74
     0
 49
-0.5
 74
     0
 49
0.5
 74
     0
 49
-0.5
 74
     0
 49
0.5
 74
     0
 49
-0.5
 74
     0
  0
ENDTAB
   0
TABLE
   2
LAYER
   5
2
 100
AcDbSymbolTable
  70
2
   0
LAYER
   5
E
 100
AcDbSymbolTableRecord
 100
AcDbLayerTableRecord
   2
0
  70
0
  62
7
   6
CONTINUOUS
   0
LAYER
   5
39
 100
AcDbSymbolTableRecord
 100
AcDbLayerTableRecord
   2
LAY-1
  70
0
  62
7
   6
CONTINUOUS
   0
ENDTAB
  0
TABLE
  2
STYLE
  5
3
100
AcDbSymbolTable
  70
4
  0
STYLE
  5
F
100
AcDbSymbolTableRecord
100
AcDbTextStyleTableRecord
  2
STANDARD
 70
     0
 40
0.0
 41
1.0
 50
0.0
 71
     0
 42
0.2
  3
TXT
  4
BIGFONT
  0
STYLE
  5
38
100
AcDbSymbolTableRecord
100
AcDbTextStyleTableRecord
  2
STANDARD1
 70
     4
 40
0.0
 41
1.0
 50
0.0
 71
     0
 42
0.2
  3
TXT
  4
BIGFONT
   0
STYLE
   5
3A
 100
AcDbSymbolTableRecord
 100
AcDbTextStyleTableRecord
   2
GMM001
  70
0
  40
0.0
  41
 0.75000000000000
  50
0.0
  71
     0
  42
1.0
   3
txt.shx
   4
bigfont.shx
   0
STYLE
   5
3B
 100
AcDbSymbolTableRecord
 100
AcDbTextStyleTableRecord
   2
GMM002
  70
0
  40
0.0
  41
 1.0000000000000
  50
0.0
  71
     0
  42
1.0
   3
txt.shx
   4
bigfont.shx
   0
ENDTAB
  0
TABLE
  2
VIEW
  5
6
100
AcDbSymbolTable
 70
     0
  0
ENDTAB
  0
TABLE
  2
UCS
  5
7
100
AcDbSymbolTable
 70
     0
  0
ENDTAB
  0
TABLE
  2
APPID
  5
9
100
AcDbSymbolTable
 70
     1
  0
APPID
  5
10
100
AcDbSymbolTableRecord
100
AcDbRegAppTableRecord
  2
ACAD
 70
     0
  0
ENDTAB
   0
TABLE
   2
DIMSTYLE
   5
A
 100
AcDbSymbolTable
  70
8
  0
DIMSTYLE
105
1D
100
AcDbSymbolTableRecord
100
AcDbDimStyleTableRecord
  2
STANDARD
 70
     0
  3

  4

  5

  6

  7

 40
1.0
 41
0.18
 42
0.0625
 43
0.38
 44
0.18
 45
0.0
 46
0.0
 47
0.0
 48
0.0
140
0.18
141
0.09
142
0.0
143
25.4
144
1.0
145
0.0
146
1.0
147
0.09
 71
     0
 72
     0
 73
     1
 74
     1
 75
     0
 76
     0
 77
     0
 78
     0
170
     0
171
     2
172
     0
173
     0
174
     0
175
     0
176
     0
177
     0
178
     0
270
     2
271
     4
272
     4
273
     2
274
     2
340
F
275
     0
280
     0
281
     0
282
     0
283
     1
284
     0
285
     0
286
     0
287
     3
288
     0
   0
DIMSTYLE
 105
3C
 100
AcDbSymbolTableRecord
 100
AcDbDimStyleTableRecord
   2
GMM001
  70
0
   3
%%c<>
   4

   5

   6
_OPEN30
   7
_OPEN30
  40
 1.0000000000000
  41
 2.0000000000000
  42
 1.0000000000000
  43
 8.0000000000000
  44
 1.0000000000000
  45
0.0
  46
0.0
  47
0.0
  48
0.0
 140
 4.0000000000000
 141
 1.0000000000000
 142
0.0
 143
 0.39400000000000E-1
 144
 1.0000000000000
 145
0.0
 146
 0.62500000000000
 147
 1.7142857142857
  71
0
  72
0
  73
0
  74
0
  75
0
  76
0
  77
3
  78
8
 170
0
 171
2
 172
1
 173
1
 174
0
 175
0
 176
6
 177
6
 178
6
 270
2
 271
6
 272
0
 273
2
 274
2
 340
3A
 275
1
 280
0
 281
0
 282
0
 283
1
 284
0
 285
0
 286
0
 287
3
 288
0
   0
DIMSTYLE
 105
3D
 100
AcDbSymbolTableRecord
 100
AcDbDimStyleTableRecord
   2
GMM002
  70
0
   3

   4

   5

   6
_OPEN30
   7
_OPEN30
  40
 1.0000000000000
  41
 2.0000000000000
  42
 1.0000000000000
  43
 8.0000000000000
  44
 1.0000000000000
  45
0.0
  46
0.0
  47
0.0
  48
0.0
 140
 4.0000000000000
 141
 1.0000000000000
 142
0.0
 143
 0.39400000000000E-1
 144
 1.0000000000000
 145
0.0
 146
 0.62500000000000
 147
 1.7142857142857
  71
0
  72
0
  73
0
  74
0
  75
0
  76
0
  77
3
  78
8
 170
0
 171
2
 172
1
 173
1
 174
0
 175
0
 176
6
 177
6
 178
6
 270
2
 271
6
 272
0
 273
2
 274
2
 340
3A
 275
1
 280
0
 281
0
 282
0
 283
1
 284
0
 285
0
 286
0
 287
3
 288
0
   0
DIMSTYLE
 105
3E
 100
AcDbSymbolTableRecord
 100
AcDbDimStyleTableRecord
   2
GMM003
  70
0
   3

   4

   5

   6
_OPEN30
   7
_OPEN30
  40
 1.0000000000000
  41
 2.0000000000000
  42
 1.0000000000000
  43
 8.0000000000000
  44
 1.0000000000000
  45
0.0
  46
0.0
  47
0.0
  48
0.0
 140
 4.0000000000000
 141
 1.0000000000000
 142
0.0
 143
 0.39400000000000E-1
 144
 1.0000000000000
 145
0.0
 146
 0.62500000000000
 147
 1.7142857142857
  71
0
  72
0
  73
0
  74
0
  75
0
  76
0
  77
3
  78
8
 170
0
 171
2
 172
1
 173
1
 174
0
 175
0
 176
6
 177
6
 178
6
 270
2
 271
6
 272
0
 273
2
 274
2
 340
3A
 275
1
 280
0
 281
0
 282
0
 283
1
 284
0
 285
0
 286
0
 287
3
 288
1
   0
DIMSTYLE
 105
3F
 100
AcDbSymbolTableRecord
 100
AcDbDimStyleTableRecord
   2
GMM004
  70
0
   3

   4

   5

   6
_OPEN30
   7
_OPEN30
  40
 1.0000000000000
  41
 2.0000000000000
  42
 1.0000000000000
  43
 8.0000000000000
  44
 1.0000000000000
  45
0.0
  46
0.0
  47
0.0
  48
0.0
 140
 4.0000000000000
 141
 1.0000000000000
 142
0.0
 143
 0.39400000000000E-1
 144
 1.0000000000000
 145
0.0
 146
 0.62500000000000
 147
 1.6149506409292
  71
0
  72
0
  73
0
  74
0
  75
0
  76
0
  77
3
  78
8
 170
0
 171
2
 172
1
 173
1
 174
0
 175
0
 176
6
 177
6
 178
6
 270
2
 271
6
 272
0
 273
2
 274
2
 340
3A
 275
1
 280
0
 281
0
 282
0
 283
1
 284
0
 285
0
 286
0
 287
3
 288
1
   0
DIMSTYLE
 105
40
 100
AcDbSymbolTableRecord
 100
AcDbDimStyleTableRecord
   2
GMM005
  70
0
   3
%%c<> 
   4

   5

   6
_OPEN30
   7
_OPEN30
  40
 1.0000000000000
  41
 3.0000000000000
  42
0.0
  43
 8.0000000000000
  44
 2.0000000000000
  45
0.0
  46
 12.161688179971
  47
0.0
  48
0.0
 140
 4.0000000000000
 141
 1.0000000000000
 142
0.0
 143
 0.39400000000000E-1
 144
 1.0000000000000
 145
0.0
 146
 0.62500000000000
 147
0.0
  71
0
  72
0
  73
1
  74
1
  75
1
  76
1
  77
1
  78
8
 170
0
 171
2
 172
1
 173
1
 174
0
 175
0
 176
2
 177
2
 178
7
 270
2
 271
6
 272
0
 273
2
 274
2
 340
3B
 275
1
 280
0
 281
0
 282
0
 283
1
 284
0
 285
0
 286
0
 287
3
 288
1
   0
DIMSTYLE
 105
41
 100
AcDbSymbolTableRecord
 100
AcDbDimStyleTableRecord
   2
GMM006
  70
0
   3

   4

   5

   6
_OPEN30
   7
_OPEN30
  40
 1.0000000000000
  41
 3.0000000000000
  42
 1.0000000000000
  43
 8.0000000000000
  44
 1.0000000000000
  45
0.0
  46
0.0
  47
0.0
  48
0.0
 140
 4.0000000000000
 141
 1.0000000000000
 142
0.0
 143
 0.39400000000000E-1
 144
 1.0000000000000
 145
0.0
 146
 0.62500000000000
 147
0.0
  71
0
  72
0
  73
0
  74
0
  75
0
  76
0
  77
1
  78
8
 170
0
 171
2
 172
1
 173
1
 174
0
 175
0
 176
6
 177
6
 178
6
 270
2
 271
6
 272
0
 273
2
 274
2
 340
3A
 275
1
 280
0
 281
0
 282
0
 283
1
 284
0
 285
0
 286
0
 287
3
 288
0
   0
ENDTAB
  0
TABLE
  2
BLOCK_RECORD
  5
1
100
AcDbSymbolTable
 70
     0
  0
BLOCK_RECORD
  5
18
100
AcDbSymbolTableRecord
100
AcDbBlockTableRecord
  2
*MODEL_SPACE
  0
BLOCK_RECORD
  5
15
100
AcDbSymbolTableRecord
100
AcDbBlockTableRecord
  2
*PAPER_SPACE
   0
BLOCK_RECORD
   5
42
 100
AcDbSymbolTableRecord
 100
AcDbBlockTableRecord
   2
BLOCK001
   0
BLOCK_RECORD
   5
43
 100
AcDbSymbolTableRecord
 100
AcDbBlockTableRecord
   2
*D1
   0
BLOCK_RECORD
   5
44
 100
AcDbSymbolTableRecord
 100
AcDbBlockTableRecord
   2
*D2
   0
BLOCK_RECORD
   5
45
 100
AcDbSymbolTableRecord
 100
AcDbBlockTableRecord
   2
*D3
   0
BLOCK_RECORD
   5
46
 100
AcDbSymbolTableRecord
 100
AcDbBlockTableRecord
   2
*D4
   0
BLOCK_RECORD
   5
47
 100
AcDbSymbolTableRecord
 100
AcDbBlockTableRecord
   2
*D5
   0
BLOCK_RECORD
   5
48
 100
AcDbSymbolTableRecord
 100
AcDbBlockTableRecord
   2
*D6
   0
BLOCK_RECORD
   5
49
 100
AcDbSymbolTableRecord
 100
AcDbBlockTableRecord
   2
*D7
   0
BLOCK_RECORD
   5
4A
 100
AcDbSymbolTableRecord
 100
AcDbBlockTableRecord
   2
*D8
   0
BLOCK_RECORD
   5
4B
 100
AcDbSymbolTableRecord
 100
AcDbBlockTableRecord
   2
*D9
   0
BLOCK_RECORD
   5
4C
 100
AcDbSymbolTableRecord
 100
AcDbBlockTableRecord
   2
*D10
   0
BLOCK_RECORD
   5
4D
 100
AcDbSymbolTableRecord
 100
AcDbBlockTableRecord
   2
*D11
   0
BLOCK_RECORD
   5
4E
 100
AcDbSymbolTableRecord
 100
AcDbBlockTableRecord
   2
BLOCK002
   0
BLOCK_RECORD
   5
4F
 100
AcDbSymbolTableRecord
 100
AcDbBlockTableRecord
   2
*D12
   0
BLOCK_RECORD
   5
50
 100
AcDbSymbolTableRecord
 100
AcDbBlockTableRecord
   2
BLOCK003
   0
BLOCK_RECORD
   5
51
 100
AcDbSymbolTableRecord
 100
AcDbBlockTableRecord
   2
BLOCK004
   0
BLOCK_RECORD
   5
52
 100
AcDbSymbolTableRecord
 100
AcDbBlockTableRecord
   2
*D15
   0
BLOCK_RECORD
   5
53
 100
AcDbSymbolTableRecord
 100
AcDbBlockTableRecord
   2
BLOCK005
   0
BLOCK_RECORD
   5
54
 100
AcDbSymbolTableRecord
 100
AcDbBlockTableRecord
   2
BLOCK006
   0
BLOCK_RECORD
   5
55
 100
AcDbSymbolTableRecord
 100
AcDbBlockTableRecord
   2
*D16
   0
BLOCK_RECORD
   5
56
 100
AcDbSymbolTableRecord
 100
AcDbBlockTableRecord
   2
*D17
   0
BLOCK_RECORD
   5
57
 100
AcDbSymbolTableRecord
 100
AcDbBlockTableRecord
   2
_ARCHTICK
   0
BLOCK_RECORD
   5
58
 100
AcDbSymbolTableRecord
 100
AcDbBlockTableRecord
   2
_BOXBLANK
   0
BLOCK_RECORD
   5
59
 100
AcDbSymbolTableRecord
 100
AcDbBlockTableRecord
   2
_BOXFILLED
   0
BLOCK_RECORD
   5
5A
 100
AcDbSymbolTableRecord
 100
AcDbBlockTableRecord
   2
_CLOSED
   0
BLOCK_RECORD
   5
5B
 100
AcDbSymbolTableRecord
 100
AcDbBlockTableRecord
   2
_CLOSEDBLANK
   0
BLOCK_RECORD
   5
5C
 100
AcDbSymbolTableRecord
 100
AcDbBlockTableRecord
   2
_DATUMBLANK
   0
BLOCK_RECORD
   5
5D
 100
AcDbSymbolTableRecord
 100
AcDbBlockTableRecord
   2
_DATUMFILLED
   0
BLOCK_RECORD
   5
5E
 100
AcDbSymbolTableRecord
 100
AcDbBlockTableRecord
   2
_DOT
   0
BLOCK_RECORD
   5
5F
 100
AcDbSymbolTableRecord
 100
AcDbBlockTableRecord
   2
_DOTBLANK
   0
BLOCK_RECORD
   5
60
 100
AcDbSymbolTableRecord
 100
AcDbBlockTableRecord
   2
_DOTSMALL
   0
BLOCK_RECORD
   5
61
 100
AcDbSymbolTableRecord
 100
AcDbBlockTableRecord
   2
_INTEGRAL
   0
BLOCK_RECORD
   5
62
 100
AcDbSymbolTableRecord
 100
AcDbBlockTableRecord
   2
_NONE
   0
BLOCK_RECORD
   5
63
 100
AcDbSymbolTableRecord
 100
AcDbBlockTableRecord
   2
_OBLIQUE
   0
BLOCK_RECORD
   5
64
 100
AcDbSymbolTableRecord
 100
AcDbBlockTableRecord
   2
_OPEN
   0
BLOCK_RECORD
   5
65
 100
AcDbSymbolTableRecord
 100
AcDbBlockTableRecord
   2
_OPEN30
   0
BLOCK_RECORD
   5
66
 100
AcDbSymbolTableRecord
 100
AcDbBlockTableRecord
   2
_OPEN90
   0
BLOCK_RECORD
   5
67
 100
AcDbSymbolTableRecord
 100
AcDbBlockTableRecord
   2
_ORIGIN
   0
ENDTAB
   0
ENDSEC
  0
SECTION
  2
BLOCKS
  0
BLOCK
  5
19
100
AcDbEntity
  8
0
100
AcDbBlockBegin
  2
*MODEL_SPACE
 70
     0
 10
0.0
 20
0.0
 30
0.0
  3
*MODEL_SPACE
  1

  0
ENDBLK
  5
1A
100
AcDbEntity
  8
0
100
AcDbBlockEnd
  0
BLOCK
  5
16
100
AcDbEntity
 67
     1
  8
0
100
AcDbBlockBegin
  2
*PAPER_SPACE
 70
     0
 10
0.0
 20
0.0
 30
0.0
  3
*PAPER_SPACE
  1

  0
ENDBLK
  5
17
100
AcDbEntity
 67
     1
  8
0
100
AcDbBlockEnd
   0
BLOCK
   5
68
 100
AcDbEntity
   8
0
 100
AcDbBlockBegin
   2
_ARCHTICK
  70
0
  10
0.0
  20
0.0
  30
0.0
   3
_ARCHTICK
   0
POLYLINE
   5
69
 100
AcDbEntity
   8
0
   6
BYBLOCK
  62
0
 100
AcDb2dPolyline
  66
1
  10
0.0
  20
0.0
  30
0.0
  70
1
  40
 0.15000000000000
  41
 0.15000000000000
   0
VERTEX
   5
6A
 100
AcDbEntity
   8
0
   6
BYBLOCK
  62
0
 100
AcDbVertex
 100
AcDb2dVertex
  10
-0.50000000000000
  20
-0.50000000000000
  30
0.0
  40
 0.15000000000000
  41
 0.15000000000000
   0
VERTEX
   5
6B
 100
AcDbEntity
   8
0
   6
BYBLOCK
  62
0
 100
AcDbVertex
 100
AcDb2dVertex
  10
 0.50000000000000
  20
 0.50000000000000
  30
0.0
  40
 0.15000000000000
  41
 0.15000000000000
   0
SEQEND
   5
6C
 100
AcDbEntity
   8
0
   6
BYBLOCK
  62
0
   0
ENDBLK
   5
6D
 100
AcDbEntity
   8
0
 100
AcDbBlockEnd
   0
BLOCK
   5
6E
 100
AcDbEntity
   8
0
 100
AcDbBlockBegin
   2
_OBLIQUE
  70
0
  10
0.0
  20
0.0
  30
0.0
   3
_OBLIQUE
   0
LINE
   5
6F
 100
AcDbEntity
   8
0
 100
AcDbLine
   6
BYBLOCK
  62
0
  10
-0.50000000000000
  20
-0.50000000000000
  30
0.0
  11
 0.50000000000000
  21
 0.50000000000000
  31
0.0
   0
ENDBLK
   5
70
 100
AcDbEntity
   8
0
 100
AcDbBlockEnd
   0
BLOCK
   5
71
 100
AcDbEntity
   8
0
 100
AcDbBlockBegin
   2
_BOXBLANK
  70
0
  10
0.0
  20
0.0
  30
0.0
   3
_BOXBLANK
   0
LINE
   5
72
 100
AcDbEntity
   8
0
 100
AcDbLine
   6
BYBLOCK
  62
0
  10
-0.50000000000000
  20
-0.50000000000000
  30
0.0
  11
 0.50000000000000
  21
-0.50000000000000
  31
0.0
   0
LINE
   5
73
 100
AcDbEntity
   8
0
 100
AcDbLine
   6
BYBLOCK
  62
0
  10
 0.50000000000000
  20
-0.50000000000000
  30
0.0
  11
 0.50000000000000
  21
 0.50000000000000
  31
0.0
   0
LINE
   5
74
 100
AcDbEntity
   8
0
 100
AcDbLine
   6
BYBLOCK
  62
0
  10
 0.50000000000000
  20
 0.50000000000000
  30
0.0
  11
-0.50000000000000
  21
 0.50000000000000
  31
0.0
   0
LINE
   5
75
 100
AcDbEntity
   8
0
 100
AcDbLine
   6
BYBLOCK
  62
0
  10
-0.50000000000000
  20
 0.50000000000000
  30
0.0
  11
-0.50000000000000
  21
-0.50000000000000
  31
0.0
   0
LINE
   5
76
 100
AcDbEntity
   8
0
 100
AcDbLine
   6
BYBLOCK
  62
0
  10
-0.50000000000000
  20
0.0
  30
0.0
  11
-1.0000000000000
  21
0.0
  31
0.0
   0
ENDBLK
   5
77
 100
AcDbEntity
   8
0
 100
AcDbBlockEnd
   0
BLOCK
   5
78
 100
AcDbEntity
   8
0
 100
AcDbBlockBegin
   2
_BOXFILLED
  70
0
  10
0.0
  20
0.0
  30
0.0
   3
_BOXFILLED
   0
SOLID
   5
79
 100
AcDbEntity
   8
0
 100
AcDbTrace
   6
BYBLOCK
  62
0
  10
-0.50000000000000
  20
 0.50000000000000
  30
0.0
  11
 0.50000000000000
  21
 0.50000000000000
  31
0.0
  12
-0.50000000000000
  22
-0.50000000000000
  32
0.0
  13
 0.50000000000000
  23
-0.50000000000000
  33
0.0
   0
LINE
   5
7A
 100
AcDbEntity
   8
0
 100
AcDbLine
   6
BYBLOCK
  62
0
  10
-0.50000000000000
  20
0.0
  30
0.0
  11
-1.0000000000000
  21
0.0
  31
0.0
   0
ENDBLK
   5
7B
 100
AcDbEntity
   8
0
 100
AcDbBlockEnd
   0
BLOCK
   5
7C
 100
AcDbEntity
   8
0
 100
AcDbBlockBegin
   2
_CLOSED
  70
0
  10
0.0
  20
0.0
  30
0.0
   3
_CLOSED
   0
LINE
   5
7D
 100
AcDbEntity
   8
0
 100
AcDbLine
   6
BYBLOCK
  62
0
  10
-1.0000000000000
  20
 0.16666666666667
  30
0.0
  11
0.0
  21
0.0
  31
0.0
   0
LINE
   5
7E
 100
AcDbEntity
   8
0
 100
AcDbLine
   6
BYBLOCK
  62
0
  10
0.0
  20
0.0
  30
0.0
  11
-1.0000000000000
  21
-0.16666666666667
  31
0.0
   0
LINE
   5
7F
 100
AcDbEntity
   8
0
 100
AcDbLine
   6
BYBLOCK
  62
0
  10
-1.0000000000000
  20
 0.16666666666667
  30
0.0
  11
-1.0000000000000
  21
-0.16666666666667
  31
0.0
   0
LINE
   5
80
 100
AcDbEntity
   8
0
 100
AcDbLine
   6
BYBLOCK
  62
0
  10
0.0
  20
0.0
  30
0.0
  11
-1.0000000000000
  21
0.0
  31
0.0
   0
ENDBLK
   5
81
 100
AcDbEntity
   8
0
 100
AcDbBlockEnd
   0
BLOCK
   5
82
 100
AcDbEntity
   8
0
 100
AcDbBlockBegin
   2
_OPEN
  70
0
  10
0.0
  20
0.0
  30
0.0
   3
_OPEN
   0
LINE
   5
83
 100
AcDbEntity
   8
0
 100
AcDbLine
   6
BYBLOCK
  62
0
  10
-1.0000000000000
  20
 0.16666666666667
  30
0.0
  11
0.0
  21
0.0
  31
0.0
   0
LINE
   5
84
 100
AcDbEntity
   8
0
 100
AcDbLine
   6
BYBLOCK
  62
0
  10
0.0
  20
0.0
  30
0.0
  11
-1.0000000000000
  21
-0.16666666666667
  31
0.0
   0
LINE
   5
85
 100
AcDbEntity
   8
0
 100
AcDbLine
   6
BYBLOCK
  62
0
  10
0.0
  20
0.0
  30
0.0
  11
-1.0000000000000
  21
0.0
  31
0.0
   0
ENDBLK
   5
86
 100
AcDbEntity
   8
0
 100
AcDbBlockEnd
   0
BLOCK
   5
87
 100
AcDbEntity
   8
0
 100
AcDbBlockBegin
   2
_OPEN30
  70
0
  10
0.0
  20
0.0
  30
0.0
   3
_OPEN30
   0
LINE
   5
88
 100
AcDbEntity
   8
0
 100
AcDbLine
   6
BYBLOCK
  62
0
  10
-1.0000000000000
  20
 0.26794919243110
  30
0.0
  11
0.0
  21
0.0
  31
0.0
   0
LINE
   5
89
 100
AcDbEntity
   8
0
 100
AcDbLine
   6
BYBLOCK
  62
0
  10
0.0
  20
0.0
  30
0.0
  11
-1.0000000000000
  21
-0.26794919243110
  31
0.0
   0
LINE
   5
8A
 100
AcDbEntity
   8
0
 100
AcDbLine
   6
BYBLOCK
  62
0
  10
0.0
  20
0.0
  30
0.0
  11
-1.0000000000000
  21
0.0
  31
0.0
   0
ENDBLK
   5
8B
 100
AcDbEntity
   8
0
 100
AcDbBlockEnd
   0
BLOCK
   5
8C
 100
AcDbEntity
   8
0
 100
AcDbBlockBegin
   2
_OPEN90
  70
0
  10
0.0
  20
0.0
  30
0.0
   3
_OPEN90
   0
LINE
   5
8D
 100
AcDbEntity
   8
0
 100
AcDbLine
   6
BYBLOCK
  62
0
  10
-0.50000000000000
  20
 0.50000000000000
  30
0.0
  11
0.0
  21
0.0
  31
0.0
   0
LINE
   5
8E
 100
AcDbEntity
   8
0
 100
AcDbLine
   6
BYBLOCK
  62
0
  10
0.0
  20
0.0
  30
0.0
  11
-0.50000000000000
  21
-0.50000000000000
  31
0.0
   0
LINE
   5
8F
 100
AcDbEntity
   8
0
 100
AcDbLine
   6
BYBLOCK
  62
0
  10
0.0
  20
0.0
  30
0.0
  11
-1.0000000000000
  21
0.0
  31
0.0
   0
ENDBLK
   5
90
 100
AcDbEntity
   8
0
 100
AcDbBlockEnd
   0
BLOCK
   5
91
 100
AcDbEntity
   8
0
 100
AcDbBlockBegin
   2
_CLOSEDBLANK
  70
0
  10
0.0
  20
0.0
  30
0.0
   3
_CLOSEDBLANK
   0
LINE
   5
92
 100
AcDbEntity
   8
0
 100
AcDbLine
   6
BYBLOCK
  62
0
  10
-1.0000000000000
  20
 0.16666666666667
  30
0.0
  11
0.0
  21
0.0
  31
0.0
   0
LINE
   5
93
 100
AcDbEntity
   8
0
 100
AcDbLine
   6
BYBLOCK
  62
0
  10
0.0
  20
0.0
  30
0.0
  11
-1.0000000000000
  21
-0.16666666666667
  31
0.0
   0
LINE
   5
94
 100
AcDbEntity
   8
0
 100
AcDbLine
   6
BYBLOCK
  62
0
  10
-1.0000000000000
  20
 0.16666666666667
  30
0.0
  11
-1.0000000000000
  21
-0.16666666666667
  31
0.0
   0
ENDBLK
   5
95
 100
AcDbEntity
   8
0
 100
AcDbBlockEnd
   0
BLOCK
   5
96
 100
AcDbEntity
   8
0
 100
AcDbBlockBegin
   2
_DOT
  70
0
  10
0.0
  20
0.0
  30
0.0
   3
_DOT
   0
POLYLINE
   5
97
 100
AcDbEntity
   8
0
   6
BYBLOCK
  62
0
 100
AcDb2dPolyline
  66
1
  10
0.0
  20
0.0
  30
0.0
  70
1
  40
 0.50000000000000
  41
 0.50000000000000
   0
VERTEX
   5
98
 100
AcDbEntity
   8
0
   6
BYBLOCK
  62
0
 100
AcDbVertex
 100
AcDb2dVertex
  10
-0.25000000000000
  20
0.0
  30
0.0
  42
 1.0000000000000
  40
 0.50000000000000
  41
 0.50000000000000
   0
VERTEX
   5
99
 100
AcDbEntity
   8
0
   6
BYBLOCK
  62
0
 100
AcDbVertex
 100
AcDb2dVertex
  10
 0.25000000000000
  20
0.0
  30
0.0
  42
 1.0000000000000
  40
 0.50000000000000
  41
 0.50000000000000
   0
SEQEND
   5
9A
 100
AcDbEntity
   8
0
   6
BYBLOCK
  62
0
   0
LINE
   5
9B
 100
AcDbEntity
   8
0
 100
AcDbLine
   6
BYBLOCK
  62
0
  10
-0.50000000000000
  20
0.0
  30
0.0
  11
-1.0000000000000
  21
0.0
  31
0.0
   0
ENDBLK
   5
9C
 100
AcDbEntity
   8
0
 100
AcDbBlockEnd
   0
BLOCK
   5
9D
 100
AcDbEntity
   8
0
 100
AcDbBlockBegin
   2
_DOTSMALL
  70
0
  10
0.0
  20
0.0
  30
0.0
   3
_DOTSMALL
   0
POLYLINE
   5
9E
 100
AcDbEntity
   8
0
   6
BYBLOCK
  62
0
 100
AcDb2dPolyline
  66
1
  10
0.0
  20
0.0
  30
0.0
  70
1
  40
 0.50000000000000
  41
 0.50000000000000
   0
VERTEX
   5
9F
 100
AcDbEntity
   8
0
   6
BYBLOCK
  62
0
 100
AcDbVertex
 100
AcDb2dVertex
  10
-0.62500000000000E-1
  20
0.0
  30
0.0
  42
 1.0000000000000
  40
 0.50000000000000
  41
 0.50000000000000
   0
VERTEX
   5
A0
 100
AcDbEntity
   8
0
   6
BYBLOCK
  62
0
 100
AcDbVertex
 100
AcDb2dVertex
  10
 0.62500000000000E-1
  20
0.0
  30
0.0
  42
 1.0000000000000
  40
 0.50000000000000
  41
 0.50000000000000
   0
SEQEND
   5
A1
 100
AcDbEntity
   8
0
   6
BYBLOCK
  62
0
   0
ENDBLK
   5
A2
 100
AcDbEntity
   8
0
 100
AcDbBlockEnd
   0
BLOCK
   5
A3
 100
AcDbEntity
   8
0
 100
AcDbBlockBegin
   2
_DATUMBLANK
  70
0
  10
0.0
  20
0.0
  30
0.0
   3
_DATUMBLANK
   0
LINE
   5
A4
 100
AcDbEntity
   8
0
 100
AcDbLine
   6
BYBLOCK
  62
0
  10
0.0
  20
 0.57735027000000
  30
0.0
  11
-1.0000000000000
  21
0.0
  31
0.0
   0
LINE
   5
A5
 100
AcDbEntity
   8
0
 100
AcDbLine
   6
BYBLOCK
  62
0
  10
-1.0000000000000
  20
0.0
  30
0.0
  11
0.0
  21
-0.57735027000000
  31
0.0
   0
LINE
   5
A6
 100
AcDbEntity
   8
0
 100
AcDbLine
   6
BYBLOCK
  62
0
  10
0.0
  20
-0.57735027000000
  30
0.0
  11
0.0
  21
 0.57735027000000
  31
0.0
   0
ENDBLK
   5
A7
 100
AcDbEntity
   8
0
 100
AcDbBlockEnd
   0
BLOCK
   5
A8
 100
AcDbEntity
   8
0
 100
AcDbBlockBegin
   2
_DATUMFILLED
  70
0
  10
0.0
  20
0.0
  30
0.0
   3
_DATUMFILLED
   0
SOLID
   5
A9
 100
AcDbEntity
   8
0
 100
AcDbTrace
   6
BYBLOCK
  62
0
  10
0.0
  20
 0.57735027000000
  30
0.0
  11
-1.0000000000000
  21
0.0
  31
0.0
  12
0.0
  22
-0.57735027000000
  32
0.0
  13
0.0
  23
-0.57735027000000
  33
0.0
   0
ENDBLK
   5
AA
 100
AcDbEntity
   8
0
 100
AcDbBlockEnd
   0
BLOCK
   5
AB
 100
AcDbEntity
   8
0
 100
AcDbBlockBegin
   2
_ORIGIN
  70
0
  10
0.0
  20
0.0
  30
0.0
   3
_ORIGIN
   0
CIRCLE
   5
AC
 100
AcDbEntity
   8
0
 100
AcDbCircle
   6
BYBLOCK
  62
0
  10
0.0
  20
0.0
  30
0.0
  40
 0.50000000000000
   0
LINE
   5
AD
 100
AcDbEntity
   8
0
 100
AcDbLine
   6
BYBLOCK
  62
0
  10
0.0
  20
0.0
  30
0.0
  11
-1.0000000000000
  21
0.0
  31
0.0
   0
ENDBLK
   5
AE
 100
AcDbEntity
   8
0
 100
AcDbBlockEnd
   0
BLOCK
   5
AF
 100
AcDbEntity
   8
0
 100
AcDbBlockBegin
   2
_NONE
  70
0
  10
0.0
  20
0.0
  30
0.0
   3
_NONE
   0
CIRCLE
   5
B0
 100
AcDbEntity
   8
0
 100
AcDbCircle
   6
BYBLOCK
  62
0
  10
0.0
  20
0.0
  30
0.0
  40
 0.25000000000000
   0
ENDBLK
   5
B1
 100
AcDbEntity
   8
0
 100
AcDbBlockEnd
   0
BLOCK
   5
B2
 100
AcDbEntity
   8
0
 100
AcDbBlockBegin
   2
_DOTBLANK
  70
0
  10
0.0
  20
0.0
  30
0.0
   3
_DOTBLANK
   0
CIRCLE
   5
B3
 100
AcDbEntity
   8
0
 100
AcDbCircle
   6
BYBLOCK
  62
0
  10
0.0
  20
0.0
  30
0.0
  40
 0.50000000000000
   0
LINE
   5
B4
 100
AcDbEntity
   8
0
 100
AcDbLine
   6
BYBLOCK
  62
0
  10
-0.50000000000000
  20
0.0
  30
0.0
  11
-1.0000000000000
  21
0.0
  31
0.0
   0
ENDBLK
   5
B5
 100
AcDbEntity
   8
0
 100
AcDbBlockEnd
   0
BLOCK
   5
B6
 100
AcDbEntity
   8
0
 100
AcDbBlockBegin
   2
_INTEGRAL
  70
0
  10
0.0
  20
0.0
  30
0.0
   3
_INTEGRAL
   0
ARC
   5
B7
 100
AcDbEntity
   8
0
   6
BYBLOCK
  62
0
 100
AcDbCircle
  10
 0.44488800000000
  20
-0.91335000000000E-1
  30
0.0
  40
 0.45416700000000
 100
AcDbArc
  50
 102.00000000000
  51
 168.00000000000
   0
ARC
   5
B8
 100
AcDbEntity
   8
0
   6
BYBLOCK
  62
0
 100
AcDbCircle
  10
-0.44488800000000
  20
 0.91335000000000E-1
  30
0.0
  40
 0.45416700000000
 100
AcDbArc
  50
 282.00000000000
  51
 348.00000000000
   0
ENDBLK
   5
B9
 100
AcDbEntity
   8
0
 100
AcDbBlockEnd
   0
BLOCK
   5
BA
 100
AcDbEntity
   8
0
 100
AcDbBlockBegin
   2
BLOCK001
  70
64
  10
0.0
  20
0.0
  30
0.0
   3
BLOCK001
   0
LWPOLYLINE
   5
BB
 100
AcDbEntity
   8
0
   6
CONTINUOUS
  62
8
 100
AcDbPolyline
  90
22
  70
1
  10
 308.57933271356
  20
 18.501906399220
  10
 311.87601195884
  20
 23.726906399220
  10
 315.22001195884
  20
 23.726906399220
  10
 311.92333271356
  20
 18.501906399220
  10
 312.56465346828
  20
 16.191906399220
  10
 335.37201195884
  20
 16.191906399220
  10
 335.37201195884
  20
 15.839906399220
  10
 312.66237853566
  20
 15.839906399220
  10
 313.54801195884
  20
 12.649906399220
  10
 309.78601195884
  20
 12.649906399220
  10
 309.12823567852
  20
 15.839906399220
  10
 308.17752139281
  20
 15.839906399220
  10
 307.69601195884
  20
 12.649906399220
  10
 304.35201195884
  20
 12.649906399220
  10
 304.83352139281
  20
 15.839906399220
  10
 303.25201195884
  20
 15.839906399220
  10
 303.25201195884
  20
 16.191906399220
  10
 304.88665346828
  20
 16.191906399220
  10
 306.02401195884
  20
 23.726906399220
  10
 309.36801195884
  20
 23.726906399220
  10
 308.23065346828
  20
 16.191906399220
  10
 309.05565346828
  20
 16.191906399220
   0
ENDBLK
   5
BC
 100
AcDbEntity
   8
0
 100
AcDbBlockEnd
   0
BLOCK
   5
BD
 100
AcDbEntity
   8
0
 100
AcDbBlockBegin
   2
*D1
  70
65
  10
0.0
  20
0.0
  30
0.0
   3
*D1
   0
LINE
   5
BE
 100
AcDbEntity
   8
0
 100
AcDbLine
   6
CONTINUOUS
  62
6
  10
 177.13442821716
  20
 165.38863947149
  30
0.0
  11
 177.13442821716
  21
 188.09018735697
  31
0.0
   0
LINE
   5
BF
 100
AcDbEntity
   8
0
 100
AcDbLine
   6
CONTINUOUS
  62
6
  10
 203.93442821716
  20
 165.38863947149
  30
0.0
  11
 203.93442821716
  21
 188.09018735697
  31
0.0
   0
LINE
   5
C0
 100
AcDbEntity
   8
0
 100
AcDbLine
   6
CONTINUOUS
  62
6
  10
 177.13442821716
  20
 187.09018735697
  30
0.0
  11
 190.53442821716
  21
 187.09018735697
  31
0.0
   0
LINE
   5
C1
 100
AcDbEntity
   8
0
 100
AcDbLine
   6
CONTINUOUS
  62
6
  10
 203.93442821716
  20
 187.09018735697
  30
0.0
  11
 190.53442821716
  21
 187.09018735697
  31
0.0
   0
INSERT
   5
C2
 100
AcDbEntity
   8
0
   6
CONTINUOUS
  62
6
 100
AcDbBlockReference
   2
_OPEN30
  10
 177.13442821716
  20
 187.09018735697
  30
0.0
  41
 2.0000000000000
  42
 2.0000000000000
  43
 2.0000000000000
  50
 180.00000000000
   0
INSERT
   5
C3
 100
AcDbEntity
   8
0
   6
CONTINUOUS
  62
6
 100
AcDbBlockReference
   2
_OPEN30
  10
 203.93442821716
  20
 187.09018735697
  30
0.0
  41
 2.0000000000000
  42
 2.0000000000000
  43
 2.0000000000000
  50
0.0
   0
MTEXT
   5
C4
 100
AcDbEntity
   8
0
  62
6
 100
AcDbMText
  10
 190.53442821716
  20
 188.80447307126
  30
0.0
  40
 4.0000000000000
  41
0.0
  71
8
  72
1
   1
\A1;%%c26.8
   7
GMM001
   0
ENDBLK
   5
C5
 100
AcDbEntity
   8
0
 100
AcDbBlockEnd
   0
BLOCK
   5
C6
 100
AcDbEntity
   8
0
 100
AcDbBlockBegin
   2
*D2
  70
65
  10
0.0
  20
0.0
  30
0.0
   3
*D2
   0
LINE
   5
C7
 100
AcDbEntity
   8
0
 100
AcDbLine
   6
CONTINUOUS
  62
6
  10
 358.54582279502
  20
 165.38863947150
  30
0.0
  11
 358.54582279502
  21
 188.09018735699
  31
0.0
   0
LINE
   5
C8
 100
AcDbEntity
   8
0
 100
AcDbLine
   6
CONTINUOUS
  62
6
  10
 385.34582279502
  20
 165.38863947150
  30
0.0
  11
 385.34582279502
  21
 188.09018735699
  31
0.0
   0
LINE
   5
C9
 100
AcDbEntity
   8
0
 100
AcDbLine
   6
CONTINUOUS
  62
6
  10
 358.54582279502
  20
 187.09018735699
  30
0.0
  11
 371.94582279502
  21
 187.09018735699
  31
0.0
   0
LINE
   5
CA
 100
AcDbEntity
   8
0
 100
AcDbLine
   6
CONTINUOUS
  62
6
  10
 385.34582279502
  20
 187.09018735699
  30
0.0
  11
 371.94582279502
  21
 187.09018735699
  31
0.0
   0
INSERT
   5
CB
 100
AcDbEntity
   8
0
   6
CONTINUOUS
  62
6
 100
AcDbBlockReference
   2
_OPEN30
  10
 358.54582279502
  20
 187.09018735699
  30
0.0
  41
 2.0000000000000
  42
 2.0000000000000
  43
 2.0000000000000
  50
 180.00000000000
   0
INSERT
   5
CC
 100
AcDbEntity
   8
0
   6
CONTINUOUS
  62
6
 100
AcDbBlockReference
   2
_OPEN30
  10
 385.34582279502
  20
 187.09018735699
  30
0.0
  41
 2.0000000000000
  42
 2.0000000000000
  43
 2.0000000000000
  50
0.0
   0
MTEXT
   5
CD
 100
AcDbEntity
   8
0
  62
6
 100
AcDbMText
  10
 371.94582279502
  20
 188.80447307127
  30
0.0
  40
 4.0000000000000
  41
0.0
  71
8
  72
1
   1
\A1;%%c26.8
   7
GMM001
   0
ENDBLK
   5
CE
 100
AcDbEntity
   8
0
 100
AcDbBlockEnd
   0
BLOCK
   5
CF
 100
AcDbEntity
   8
0
 100
AcDbBlockBegin
   2
*D3
  70
65
  10
0.0
  20
0.0
  30
0.0
   3
*D3
   0
LINE
   5
D0
 100
AcDbEntity
   8
0
 100
AcDbLine
   6
CONTINUOUS
  62
6
  10
 248.93442821716
  20
 179.28863947149
  30
0.0
  11
 273.93761953147
  21
 179.28863947149
  31
0.0
   0
LINE
   5
D1
 100
AcDbEntity
   8
0
 100
AcDbLine
   6
CONTINUOUS
  62
6
  10
 248.93442821716
  20
 149.48863947149
  30
0.0
  11
 273.93761953147
  21
 149.48863947149
  31
0.0
   0
LINE
   5
D2
 100
AcDbEntity
   8
0
 100
AcDbLine
   6
CONTINUOUS
  62
6
  10
 272.93761953147
  20
 179.28863947149
  30
0.0
  11
 272.93761953147
  21
 164.38863947149
  31
0.0
   0
LINE
   5
D3
 100
AcDbEntity
   8
0
 100
AcDbLine
   6
CONTINUOUS
  62
6
  10
 272.93761953147
  20
 149.48863947149
  30
0.0
  11
 272.93761953147
  21
 164.38863947149
  31
0.0
   0
INSERT
   5
D4
 100
AcDbEntity
   8
0
   6
CONTINUOUS
  62
6
 100
AcDbBlockReference
   2
_OPEN30
  10
 272.93761953147
  20
 179.28863947149
  30
0.0
  41
 2.0000000000000
  42
 2.0000000000000
  43
 2.0000000000000
  50
 90.000000000000
   0
INSERT
   5
D5
 100
AcDbEntity
   8
0
   6
CONTINUOUS
  62
6
 100
AcDbBlockReference
   2
_OPEN30
  10
 272.93761953147
  20
 149.48863947149
  30
0.0
  41
 2.0000000000000
  42
 2.0000000000000
  43
 2.0000000000000
  50
 270.00000000000
   0
MTEXT
   5
D6
 100
AcDbEntity
   8
0
  62
6
 100
AcDbMText
  10
 271.22333381719
  20
 164.38863947149
  30
0.0
  40
 4.0000000000000
  41
0.0
  71
8
  72
1
   1
\A1;%%c29.8
   7
GMM001
  11
0.0
  21
 1.0000000000000
  31
0.0
   0
ENDBLK
   5
D7
 100
AcDbEntity
   8
0
 100
AcDbBlockEnd
   0
BLOCK
   5
D8
 100
AcDbEntity
   8
0
 100
AcDbBlockBegin
   2
*D4
  70
65
  10
0.0
  20
0.0
  30
0.0
   3
*D4
   0
LINE
   5
D9
 100
AcDbEntity
   8
0
 100
AcDbLine
   6
CONTINUOUS
  62
6
  10
 312.94582279502
  20
 179.28863947149
  30
0.0
  11
 305.34335958993
  21
 179.28863947149
  31
0.0
   0
LINE
   5
DA
 100
AcDbEntity
   8
0
 100
AcDbLine
   6
CONTINUOUS
  62
6
  10
 312.94582279502
  20
 149.48863947149
  30
0.0
  11
 305.34335958993
  21
 149.48863947149
  31
0.0
   0
LINE
   5
DB
 100
AcDbEntity
   8
0
 100
AcDbLine
   6
CONTINUOUS
  62
6
  10
 306.34335958993
  20
 179.28863947149
  30
0.0
  11
 306.34335958993
  21
 164.38863947149
  31
0.0
   0
LINE
   5
DC
 100
AcDbEntity
   8
0
 100
AcDbLine
   6
CONTINUOUS
  62
6
  10
 306.34335958993
  20
 149.48863947149
  30
0.0
  11
 306.34335958993
  21
 164.38863947149
  31
0.0
   0
INSERT
   5
DD
 100
AcDbEntity
   8
0
   6
CONTINUOUS
  62
6
 100
AcDbBlockReference
   2
_OPEN30
  10
 306.34335958993
  20
 179.28863947149
  30
0.0
  41
 2.0000000000000
  42
 2.0000000000000
  43
 2.0000000000000
  50
 90.000000000000
   0
INSERT
   5
DE
 100
AcDbEntity
   8
0
   6
CONTINUOUS
  62
6
 100
AcDbBlockReference
   2
_OPEN30
  10
 306.34335958993
  20
 149.48863947149
  30
0.0
  41
 2.0000000000000
  42
 2.0000000000000
  43
 2.0000000000000
  50
 270.00000000000
   0
MTEXT
   5
DF
 100
AcDbEntity
   8
0
  62
6
 100
AcDbMText
  10
 304.62907387564
  20
 164.38863947149
  30
0.0
  40
 4.0000000000000
  41
0.0
  71
8
  72
1
   1
\A1;%%c29.8
   7
GMM001
  11
0.0
  21
 1.0000000000000
  31
0.0
   0
ENDBLK
   5
E0
 100
AcDbEntity
   8
0
 100
AcDbBlockEnd
   0
BLOCK
   5
E1
 100
AcDbEntity
   8
0
 100
AcDbBlockBegin
   2
*D5
  70
65
  10
0.0
  20
0.0
  30
0.0
   3
*D5
   0
LINE
   5
E2
 100
AcDbEntity
   8
0
 100
AcDbLine
   6
CONTINUOUS
  62
6
  10
 263.43442821716
  20
 175.98863947149
  30
0.0
  11
 263.43442821716
  21
 201.35663695822
  31
0.0
   0
LINE
   5
E3
 100
AcDbEntity
   8
0
 100
AcDbLine
   6
CONTINUOUS
  62
6
  10
 235.14300920276
  20
 181.51863947149
  30
0.0
  11
 235.14300920276
  21
 201.35663695822
  31
0.0
   0
LINE
   5
E4
 100
AcDbEntity
   8
0
 100
AcDbLine
   6
CONTINUOUS
  62
6
  10
 263.43442821716
  20
 200.35663695822
  30
0.0
  11
 249.28871870996
  21
 200.35663695822
  31
0.0
   0
LINE
   5
E5
 100
AcDbEntity
   8
0
 100
AcDbLine
   6
CONTINUOUS
  62
6
  10
 235.14300920276
  20
 200.35663695822
  30
0.0
  11
 249.28871870996
  21
 200.35663695822
  31
0.0
   0
INSERT
   5
E6
 100
AcDbEntity
   8
0
   6
CONTINUOUS
  62
6
 100
AcDbBlockReference
   2
_OPEN30
  10
 263.43442821716
  20
 200.35663695822
  30
0.0
  41
 2.0000000000000
  42
 2.0000000000000
  43
 2.0000000000000
  50
0.0
   0
INSERT
   5
E7
 100
AcDbEntity
   8
0
   6
CONTINUOUS
  62
6
 100
AcDbBlockReference
   2
_OPEN30
  10
 235.14300920276
  20
 200.35663695822
  30
0.0
  41
 2.0000000000000
  42
 2.0000000000000
  43
 2.0000000000000
  50
 180.00000000000
   0
MTEXT
   5
E8
 100
AcDbEntity
   8
0
  62
6
 100
AcDbMText
  10
 249.28871870996
  20
 202.07092267250
  30
0.0
  40
 4.0000000000000
  41
0.0
  71
8
  72
1
   1
\A1;28.3
   7
GMM001
   0
ENDBLK
   5
E9
 100
AcDbEntity
   8
0
 100
AcDbBlockEnd
   0
BLOCK
   5
EA
 100
AcDbEntity
   8
0
 100
AcDbBlockBegin
   2
*D6
  70
65
  10
0.0
  20
0.0
  30
0.0
   3
*D6
   0
LINE
   5
EB
 100
AcDbEntity
   8
0
 100
AcDbLine
   6
CONTINUOUS
  62
6
  10
 173.03442821716
  20
 165.38863947149
  30
0.0
  11
 173.03442821716
  21
 196.66139211009
  31
0.0
   0
LINE
   5
EC
 100
AcDbEntity
   8
0
 100
AcDbLine
   6
CONTINUOUS
  62
6
  10
 208.03442821716
  20
 165.38863947149
  30
0.0
  11
 208.03442821716
  21
 196.66139211009
  31
0.0
   0
LINE
   5
ED
 100
AcDbEntity
   8
0
 100
AcDbLine
   6
CONTINUOUS
  62
6
  10
 173.03442821716
  20
 195.66139211009
  30
0.0
  11
 190.53442821716
  21
 195.66139211009
  31
0.0
   0
LINE
   5
EE
 100
AcDbEntity
   8
0
 100
AcDbLine
   6
CONTINUOUS
  62
6
  10
 208.03442821716
  20
 195.66139211009
  30
0.0
  11
 190.53442821716
  21
 195.66139211009
  31
0.0
   0
INSERT
   5
EF
 100
AcDbEntity
   8
0
   6
CONTINUOUS
  62
6
 100
AcDbBlockReference
   2
_OPEN30
  10
 173.03442821716
  20
 195.66139211009
  30
0.0
  41
 2.0000000000000
  42
 2.0000000000000
  43
 2.0000000000000
  50
 180.00000000000
   0
INSERT
   5
F0
 100
AcDbEntity
   8
0
   6
CONTINUOUS
  62
6
 100
AcDbBlockReference
   2
_OPEN30
  10
 208.03442821716
  20
 195.66139211009
  30
0.0
  41
 2.0000000000000
  42
 2.0000000000000
  43
 2.0000000000000
  50
0.0
   0
MTEXT
   5
F1
 100
AcDbEntity
   8
0
  62
6
 100
AcDbMText
  10
 190.53442821716
  20
 197.37567782437
  30
0.0
  40
 4.0000000000000
  41
0.0
  71
8
  72
1
   1
\A1;%%c35
   7
GMM001
   0
ENDBLK
   5
F2
 100
AcDbEntity
   8
0
 100
AcDbBlockEnd
   0
BLOCK
   5
F3
 100
AcDbEntity
   8
0
 100
AcDbBlockBegin
   2
*D7
  70
65
  10
0.0
  20
0.0
  30
0.0
   3
*D7
   0
LINE
   5
F4
 100
AcDbEntity
   8
0
 100
AcDbLine
   6
CONTINUOUS
  62
6
  10
 354.44582279502
  20
 165.38863947149
  30
0.0
  11
 354.44582279502
  21
 196.66139211009
  31
0.0
   0
LINE
   5
F5
 100
AcDbEntity
   8
0
 100
AcDbLine
   6
CONTINUOUS
  62
6
  10
 389.44582279502
  20
 165.38863947149
  30
0.0
  11
 389.44582279502
  21
 196.66139211009
  31
0.0
   0
LINE
   5
F6
 100
AcDbEntity
   8
0
 100
AcDbLine
   6
CONTINUOUS
  62
6
  10
 354.44582279502
  20
 195.66139211009
  30
0.0
  11
 371.94582279502
  21
 195.66139211009
  31
0.0
   0
LINE
   5
F7
 100
AcDbEntity
   8
0
 100
AcDbLine
   6
CONTINUOUS
  62
6
  10
 389.44582279502
  20
 195.66139211009
  30
0.0
  11
 371.94582279502
  21
 195.66139211009
  31
0.0
   0
INSERT
   5
F8
 100
AcDbEntity
   8
0
   6
CONTINUOUS
  62
6
 100
AcDbBlockReference
   2
_OPEN30
  10
 354.44582279502
  20
 195.66139211009
  30
0.0
  41
 2.0000000000000
  42
 2.0000000000000
  43
 2.0000000000000
  50
 180.00000000000
   0
INSERT
   5
F9
 100
AcDbEntity
   8
0
   6
CONTINUOUS
  62
6
 100
AcDbBlockReference
   2
_OPEN30
  10
 389.44582279502
  20
 195.66139211009
  30
0.0
  41
 2.0000000000000
  42
 2.0000000000000
  43
 2.0000000000000
  50
0.0
   0
MTEXT
   5
FA
 100
AcDbEntity
   8
0
  62
6
 100
AcDbMText
  10
 371.94582279502
  20
 197.37567782437
  30
0.0
  40
 4.0000000000000
  41
0.0
  71
8
  72
1
   1
\A1;%%c35
   7
GMM001
   0
ENDBLK
   5
FB
 100
AcDbEntity
   8
0
 100
AcDbBlockEnd
   0
BLOCK
   5
FC
 100
AcDbEntity
   8
0
 100
AcDbBlockBegin
   2
*D8
  70
65
  10
0.0
  20
0.0
  30
0.0
   3
*D8
   0
LINE
   5
FD
 100
AcDbEntity
   8
0
 100
AcDbLine
   6
CONTINUOUS
  62
6
  10
 327.23724180942
  20
 181.51863947149
  30
0.0
  11
 327.23724180942
  21
 201.35663695822
  31
0.0
   0
LINE
   5
FE
 100
AcDbEntity
   8
0
 100
AcDbLine
   6
CONTINUOUS
  62
6
  10
 309.94582279502
  20
 177.18863947149
  30
0.0
  11
 309.94582279502
  21
 201.35663695822
  31
0.0
   0
LINE
   5
FF
 100
AcDbEntity
   8
0
 100
AcDbLine
   6
CONTINUOUS
  62
6
  10
 327.23724180942
  20
 200.35663695822
  30
0.0
  11
 318.59153230222
  21
 200.35663695822
  31
0.0
   0
LINE
   5
100
 100
AcDbEntity
   8
0
 100
AcDbLine
   6
CONTINUOUS
  62
6
  10
 309.94582279502
  20
 200.35663695822
  30
0.0
  11
 318.59153230222
  21
 200.35663695822
  31
0.0
   0
INSERT
   5
101
 100
AcDbEntity
   8
0
   6
CONTINUOUS
  62
6
 100
AcDbBlockReference
   2
_OPEN30
  10
 327.23724180942
  20
 200.35663695822
  30
0.0
  41
 2.0000000000000
  42
 2.0000000000000
  43
 2.0000000000000
  50
0.0
   0
INSERT
   5
102
 100
AcDbEntity
   8
0
   6
CONTINUOUS
  62
6
 100
AcDbBlockReference
   2
_OPEN30
  10
 309.94582279502
  20
 200.35663695822
  30
0.0
  41
 2.0000000000000
  42
 2.0000000000000
  43
 2.0000000000000
  50
 180.00000000000
   0
MTEXT
   5
103
 100
AcDbEntity
   8
0
  62
6
 100
AcDbMText
  10
 318.59153230222
  20
 202.07092267250
  30
0.0
  40
 4.0000000000000
  41
0.0
  71
8
  72
1
   1
\A1;17.3
   7
GMM001
   0
ENDBLK
   5
104
 100
AcDbEntity
   8
0
 100
AcDbBlockEnd
   0
BLOCK
   5
105
 100
AcDbEntity
   8
0
 100
AcDbBlockBegin
   2
*D9
  70
65
  10
0.0
  20
0.0
  30
0.0
   3
*D9
   0
LINE
   5
106
 100
AcDbEntity
   8
0
 100
AcDbLine
   6
CONTINUOUS
  62
6
  10
 249.93442821716
  20
 179.28863947149
  30
0.0
  11
 273.93761953147
  21
 179.28863947149
  31
0.0
   0
LINE
   5
107
 100
AcDbEntity
   8
0
 100
AcDbLine
   6
CONTINUOUS
  62
6
  10
 247.23442821716
  20
 179.58863947149
  30
0.0
  11
 273.93761953147
  21
 179.58863947149
  31
0.0
   0
LINE
   5
108
 100
AcDbEntity
   8
0
 100
AcDbLine
   6
CONTINUOUS
  62
6
  10
 272.93761953147
  20
 176.78863947149
  30
0.0
  11
 272.93761953147
  21
 179.43863947149
  31
0.0
   0
LINE
   5
109
 100
AcDbEntity
   8
0
 100
AcDbLine
   6
CONTINUOUS
  62
6
  10
 272.93761953147
  20
 189.81159969459
  30
0.0
  11
 272.93761953147
  21
 179.43863947149
  31
0.0
   0
INSERT
   5
10A
 100
AcDbEntity
   8
0
   6
CONTINUOUS
  62
6
 100
AcDbBlockReference
   2
_OPEN30
  10
 272.93761953147
  20
 179.28863947149
  30
0.0
  41
 2.0000000000000
  42
 2.0000000000000
  43
 2.0000000000000
  50
 90.000000000000
   0
INSERT
   5
10B
 100
AcDbEntity
   8
0
   6
CONTINUOUS
  62
6
 100
AcDbBlockReference
   2
_OPEN30
  10
 272.93761953147
  20
 179.58863947149
  30
0.0
  41
 2.0000000000000
  42
 2.0000000000000
  43
 2.0000000000000
  50
 270.00000000000
   0
MTEXT
   5
10C
 100
AcDbEntity
   8
0
  62
6
 100
AcDbMText
  10
 271.22333381719
  20
 186.06159969459
  30
0.0
  40
 4.0000000000000
  41
0.0
  71
8
  72
1
   1
\A1;0.3
   7
GMM001
  11
0.0
  21
 1.0000000000000
  31
0.0
   0
ENDBLK
   5
10D
 100
AcDbEntity
   8
0
 100
AcDbBlockEnd
   0
BLOCK
   5
10E
 100
AcDbEntity
   8
0
 100
AcDbBlockBegin
   2
*D10
  70
65
  10
0.0
  20
0.0
  30
0.0
   3
*D10
   0
LINE
   5
10F
 100
AcDbEntity
   8
0
 100
AcDbLine
   6
CONTINUOUS
  62
6
  10
 247.23442821716
  20
 149.18863947149
  30
0.0
  11
 273.93761953147
  21
 149.18863947149
  31
0.0
   0
LINE
   5
110
 100
AcDbEntity
   8
0
 100
AcDbLine
   6
CONTINUOUS
  62
6
  10
 249.93442821716
  20
 149.48863947149
  30
0.0
  11
 273.93761953147
  21
 149.48863947149
  31
0.0
   0
LINE
   5
111
 100
AcDbEntity
   8
0
 100
AcDbLine
   6
CONTINUOUS
  62
6
  10
 272.93761953147
  20
 140.59237123301
  30
0.0
  11
 272.93761953147
  21
 149.33863947149
  31
0.0
   0
LINE
   5
112
 100
AcDbEntity
   8
0
 100
AcDbLine
   6
CONTINUOUS
  62
6
  10
 272.93761953147
  20
 151.98863947149
  30
0.0
  11
 272.93761953147
  21
 149.33863947149
  31
0.0
   0
INSERT
   5
113
 100
AcDbEntity
   8
0
   6
CONTINUOUS
  62
6
 100
AcDbBlockReference
   2
_OPEN30
  10
 272.93761953147
  20
 149.18863947149
  30
0.0
  41
 2.0000000000000
  42
 2.0000000000000
  43
 2.0000000000000
  50
 90.000000000000
   0
INSERT
   5
114
 100
AcDbEntity
   8
0
   6
CONTINUOUS
  62
6
 100
AcDbBlockReference
   2
_OPEN30
  10
 272.93761953147
  20
 149.48863947149
  30
0.0
  41
 2.0000000000000
  42
 2.0000000000000
  43
 2.0000000000000
  50
 270.00000000000
   0
MTEXT
   5
115
 100
AcDbEntity
   8
0
  62
6
 100
AcDbMText
  10
 271.22333381719
  20
 144.34237123301
  30
0.0
  40
 4.0000000000000
  41
0.0
  71
8
  72
1
   1
\A1;0.3
   7
GMM001
  11
0.0
  21
 1.0000000000000
  31
0.0
   0
ENDBLK
   5
116
 100
AcDbEntity
   8
0
 100
AcDbBlockEnd
   0
BLOCK
   5
117
 100
AcDbEntity
   8
0
 100
AcDbBlockBegin
   2
*D11
  70
65
  10
0.0
  20
0.0
  30
0.0
   3
*D11
   0
LINE
   5
118
 100
AcDbEntity
   8
0
 100
AcDbLine
   6
CONTINUOUS
  62
6
  10
 236.93442821716
  20
 182.88863947149
  30
0.0
  11
 236.93442821716
  21
 198.47591983088
  31
0.0
   0
LINE
   5
119
 100
AcDbEntity
   8
0
 100
AcDbLine
   6
CONTINUOUS
  62
6
  10
 235.14300920276
  20
 181.51863947149
  30
0.0
  11
 235.14300920276
  21
 198.47591983088
  31
0.0
   0
LINE
   5
11A
 100
AcDbEntity
   8
0
 100
AcDbLine
   6
CONTINUOUS
  62
6
  10
 239.43442821716
  20
 197.47591983088
  30
0.0
  11
 236.03871870996
  21
 197.47591983088
  31
0.0
   0
LINE
   5
11B
 100
AcDbEntity
   8
0
 100
AcDbLine
   6
CONTINUOUS
  62
6
  10
 223.94457254801
  20
 197.47591983088
  30
0.0
  11
 236.03871870996
  21
 197.47591983088
  31
0.0
   0
INSERT
   5
11C
 100
AcDbEntity
   8
0
   6
CONTINUOUS
  62
6
 100
AcDbBlockReference
   2
_OPEN30
  10
 236.93442821716
  20
 197.47591983088
  30
0.0
  41
 2.0000000000000
  42
 2.0000000000000
  43
 2.0000000000000
  50
 180.00000000000
   0
INSERT
   5
11D
 100
AcDbEntity
   8
0
   6
CONTINUOUS
  62
6
 100
AcDbBlockReference
   2
_OPEN30
  10
 235.14300920276
  20
 197.47591983088
  30
0.0
  41
 2.0000000000000
  42
 2.0000000000000
  43
 2.0000000000000
  50
0.0
   0
MTEXT
   5
11E
 100
AcDbEntity
   8
0
  62
6
 100
AcDbMText
  10
 227.69457254801
  20
 199.09087047181
  30
0.0
  40
 4.0000000000000
  41
0.0
  71
8
  72
1
   1
\A1;1.8
   7
GMM001
   0
ENDBLK
   5
11F
 100
AcDbEntity
   8
0
 100
AcDbBlockEnd
   0
BLOCK
   5
120
 100
AcDbEntity
   8
0
 100
AcDbBlockBegin
   2
BLOCK002
  70
64
  10
0.0
  20
0.0
  30
0.0
   3
BLOCK002
   0
LINE
   5
121
 100
AcDbEntity
   8
0
 100
AcDbLine
   6
CONTINUOUS
  62
1
  10
 83.147704415935
  20
 172.25711123495
  30
0.0
  11
 95.279232652470
  21
 184.38863947149
  31
0.0
   0
LINE
   5
122
 100
AcDbEntity
   8
0
 100
AcDbLine
   6
CONTINUOUS
  62
1
  10
 83.147704415935
  20
 175.08553835970
  30
0.0
  11
 92.450805527724
  21
 184.38863947149
  31
0.0
   0
LINE
   5
123
 100
AcDbEntity
   8
0
 100
AcDbLine
   6
CONTINUOUS
  62
1
  10
 83.147704415935
  20
 177.91396548444
  30
0.0
  11
 89.622378402978
  21
 184.38863947149
  31
0.0
   0
LINE
   5
124
 100
AcDbEntity
   8
0
 100
AcDbLine
   6
CONTINUOUS
  62
1
  10
 83.147704415935
  20
 180.74239260919
  30
0.0
  11
 86.793951278232
  21
 184.38863947149
  31
0.0
   0
LINE
   5
125
 100
AcDbEntity
   8
0
 100
AcDbLine
   6
CONTINUOUS
  62
1
  10
 83.147704415935
  20
 183.57081973394
  30
0.0
  11
 83.965524153485
  21
 184.38863947149
  31
0.0
   0
LINE
   5
126
 100
AcDbEntity
   8
0
 100
AcDbLine
   6
CONTINUOUS
  62
1
  10
 83.147704415935
  20
 169.42868411020
  30
0.0
  11
 98.107659777216
  21
 184.38863947149
  31
0.0
   0
LINE
   5
127
 100
AcDbEntity
   8
0
 100
AcDbLine
   6
CONTINUOUS
  62
1
  10
 86.391931024678
  20
 144.38863947149
  30
0.0
  11
 94.287988279423
  21
 152.28469672623
  31
0.0
   0
LINE
   5
128
 100
AcDbEntity
   8
0
 100
AcDbLine
   6
CONTINUOUS
  62
1
  10
 115.25164716119
  20
 173.24835560800
  30
0.0
  11
 123.14770441593
  21
 181.14441286274
  31
0.0
   0
LINE
   5
129
 100
AcDbEntity
   8
0
 100
AcDbLine
   6
CONTINUOUS
  62
1
  10
 83.563503899932
  20
 144.38863947149
  30
0.0
  11
 92.751040154766
  21
 153.57617572632
  31
0.0
   0
LINE
   5
12A
 100
AcDbEntity
   8
0
 100
AcDbLine
   6
CONTINUOUS
  62
1
  10
 113.96016816110
  20
 174.78530373266
  30
0.0
  11
 123.14770441593
  21
 183.97283998749
  31
0.0
   0
LINE
   5
12B
 100
AcDbEntity
   8
0
 100
AcDbLine
   6
CONTINUOUS
  62
1
  10
 83.147704415935
  20
 146.80126711224
  30
0.0
  11
 91.403610612719
  21
 155.05717330902
  31
0.0
   0
LINE
   5
12C
 100
AcDbEntity
   8
0
 100
AcDbLine
   6
CONTINUOUS
  62
1
  10
 112.47917057840
  20
 176.13273327470
  30
0.0
  11
 120.73507677519
  21
 184.38863947149
  31
0.0
   0
LINE
   5
12D
 100
AcDbEntity
   8
0
 100
AcDbLine
   6
CONTINUOUS
  62
1
  10
 83.147704415935
  20
 149.62969423698
  30
0.0
  11
 90.249393408481
  21
 156.73138322953
  31
0.0
   0
LINE
   5
12E
 100
AcDbEntity
   8
0
 100
AcDbLine
   6
CONTINUOUS
  62
1
  10
 110.80496065789
  20
 177.28695047894
  30
0.0
  11
 117.90664965044
  21
 184.38863947149
  31
0.0
   0
LINE
   5
12F
 100
AcDbEntity
   8
0
 100
AcDbLine
   6
CONTINUOUS
  62
1
  10
 83.147704415935
  20
 152.45812136173
  30
0.0
  11
 89.303739979336
  21
 158.61415692513
  31
0.0
   0
LINE
   5
130
 100
AcDbEntity
   8
0
 100
AcDbLine
   6
CONTINUOUS
  62
1
  10
 108.92218696229
  20
 178.23260390809
  30
0.0
  11
 115.07822252569
  21
 184.38863947149
  31
0.0
   0
LINE
   5
131
 100
AcDbEntity
   8
0
 100
AcDbLine
   6
CONTINUOUS
  62
1
  10
 83.147704415935
  20
 155.28654848647
  30
0.0
  11
 88.598810635278
  21
 160.73765470582
  31
0.0
   0
LINE
   5
132
 100
AcDbEntity
   8
0
 100
AcDbLine
   6
CONTINUOUS
  62
1
  10
 106.79868918160
  20
 178.93753325214
  30
0.0
  11
 112.24979540095
  21
 184.38863947149
  31
0.0
   0
LINE
   5
133
 100
AcDbEntity
   8
0
 100
AcDbLine
   6
CONTINUOUS
  62
1
  10
 83.147704415935
  20
 158.11497561122
  30
0.0
  11
 88.197699879021
  21
 163.16497107431
  31
0.0
   0
LINE
   5
134
 100
AcDbEntity
   8
0
 100
AcDbLine
   6
CONTINUOUS
  62
1
  10
 104.37137281311
  20
 179.33864400840
  30
0.0
  11
 109.42136827620
  21
 184.38863947149
  31
0.0
   0
LINE
   5
135
 100
AcDbEntity
   8
0
 100
AcDbLine
   6
CONTINUOUS
  62
1
  10
 83.147704415935
  20
 160.94340273597
  30
0.0
  11
 88.238207486577
  21
 166.03390580661
  31
0.0
   0
LINE
   5
136
 100
AcDbEntity
   8
0
 100
AcDbLine
   6
CONTINUOUS
  62
1
  10
 101.50243808081
  20
 179.29813640084
  30
0.0
  11
 106.59294115145
  21
 184.38863947149
  31
0.0
   0
LINE
   5
137
 100
AcDbEntity
   8
0
 100
AcDbLine
   6
CONTINUOUS
  62
1
  10
 83.147704415935
  20
 163.77182986071
  30
0.0
  11
 89.146470885712
  21
 169.77059633049
  31
0.0
   0
LINE
   5
138
 100
AcDbEntity
   8
0
 100
AcDbLine
   6
CONTINUOUS
  62
1
  10
 97.765747556931
  20
 178.38987300171
  30
0.0
  11
 103.76451402671
  21
 184.38863947149
  31
0.0
   0
LINE
   5
139
 100
AcDbEntity
   8
0
 100
AcDbLine
   6
CONTINUOUS
  62
1
  10
 83.147704415935
  20
 166.60025698546
  30
0.0
  11
 100.93608690196
  21
 184.38863947149
  31
0.0
   0
LINE
   5
13A
 100
AcDbEntity
   8
0
 100
AcDbLine
   6
CONTINUOUS
  62
1
  10
 111.84777514739
  20
 144.38863947149
  30
0.0
  11
 123.14770441593
  21
 155.68856874003
  31
0.0
   0
LINE
   5
13B
 100
AcDbEntity
   8
0
 100
AcDbLine
   6
CONTINUOUS
  62
1
  10
 109.01934802265
  20
 144.38863947149
  30
0.0
  11
 123.14770441593
  21
 158.51699586477
  31
0.0
   0
LINE
   5
13C
 100
AcDbEntity
   8
0
 100
AcDbLine
   6
CONTINUOUS
  62
1
  10
 106.19092089790
  20
 144.38863947149
  30
0.0
  11
 123.14770441593
  21
 161.34542298952
  31
0.0
   0
LINE
   5
13D
 100
AcDbEntity
   8
0
 100
AcDbLine
   6
CONTINUOUS
  62
1
  10
 103.36249377316
  20
 144.38863947149
  30
0.0
  11
 110.03942298977
  21
 151.06556868810
  31
0.0
   0
LINE
   5
13E
 100
AcDbEntity
   8
0
 100
AcDbLine
   6
CONTINUOUS
  62
1
  10
 116.47077519932
  20
 157.49692089765
  30
0.0
  11
 123.14770441593
  21
 164.17385011427
  31
0.0
   0
LINE
   5
13F
 100
AcDbEntity
   8
0
 100
AcDbLine
   6
CONTINUOUS
  62
1
  10
 100.53406664841
  20
 144.38863947149
  30
0.0
  11
 105.76399470871
  21
 149.61856753179
  31
0.0
   0
LINE
   5
140
 100
AcDbEntity
   8
0
 100
AcDbLine
   6
CONTINUOUS
  62
1
  10
 117.91777635564
  20
 161.77234917871
  30
0.0
  11
 123.14770441593
  21
 167.00227723901
  31
0.0
   0
LINE
   5
141
 100
AcDbEntity
   8
0
 100
AcDbLine
   6
CONTINUOUS
  62
1
  10
 97.705639523663
  20
 144.38863947149
  30
0.0
  11
 102.71196968456
  21
 149.39496963239
  31
0.0
   0
LINE
   5
142
 100
AcDbEntity
   8
0
 100
AcDbLine
   6
CONTINUOUS
  62
1
  10
 118.14137425503
  20
 164.82437420286
  30
0.0
  11
 123.14770441593
  21
 169.83070436376
  31
0.0
   0
LINE
   5
143
 100
AcDbEntity
   8
0
 100
AcDbLine
   6
CONTINUOUS
  62
1
  10
 94.877212398917
  20
 144.38863947149
  30
0.0
  11
 100.17477428661
  21
 149.68620135918
  31
0.0
   0
LINE
   5
144
 100
AcDbEntity
   8
0
 100
AcDbLine
   6
CONTINUOUS
  62
1
  10
 117.85014252824
  20
 167.36156960081
  30
0.0
  11
 123.14770441593
  21
 172.65913148850
  31
0.0
   0
LINE
   5
145
 100
AcDbEntity
   8
0
 100
AcDbLine
   6
CONTINUOUS
  62
1
  10
 92.048785274171
  20
 144.38863947149
  30
0.0
  11
 97.970540555411
  21
 150.31039475273
  31
0.0
   0
LINE
   5
146
 100
AcDbEntity
   8
0
 100
AcDbLine
   6
CONTINUOUS
  62
1
  10
 117.22594913469
  20
 169.56580333201
  30
0.0
  11
 123.14770441593
  21
 175.48755861325
  31
0.0
   0
LINE
   5
147
 100
AcDbEntity
   8
0
 100
AcDbLine
   6
CONTINUOUS
  62
1
  10
 89.220358149424
  20
 144.38863947149
  30
0.0
  11
 96.021319087685
  21
 151.18960040975
  31
0.0
   0
LINE
   5
148
 100
AcDbEntity
   8
0
 100
AcDbLine
   6
CONTINUOUS
  62
1
  10
 116.34674347767
  20
 171.51502479974
  30
0.0
  11
 123.14770441593
  21
 178.31598573800
  31
0.0
   0
LINE
   5
149
 100
AcDbEntity
   8
0
 100
AcDbLine
   6
CONTINUOUS
  62
1
  10
 114.67620227214
  20
 144.38863947149
  30
0.0
  11
 123.14770441593
  21
 152.86014161528
  31
0.0
   0
LINE
   5
14A
 100
AcDbEntity
   8
0
 100
AcDbLine
   6
CONTINUOUS
  62
1
  10
 120.33305652163
  20
 144.38863947149
  30
0.0
  11
 123.14770441593
  21
 147.20328736579
  31
0.0
   0
LINE
   5
14B
 100
AcDbEntity
   8
0
 100
AcDbLine
   6
CONTINUOUS
  62
1
  10
 117.50462939689
  20
 144.38863947149
  30
0.0
  11
 123.14770441593
  21
 150.03171449053
  31
0.0
   0
ENDBLK
   5
14C
 100
AcDbEntity
   8
0
 100
AcDbBlockEnd
   0
BLOCK
   5
14D
 100
AcDbEntity
   8
0
 100
AcDbBlockBegin
   2
*D12
  70
65
  10
0.0
  20
0.0
  30
0.0
   3
*D12
   0
LINE
   5
14E
 100
AcDbEntity
   8
0
 100
AcDbLine
   6
CONTINUOUS
  62
2
  10
 96.871388117525
  20
 178.01243680271
  30
0.0
  11
 115.34590488859
  21
 137.91039918789
  31
0.0
   0
INSERT
   5
14F
 100
AcDbEntity
   8
0
   6
CONTINUOUS
  62
2
 100
AcDbBlockReference
   2
_OPEN30
  10
 96.871388117525
  20
 178.01243680271
  30
0.0
  41
 3.0000000000000
  42
 3.0000000000000
  43
 3.0000000000000
  50
 114.73494415184
   0
INSERT
   5
150
 100
AcDbEntity
   8
0
   6
CONTINUOUS
  62
2
 100
AcDbBlockReference
   2
_OPEN30
  10
 109.42402071434
  20
 150.76484214026
  30
0.0
  41
 3.0000000000000
  42
 3.0000000000000
  43
 3.0000000000000
  50
 294.73494415184
   0
MTEXT
   5
151
 100
AcDbEntity
   8
0
  62
7
 100
AcDbMText
  10
 115.34590488859
  20
 135.91039918789
  30
0.0
  40
 4.0000000000000
  41
0.0
  71
7
  72
1
   1
\A1;%%c30{\H0.625x;\S +0.2^ -0;} 
   7
GMM002
   0
ENDBLK
   5
152
 100
AcDbEntity
   8
0
 100
AcDbBlockEnd
   0
BLOCK
   5
153
 100
AcDbEntity
   8
0
 100
AcDbBlockBegin
   2
BLOCK003
  70
64
  10
0.0
  20
0.0
  30
0.0
   3
BLOCK003
   0
LINE
   5
154
 100
AcDbEntity
   8
0
 100
AcDbLine
   6
CONTINUOUS
  62
1
  10
 28.380247533647
  20
 142.77765245840
  30
0.0
  11
 39.830812928493
  21
 149.38863947149
  31
0.0
   0
LINE
   5
155
 100
AcDbEntity
   8
0
 100
AcDbLine
   6
CONTINUOUS
  62
1
  10
 28.380247533647
  20
 140.77765245840
  30
0.0
  11
 43.294914543631
  21
 149.38863947149
  31
0.0
   0
LINE
   5
156
 100
AcDbEntity
   8
0
 100
AcDbLine
   6
CONTINUOUS
  62
1
  10
 35.757334430796
  20
 138.03681556430
  30
0.0
  11
 55.419270196613
  21
 149.38863947149
  31
0.0
   0
LINE
   5
157
 100
AcDbEntity
   8
0
 100
AcDbLine
   6
CONTINUOUS
  62
1
  10
 34.025283623227
  20
 138.03681556430
  30
0.0
  11
 53.687219389044
  21
 149.38863947149
  31
0.0
   0
LINE
   5
158
 100
AcDbEntity
   8
0
 100
AcDbLine
   6
CONTINUOUS
  62
1
  10
 32.293232815658
  20
 138.03681556430
  30
0.0
  11
 51.955168581475
  21
 149.38863947149
  31
0.0
   0
LINE
   5
159
 100
AcDbEntity
   8
0
 100
AcDbLine
   6
CONTINUOUS
  62
1
  10
 30.561182008089
  20
 138.03681556430
  30
0.0
  11
 50.223117773906
  21
 149.38863947149
  31
0.0
   0
LINE
   5
15A
 100
AcDbEntity
   8
0
 100
AcDbLine
   6
CONTINUOUS
  62
1
  10
 28.829131200520
  20
 138.03681556430
  30
0.0
  11
 48.491066966337
  21
 149.38863947149
  31
0.0
   0
LINE
   5
15B
 100
AcDbEntity
   8
0
 100
AcDbLine
   6
CONTINUOUS
  62
1
  10
 28.380247533647
  20
 138.77765245840
  30
0.0
  11
 46.759016158769
  21
 149.38863947149
  31
0.0
   0
LINE
   5
15C
 100
AcDbEntity
   8
0
 100
AcDbLine
   6
CONTINUOUS
  62
1
  10
 28.380247533647
  20
 139.77765245840
  30
0.0
  11
 45.026965351200
  21
 149.38863947149
  31
0.0
   0
LINE
   5
15D
 100
AcDbEntity
   8
0
 100
AcDbLine
   6
CONTINUOUS
  62
1
  10
 28.380247533647
  20
 141.77765245840
  30
0.0
  11
 41.562863736062
  21
 149.38863947149
  31
0.0
   0
LINE
   5
15E
 100
AcDbEntity
   8
0
 100
AcDbLine
   6
CONTINUOUS
  62
1
  10
 28.380247533647
  20
 143.77765245840
  30
0.0
  11
 38.098762120924
  21
 149.38863947149
  31
0.0
   0
LINE
   5
15F
 100
AcDbEntity
   8
0
 100
AcDbLine
   6
CONTINUOUS
  62
1
  10
 28.380247533647
  20
 144.77765245840
  30
0.0
  11
 36.366711313355
  21
 149.38863947149
  31
0.0
   0
LINE
   5
160
 100
AcDbEntity
   8
0
 100
AcDbLine
   6
CONTINUOUS
  62
1
  10
 28.380247533647
  20
 145.77765245840
  30
0.0
  11
 34.634660505786
  21
 149.38863947149
  31
0.0
   0
LINE
   5
161
 100
AcDbEntity
   8
0
 100
AcDbLine
   6
CONTINUOUS
  62
1
  10
 28.380247533647
  20
 146.77765245840
  30
0.0
  11
 32.902609698217
  21
 149.38863947149
  31
0.0
   0
LINE
   5
162
 100
AcDbEntity
   8
0
 100
AcDbLine
   6
CONTINUOUS
  62
1
  10
 28.380247533647
  20
 147.77765245840
  30
0.0
  11
 31.170558890649
  21
 149.38863947149
  31
0.0
   0
LINE
   5
163
 100
AcDbEntity
   8
0
 100
AcDbLine
   6
CONTINUOUS
  62
1
  10
 28.380247533647
  20
 148.77765245840
  30
0.0
  11
 29.438508083080
  21
 149.38863947149
  31
0.0
   0
LINE
   5
164
 100
AcDbEntity
   8
0
 100
AcDbLine
   6
CONTINUOUS
  62
1
  10
 37.489385238365
  20
 138.03681556430
  30
0.0
  11
 56.380247533647
  21
 148.94345999571
  31
0.0
   0
LINE
   5
165
 100
AcDbEntity
   8
0
 100
AcDbLine
   6
CONTINUOUS
  62
1
  10
 53.077842506485
  20
 138.03681556430
  30
0.0
  11
 56.380247533647
  21
 139.94345999571
  31
0.0
   0
LINE
   5
166
 100
AcDbEntity
   8
0
 100
AcDbLine
   6
CONTINUOUS
  62
1
  10
 54.809893314054
  20
 138.03681556430
  30
0.0
  11
 56.380247533647
  21
 138.94345999571
  31
0.0
   0
LINE
   5
167
 100
AcDbEntity
   8
0
 100
AcDbLine
   6
CONTINUOUS
  62
1
  10
 51.345791698916
  20
 138.03681556430
  30
0.0
  11
 56.380247533647
  21
 140.94345999571
  31
0.0
   0
LINE
   5
168
 100
AcDbEntity
   8
0
 100
AcDbLine
   6
CONTINUOUS
  62
1
  10
 49.613740891347
  20
 138.03681556430
  30
0.0
  11
 56.380247533647
  21
 141.94345999571
  31
0.0
   0
LINE
   5
169
 100
AcDbEntity
   8
0
 100
AcDbLine
   6
CONTINUOUS
  62
1
  10
 47.881690083778
  20
 138.03681556430
  30
0.0
  11
 56.380247533647
  21
 142.94345999571
  31
0.0
   0
LINE
   5
16A
 100
AcDbEntity
   8
0
 100
AcDbLine
   6
CONTINUOUS
  62
1
  10
 46.149639276209
  20
 138.03681556430
  30
0.0
  11
 56.380247533647
  21
 143.94345999571
  31
0.0
   0
LINE
   5
16B
 100
AcDbEntity
   8
0
 100
AcDbLine
   6
CONTINUOUS
  62
1
  10
 44.417588468640
  20
 138.03681556430
  30
0.0
  11
 56.380247533647
  21
 144.94345999571
  31
0.0
   0
LINE
   5
16C
 100
AcDbEntity
   8
0
 100
AcDbLine
   6
CONTINUOUS
  62
1
  10
 42.685537661071
  20
 138.03681556430
  30
0.0
  11
 56.380247533647
  21
 145.94345999571
  31
0.0
   0
LINE
   5
16D
 100
AcDbEntity
   8
0
 100
AcDbLine
   6
CONTINUOUS
  62
1
  10
 40.953486853503
  20
 138.03681556430
  30
0.0
  11
 56.380247533647
  21
 146.94345999571
  31
0.0
   0
LINE
   5
16E
 100
AcDbEntity
   8
0
 100
AcDbLine
   6
CONTINUOUS
  62
1
  10
 39.221436045934
  20
 138.03681556430
  30
0.0
  11
 56.380247533647
  21
 147.94345999571
  31
0.0
   0
LINE
   5
16F
 100
AcDbEntity
   8
0
 100
AcDbLine
   6
CONTINUOUS
  62
1
  10
 30.018954877591
  20
 149.38863947149
  30
0.0
  11
 49.680890643408
  21
 138.03681556430
  31
0.0
   0
LINE
   5
170
 100
AcDbEntity
   8
0
 100
AcDbLine
   6
CONTINUOUS
  62
1
  10
 31.751005685160
  20
 149.38863947149
  30
0.0
  11
 51.412941450977
  21
 138.03681556430
  31
0.0
   0
LINE
   5
171
 100
AcDbEntity
   8
0
 100
AcDbLine
   6
CONTINUOUS
  62
1
  10
 33.483056492729
  20
 149.38863947149
  30
0.0
  11
 53.144992258546
  21
 138.03681556430
  31
0.0
   0
LINE
   5
172
 100
AcDbEntity
   8
0
 100
AcDbLine
   6
CONTINUOUS
  62
1
  10
 35.215107300298
  20
 149.38863947149
  30
0.0
  11
 54.877043066115
  21
 138.03681556430
  31
0.0
   0
LINE
   5
173
 100
AcDbEntity
   8
0
 100
AcDbLine
   6
CONTINUOUS
  62
1
  10
 36.947158107867
  20
 149.38863947149
  30
0.0
  11
 56.380247533647
  21
 138.16894006033
  31
0.0
   0
LINE
   5
174
 100
AcDbEntity
   8
0
 100
AcDbLine
   6
CONTINUOUS
  62
1
  10
 38.679208915436
  20
 149.38863947149
  30
0.0
  11
 56.380247533647
  21
 139.16894006033
  31
0.0
   0
LINE
   5
175
 100
AcDbEntity
   8
0
 100
AcDbLine
   6
CONTINUOUS
  62
1
  10
 40.411259723005
  20
 149.38863947149
  30
0.0
  11
 56.380247533647
  21
 140.16894006033
  31
0.0
   0
LINE
   5
176
 100
AcDbEntity
   8
0
 100
AcDbLine
   6
CONTINUOUS
  62
1
  10
 42.143310530574
  20
 149.38863947149
  30
0.0
  11
 56.380247533647
  21
 141.16894006033
  31
0.0
   0
LINE
   5
177
 100
AcDbEntity
   8
0
 100
AcDbLine
   6
CONTINUOUS
  62
1
  10
 45.607412145711
  20
 149.38863947149
  30
0.0
  11
 56.380247533647
  21
 143.16894006033
  31
0.0
   0
LINE
   5
178
 100
AcDbEntity
   8
0
 100
AcDbLine
   6
CONTINUOUS
  62
1
  10
 43.875361338142
  20
 149.38863947149
  30
0.0
  11
 56.380247533647
  21
 142.16894006033
  31
0.0
   0
LINE
   5
179
 100
AcDbEntity
   8
0
 100
AcDbLine
   6
CONTINUOUS
  62
1
  10
 47.339462953280
  20
 149.38863947149
  30
0.0
  11
 56.380247533647
  21
 144.16894006033
  31
0.0
   0
LINE
   5
17A
 100
AcDbEntity
   8
0
 100
AcDbLine
   6
CONTINUOUS
  62
1
  10
 49.071513760849
  20
 149.38863947149
  30
0.0
  11
 56.380247533647
  21
 145.16894006033
  31
0.0
   0
LINE
   5
17B
 100
AcDbEntity
   8
0
 100
AcDbLine
   6
CONTINUOUS
  62
1
  10
 50.803564568418
  20
 149.38863947149
  30
0.0
  11
 56.380247533647
  21
 146.16894006033
  31
0.0
   0
LINE
   5
17C
 100
AcDbEntity
   8
0
 100
AcDbLine
   6
CONTINUOUS
  62
1
  10
 52.535615375987
  20
 149.38863947149
  30
0.0
  11
 56.380247533647
  21
 147.16894006033
  31
0.0
   0
LINE
   5
17D
 100
AcDbEntity
   8
0
 100
AcDbLine
   6
CONTINUOUS
  62
1
  10
 54.267666183556
  20
 149.38863947149
  30
0.0
  11
 56.380247533647
  21
 148.16894006033
  31
0.0
   0
LINE
   5
17E
 100
AcDbEntity
   8
0
 100
AcDbLine
   6
CONTINUOUS
  62
1
  10
 55.999716991125
  20
 149.38863947149
  30
0.0
  11
 56.380247533647
  21
 149.16894006033
  31
0.0
   0
LINE
   5
17F
 100
AcDbEntity
   8
0
 100
AcDbLine
   6
CONTINUOUS
  62
1
  10
 28.380247533647
  20
 149.33474759764
  30
0.0
  11
 47.948839835839
  21
 138.03681556430
  31
0.0
   0
LINE
   5
180
 100
AcDbEntity
   8
0
 100
AcDbLine
   6
CONTINUOUS
  62
1
  10
 28.380247533647
  20
 138.33474759764
  30
0.0
  11
 28.896280952582
  21
 138.03681556430
  31
0.0
   0
LINE
   5
181
 100
AcDbEntity
   8
0
 100
AcDbLine
   6
CONTINUOUS
  62
1
  10
 28.380247533647
  20
 140.33474759764
  30
0.0
  11
 32.360382567719
  21
 138.03681556430
  31
0.0
   0
LINE
   5
182
 100
AcDbEntity
   8
0
 100
AcDbLine
   6
CONTINUOUS
  62
1
  10
 28.380247533647
  20
 139.33474759764
  30
0.0
  11
 30.628331760151
  21
 138.03681556430
  31
0.0
   0
LINE
   5
183
 100
AcDbEntity
   8
0
 100
AcDbLine
   6
CONTINUOUS
  62
1
  10
 28.380247533647
  20
 141.33474759764
  30
0.0
  11
 34.092433375288
  21
 138.03681556430
  31
0.0
   0
LINE
   5
184
 100
AcDbEntity
   8
0
 100
AcDbLine
   6
CONTINUOUS
  62
1
  10
 28.380247533647
  20
 142.33474759764
  30
0.0
  11
 35.824484182857
  21
 138.03681556430
  31
0.0
   0
LINE
   5
185
 100
AcDbEntity
   8
0
 100
AcDbLine
   6
CONTINUOUS
  62
1
  10
 28.380247533647
  20
 143.33474759764
  30
0.0
  11
 37.556534990426
  21
 138.03681556430
  31
0.0
   0
LINE
   5
186
 100
AcDbEntity
   8
0
 100
AcDbLine
   6
CONTINUOUS
  62
1
  10
 28.380247533647
  20
 144.33474759764
  30
0.0
  11
 39.288585797995
  21
 138.03681556430
  31
0.0
   0
LINE
   5
187
 100
AcDbEntity
   8
0
 100
AcDbLine
   6
CONTINUOUS
  62
1
  10
 28.380247533647
  20
 145.33474759764
  30
0.0
  11
 41.020636605564
  21
 138.03681556430
  31
0.0
   0
LINE
   5
188
 100
AcDbEntity
   8
0
 100
AcDbLine
   6
CONTINUOUS
  62
1
  10
 28.380247533647
  20
 146.33474759764
  30
0.0
  11
 42.752687413133
  21
 138.03681556430
  31
0.0
   0
LINE
   5
189
 100
AcDbEntity
   8
0
 100
AcDbLine
   6
CONTINUOUS
  62
1
  10
 28.380247533647
  20
 147.33474759764
  30
0.0
  11
 44.484738220702
  21
 138.03681556430
  31
0.0
   0
LINE
   5
18A
 100
AcDbEntity
   8
0
 100
AcDbLine
   6
CONTINUOUS
  62
1
  10
 28.380247533647
  20
 148.33474759764
  30
0.0
  11
 46.216789028271
  21
 138.03681556430
  31
0.0
   0
ENDBLK
   5
18B
 100
AcDbEntity
   8
0
 100
AcDbBlockEnd
   0
BLOCK
   5
18C
 100
AcDbEntity
   8
0
 100
AcDbBlockBegin
   2
BLOCK004
  70
64
  10
0.0
  20
0.0
  30
0.0
   3
BLOCK004
   0
LINE
   5
18D
 100
AcDbEntity
   8
0
 100
AcDbLine
   6
CONTINUOUS
  62
1
  10
 28.380247533647
  20
 184.12947636558
  30
0.0
  11
 39.830812928493
  21
 190.74046337867
  31
0.0
   0
LINE
   5
18E
 100
AcDbEntity
   8
0
 100
AcDbLine
   6
CONTINUOUS
  62
1
  10
 28.380247533647
  20
 182.12947636558
  30
0.0
  11
 43.294914543631
  21
 190.74046337867
  31
0.0
   0
LINE
   5
18F
 100
AcDbEntity
   8
0
 100
AcDbLine
   6
CONTINUOUS
  62
1
  10
 35.757334430796
  20
 179.38863947149
  30
0.0
  11
 55.419270196613
  21
 190.74046337867
  31
0.0
   0
LINE
   5
190
 100
AcDbEntity
   8
0
 100
AcDbLine
   6
CONTINUOUS
  62
1
  10
 34.025283623227
  20
 179.38863947149
  30
0.0
  11
 53.687219389044
  21
 190.74046337867
  31
0.0
   0
LINE
   5
191
 100
AcDbEntity
   8
0
 100
AcDbLine
   6
CONTINUOUS
  62
1
  10
 32.293232815658
  20
 179.38863947149
  30
0.0
  11
 51.955168581475
  21
 190.74046337867
  31
0.0
   0
LINE
   5
192
 100
AcDbEntity
   8
0
 100
AcDbLine
   6
CONTINUOUS
  62
1
  10
 30.561182008089
  20
 179.38863947149
  30
0.0
  11
 50.223117773906
  21
 190.74046337867
  31
0.0
   0
LINE
   5
193
 100
AcDbEntity
   8
0
 100
AcDbLine
   6
CONTINUOUS
  62
1
  10
 28.829131200520
  20
 179.38863947149
  30
0.0
  11
 48.491066966337
  21
 190.74046337867
  31
0.0
   0
LINE
   5
194
 100
AcDbEntity
   8
0
 100
AcDbLine
   6
CONTINUOUS
  62
1
  10
 28.380247533647
  20
 180.12947636558
  30
0.0
  11
 46.759016158768
  21
 190.74046337867
  31
0.0
   0
LINE
   5
195
 100
AcDbEntity
   8
0
 100
AcDbLine
   6
CONTINUOUS
  62
1
  10
 28.380247533647
  20
 181.12947636558
  30
0.0
  11
 45.026965351200
  21
 190.74046337867
  31
0.0
   0
LINE
   5
196
 100
AcDbEntity
   8
0
 100
AcDbLine
   6
CONTINUOUS
  62
1
  10
 28.380247533647
  20
 183.12947636558
  30
0.0
  11
 41.562863736062
  21
 190.74046337867
  31
0.0
   0
LINE
   5
197
 100
AcDbEntity
   8
0
 100
AcDbLine
   6
CONTINUOUS
  62
1
  10
 28.380247533647
  20
 185.12947636558
  30
0.0
  11
 38.098762120924
  21
 190.74046337867
  31
0.0
   0
LINE
   5
198
 100
AcDbEntity
   8
0
 100
AcDbLine
   6
CONTINUOUS
  62
1
  10
 28.380247533647
  20
 186.12947636558
  30
0.0
  11
 36.366711313355
  21
 190.74046337867
  31
0.0
   0
LINE
   5
199
 100
AcDbEntity
   8
0
 100
AcDbLine
   6
CONTINUOUS
  62
1
  10
 28.380247533647
  20
 187.12947636558
  30
0.0
  11
 34.634660505786
  21
 190.74046337867
  31
0.0
   0
LINE
   5
19A
 100
AcDbEntity
   8
0
 100
AcDbLine
   6
CONTINUOUS
  62
1
  10
 28.380247533647
  20
 188.12947636558
  30
0.0
  11
 32.902609698217
  21
 190.74046337867
  31
0.0
   0
LINE
   5
19B
 100
AcDbEntity
   8
0
 100
AcDbLine
   6
CONTINUOUS
  62
1
  10
 28.380247533647
  20
 189.12947636558
  30
0.0
  11
 31.170558890649
  21
 190.74046337867
  31
0.0
   0
LINE
   5
19C
 100
AcDbEntity
   8
0
 100
AcDbLine
   6
CONTINUOUS
  62
1
  10
 28.380247533647
  20
 190.12947636558
  30
0.0
  11
 29.438508083080
  21
 190.74046337867
  31
0.0
   0
LINE
   5
19D
 100
AcDbEntity
   8
0
 100
AcDbLine
   6
CONTINUOUS
  62
1
  10
 37.489385238365
  20
 179.38863947149
  30
0.0
  11
 56.380247533647
  21
 190.29528390289
  31
0.0
   0
LINE
   5
19E
 100
AcDbEntity
   8
0
 100
AcDbLine
   6
CONTINUOUS
  62
1
  10
 53.077842506485
  20
 179.38863947149
  30
0.0
  11
 56.380247533647
  21
 181.29528390289
  31
0.0
   0
LINE
   5
19F
 100
AcDbEntity
   8
0
 100
AcDbLine
   6
CONTINUOUS
  62
1
  10
 54.809893314054
  20
 179.38863947149
  30
0.0
  11
 56.380247533647
  21
 180.29528390289
  31
0.0
   0
LINE
   5
1A0
 100
AcDbEntity
   8
0
 100
AcDbLine
   6
CONTINUOUS
  62
1
  10
 51.345791698916
  20
 179.38863947149
  30
0.0
  11
 56.380247533647
  21
 182.29528390289
  31
0.0
   0
LINE
   5
1A1
 100
AcDbEntity
   8
0
 100
AcDbLine
   6
CONTINUOUS
  62
1
  10
 49.613740891347
  20
 179.38863947149
  30
0.0
  11
 56.380247533647
  21
 183.29528390289
  31
0.0
   0
LINE
   5
1A2
 100
AcDbEntity
   8
0
 100
AcDbLine
   6
CONTINUOUS
  62
1
  10
 47.881690083778
  20
 179.38863947149
  30
0.0
  11
 56.380247533647
  21
 184.29528390289
  31
0.0
   0
LINE
   5
1A3
 100
AcDbEntity
   8
0
 100
AcDbLine
   6
CONTINUOUS
  62
1
  10
 46.149639276209
  20
 179.38863947149
  30
0.0
  11
 56.380247533647
  21
 185.29528390289
  31
0.0
   0
LINE
   5
1A4
 100
AcDbEntity
   8
0
 100
AcDbLine
   6
CONTINUOUS
  62
1
  10
 44.417588468640
  20
 179.38863947149
  30
0.0
  11
 56.380247533647
  21
 186.29528390289
  31
0.0
   0
LINE
   5
1A5
 100
AcDbEntity
   8
0
 100
AcDbLine
   6
CONTINUOUS
  62
1
  10
 42.685537661071
  20
 179.38863947149
  30
0.0
  11
 56.380247533647
  21
 187.29528390289
  31
0.0
   0
LINE
   5
1A6
 100
AcDbEntity
   8
0
 100
AcDbLine
   6
CONTINUOUS
  62
1
  10
 40.953486853503
  20
 179.38863947149
  30
0.0
  11
 56.380247533647
  21
 188.29528390289
  31
0.0
   0
LINE
   5
1A7
 100
AcDbEntity
   8
0
 100
AcDbLine
   6
CONTINUOUS
  62
1
  10
 39.221436045934
  20
 179.38863947149
  30
0.0
  11
 56.380247533647
  21
 189.29528390289
  31
0.0
   0
LINE
   5
1A8
 100
AcDbEntity
   8
0
 100
AcDbLine
   6
CONTINUOUS
  62
1
  10
 30.018954877591
  20
 190.74046337867
  30
0.0
  11
 49.680890643408
  21
 179.38863947149
  31
0.0
   0
LINE
   5
1A9
 100
AcDbEntity
   8
0
 100
AcDbLine
   6
CONTINUOUS
  62
1
  10
 31.751005685160
  20
 190.74046337867
  30
0.0
  11
 51.412941450977
  21
 179.38863947149
  31
0.0
   0
LINE
   5
1AA
 100
AcDbEntity
   8
0
 100
AcDbLine
   6
CONTINUOUS
  62
1
  10
 33.483056492729
  20
 190.74046337867
  30
0.0
  11
 53.144992258546
  21
 179.38863947149
  31
0.0
   0
LINE
   5
1AB
 100
AcDbEntity
   8
0
 100
AcDbLine
   6
CONTINUOUS
  62
1
  10
 35.215107300298
  20
 190.74046337867
  30
0.0
  11
 54.877043066115
  21
 179.38863947149
  31
0.0
   0
LINE
   5
1AC
 100
AcDbEntity
   8
0
 100
AcDbLine
   6
CONTINUOUS
  62
1
  10
 36.947158107867
  20
 190.74046337867
  30
0.0
  11
 56.380247533647
  21
 179.52076396751
  31
0.0
   0
LINE
   5
1AD
 100
AcDbEntity
   8
0
 100
AcDbLine
   6
CONTINUOUS
  62
1
  10
 38.679208915436
  20
 190.74046337867
  30
0.0
  11
 56.380247533647
  21
 180.52076396751
  31
0.0
   0
LINE
   5
1AE
 100
AcDbEntity
   8
0
 100
AcDbLine
   6
CONTINUOUS
  62
1
  10
 40.411259723005
  20
 190.74046337867
  30
0.0
  11
 56.380247533647
  21
 181.52076396751
  31
0.0
   0
LINE
   5
1AF
 100
AcDbEntity
   8
0
 100
AcDbLine
   6
CONTINUOUS
  62
1
  10
 42.143310530573
  20
 190.74046337867
  30
0.0
  11
 56.380247533647
  21
 182.52076396751
  31
0.0
   0
LINE
   5
1B0
 100
AcDbEntity
   8
0
 100
AcDbLine
   6
CONTINUOUS
  62
1
  10
 45.607412145711
  20
 190.74046337867
  30
0.0
  11
 56.380247533647
  21
 184.52076396751
  31
0.0
   0
LINE
   5
1B1
 100
AcDbEntity
   8
0
 100
AcDbLine
   6
CONTINUOUS
  62
1
  10
 43.875361338142
  20
 190.74046337867
  30
0.0
  11
 56.380247533647
  21
 183.52076396751
  31
0.0
   0
LINE
   5
1B2
 100
AcDbEntity
   8
0
 100
AcDbLine
   6
CONTINUOUS
  62
1
  10
 47.339462953280
  20
 190.74046337867
  30
0.0
  11
 56.380247533647
  21
 185.52076396751
  31
0.0
   0
LINE
   5
1B3
 100
AcDbEntity
   8
0
 100
AcDbLine
   6
CONTINUOUS
  62
1
  10
 49.071513760849
  20
 190.74046337867
  30
0.0
  11
 56.380247533647
  21
 186.52076396751
  31
0.0
   0
LINE
   5
1B4
 100
AcDbEntity
   8
0
 100
AcDbLine
   6
CONTINUOUS
  62
1
  10
 50.803564568418
  20
 190.74046337867
  30
0.0
  11
 56.380247533647
  21
 187.52076396751
  31
0.0
   0
LINE
   5
1B5
 100
AcDbEntity
   8
0
 100
AcDbLine
   6
CONTINUOUS
  62
1
  10
 52.535615375987
  20
 190.74046337867
  30
0.0
  11
 56.380247533647
  21
 188.52076396751
  31
0.0
   0
LINE
   5
1B6
 100
AcDbEntity
   8
0
 100
AcDbLine
   6
CONTINUOUS
  62
1
  10
 54.267666183556
  20
 190.74046337867
  30
0.0
  11
 56.380247533647
  21
 189.52076396751
  31
0.0
   0
LINE
   5
1B7
 100
AcDbEntity
   8
0
 100
AcDbLine
   6
CONTINUOUS
  62
1
  10
 55.999716991124
  20
 190.74046337867
  30
0.0
  11
 56.380247533647
  21
 190.52076396751
  31
0.0
   0
LINE
   5
1B8
 100
AcDbEntity
   8
0
 100
AcDbLine
   6
CONTINUOUS
  62
1
  10
 28.380247533647
  20
 190.68657150482
  30
0.0
  11
 47.948839835839
  21
 179.38863947149
  31
0.0
   0
LINE
   5
1B9
 100
AcDbEntity
   8
0
 100
AcDbLine
   6
CONTINUOUS
  62
1
  10
 28.380247533647
  20
 179.68657150482
  30
0.0
  11
 28.896280952582
  21
 179.38863947149
  31
0.0
   0
LINE
   5
1BA
 100
AcDbEntity
   8
0
 100
AcDbLine
   6
CONTINUOUS
  62
1
  10
 28.380247533647
  20
 181.68657150482
  30
0.0
  11
 32.360382567720
  21
 179.38863947149
  31
0.0
   0
LINE
   5
1BB
 100
AcDbEntity
   8
0
 100
AcDbLine
   6
CONTINUOUS
  62
1
  10
 28.380247533647
  20
 180.68657150482
  30
0.0
  11
 30.628331760151
  21
 179.38863947149
  31
0.0
   0
LINE
   5
1BC
 100
AcDbEntity
   8
0
 100
AcDbLine
   6
CONTINUOUS
  62
1
  10
 28.380247533647
  20
 182.68657150482
  30
0.0
  11
 34.092433375288
  21
 179.38863947149
  31
0.0
   0
LINE
   5
1BD
 100
AcDbEntity
   8
0
 100
AcDbLine
   6
CONTINUOUS
  62
1
  10
 28.380247533647
  20
 183.68657150482
  30
0.0
  11
 35.824484182857
  21
 179.38863947149
  31
0.0
   0
LINE
   5
1BE
 100
AcDbEntity
   8
0
 100
AcDbLine
   6
CONTINUOUS
  62
1
  10
 28.380247533647
  20
 184.68657150482
  30
0.0
  11
 37.556534990426
  21
 179.38863947149
  31
0.0
   0
LINE
   5
1BF
 100
AcDbEntity
   8
0
 100
AcDbLine
   6
CONTINUOUS
  62
1
  10
 28.380247533647
  20
 185.68657150482
  30
0.0
  11
 39.288585797995
  21
 179.38863947149
  31
0.0
   0
LINE
   5
1C0
 100
AcDbEntity
   8
0
 100
AcDbLine
   6
CONTINUOUS
  62
1
  10
 28.380247533647
  20
 186.68657150482
  30
0.0
  11
 41.020636605564
  21
 179.38863947149
  31
0.0
   0
LINE
   5
1C1
 100
AcDbEntity
   8
0
 100
AcDbLine
   6
CONTINUOUS
  62
1
  10
 28.380247533647
  20
 187.68657150482
  30
0.0
  11
 42.752687413133
  21
 179.38863947149
  31
0.0
   0
LINE
   5
1C2
 100
AcDbEntity
   8
0
 100
AcDbLine
   6
CONTINUOUS
  62
1
  10
 28.380247533647
  20
 188.68657150482
  30
0.0
  11
 44.484738220702
  21
 179.38863947149
  31
0.0
   0
LINE
   5
1C3
 100
AcDbEntity
   8
0
 100
AcDbLine
   6
CONTINUOUS
  62
1
  10
 28.380247533647
  20
 189.68657150482
  30
0.0
  11
 46.216789028271
  21
 179.38863947149
  31
0.0
   0
ENDBLK
   5
1C4
 100
AcDbEntity
   8
0
 100
AcDbBlockEnd
   0
BLOCK
   5
1C5
 100
AcDbEntity
   8
0
 100
AcDbBlockBegin
   2
*D15
  70
65
  10
0.0
  20
0.0
  30
0.0
   3
*D15
   0
LINE
   5
1C6
 100
AcDbEntity
   8
0
 100
AcDbLine
   6
CONTINUOUS
  62
6
  10
 28.380247533647
  20
 191.74046337867
  30
0.0
  11
 28.380247533647
  21
 194.43072034296
  31
0.0
   0
LINE
   5
1C7
 100
AcDbEntity
   8
0
 100
AcDbLine
   6
CONTINUOUS
  62
6
  10
 56.380247533647
  20
 191.74046337867
  30
0.0
  11
 56.380247533647
  21
 194.43072034296
  31
0.0
   0
LINE
   5
1C8
 100
AcDbEntity
   8
0
 100
AcDbLine
   6
CONTINUOUS
  62
6
  10
 28.380247533647
  20
 193.43072034296
  30
0.0
  11
 42.380247533647
  21
 193.43072034296
  31
0.0
   0
LINE
   5
1C9
 100
AcDbEntity
   8
0
 100
AcDbLine
   6
CONTINUOUS
  62
6
  10
 56.380247533647
  20
 193.43072034296
  30
0.0
  11
 42.380247533647
  21
 193.43072034296
  31
0.0
   0
INSERT
   5
1CA
 100
AcDbEntity
   8
0
   6
CONTINUOUS
  62
6
 100
AcDbBlockReference
   2
_OPEN30
  10
 28.380247533647
  20
 193.43072034296
  30
0.0
  41
 2.0000000000000
  42
 2.0000000000000
  43
 2.0000000000000
  50
 180.00000000000
   0
INSERT
   5
1CB
 100
AcDbEntity
   8
0
   6
CONTINUOUS
  62
6
 100
AcDbBlockReference
   2
_OPEN30
  10
 56.380247533647
  20
 193.43072034296
  30
0.0
  41
 2.0000000000000
  42
 2.0000000000000
  43
 2.0000000000000
  50
0.0
   0
MTEXT
   5
1CC
 100
AcDbEntity
   8
0
  62
6
 100
AcDbMText
  10
 42.380247533647
  20
 195.14500605724
  30
0.0
  40
 4.0000000000000
  41
0.0
  71
8
  72
1
   1
\A1;28
   7
GMM001
   0
ENDBLK
   5
1CD
 100
AcDbEntity
   8
0
 100
AcDbBlockEnd
   0
BLOCK
   5
1CE
 100
AcDbEntity
   8
0
 100
AcDbBlockBegin
   2
BLOCK005
  70
64
  10
0.0
  20
0.0
  30
0.0
   3
BLOCK005
   0
LINE
   5
1CF
 100
AcDbEntity
   8
0
 100
AcDbLine
   6
CONTINUOUS
  62
1
  10
 28.380247533647
  20
 112.82196795284
  30
0.0
  11
 42.095483930686
  21
 120.74046337867
  31
0.0
   0
LINE
   5
1D0
 100
AcDbEntity
   8
0
 100
AcDbLine
   6
CONTINUOUS
  62
1
  10
 28.380247533647
  20
 110.82196795284
  30
0.0
  11
 45.559585545824
  21
 120.74046337867
  31
0.0
   0
LINE
   5
1D1
 100
AcDbEntity
   8
0
 100
AcDbLine
   6
CONTINUOUS
  62
1
  10
 38.022005432989
  20
 109.38863947149
  30
0.0
  11
 57.683941198806
  21
 120.74046337867
  31
0.0
   0
LINE
   5
1D2
 100
AcDbEntity
   8
0
 100
AcDbLine
   6
CONTINUOUS
  62
1
  10
 36.289954625420
  20
 109.38863947149
  30
0.0
  11
 55.951890391237
  21
 120.74046337867
  31
0.0
   0
LINE
   5
1D3
 100
AcDbEntity
   8
0
 100
AcDbLine
   6
CONTINUOUS
  62
1
  10
 34.557903817851
  20
 109.38863947149
  30
0.0
  11
 54.219839583668
  21
 120.74046337867
  31
0.0
   0
LINE
   5
1D4
 100
AcDbEntity
   8
0
 100
AcDbLine
   6
CONTINUOUS
  62
1
  10
 32.825853010282
  20
 109.38863947149
  30
0.0
  11
 52.487788776099
  21
 120.74046337867
  31
0.0
   0
LINE
   5
1D5
 100
AcDbEntity
   8
0
 100
AcDbLine
   6
CONTINUOUS
  62
1
  10
 31.093802202713
  20
 109.38863947149
  30
0.0
  11
 50.755737968530
  21
 120.74046337867
  31
0.0
   0
LINE
   5
1D6
 100
AcDbEntity
   8
0
 100
AcDbLine
   6
CONTINUOUS
  62
1
  10
 29.361751395145
  20
 109.38863947149
  30
0.0
  11
 49.023687160961
  21
 120.74046337867
  31
0.0
   0
LINE
   5
1D7
 100
AcDbEntity
   8
0
 100
AcDbLine
   6
CONTINUOUS
  62
1
  10
 28.380247533647
  20
 109.82196795284
  30
0.0
  11
 47.291636353393
  21
 120.74046337867
  31
0.0
   0
LINE
   5
1D8
 100
AcDbEntity
   8
0
 100
AcDbLine
   6
CONTINUOUS
  62
1
  10
 28.380247533647
  20
 111.82196795284
  30
0.0
  11
 43.827534738255
  21
 120.74046337867
  31
0.0
   0
LINE
   5
1D9
 100
AcDbEntity
   8
0
 100
AcDbLine
   6
CONTINUOUS
  62
1
  10
 28.380247533647
  20
 113.82196795284
  30
0.0
  11
 40.363433123117
  21
 120.74046337867
  31
0.0
   0
LINE
   5
1DA
 100
AcDbEntity
   8
0
 100
AcDbLine
   6
CONTINUOUS
  62
1
  10
 28.380247533647
  20
 114.82196795284
  30
0.0
  11
 38.631382315548
  21
 120.74046337867
  31
0.0
   0
LINE
   5
1DB
 100
AcDbEntity
   8
0
 100
AcDbLine
   6
CONTINUOUS
  62
1
  10
 28.380247533647
  20
 115.82196795284
  30
0.0
  11
 36.899331507979
  21
 120.74046337867
  31
0.0
   0
LINE
   5
1DC
 100
AcDbEntity
   8
0
 100
AcDbLine
   6
CONTINUOUS
  62
1
  10
 28.380247533647
  20
 116.82196795284
  30
0.0
  11
 35.167280700410
  21
 120.74046337867
  31
0.0
   0
LINE
   5
1DD
 100
AcDbEntity
   8
0
 100
AcDbLine
   6
CONTINUOUS
  62
1
  10
 28.380247533647
  20
 117.82196795284
  30
0.0
  11
 33.435229892842
  21
 120.74046337867
  31
0.0
   0
LINE
   5
1DE
 100
AcDbEntity
   8
0
 100
AcDbLine
   6
CONTINUOUS
  62
1
  10
 28.380247533647
  20
 118.82196795284
  30
0.0
  11
 31.703179085273
  21
 120.74046337867
  31
0.0
   0
LINE
   5
1DF
 100
AcDbEntity
   8
0
 100
AcDbLine
   6
CONTINUOUS
  62
1
  10
 28.380247533647
  20
 119.82196795284
  30
0.0
  11
 29.971128277704
  21
 120.74046337867
  31
0.0
   0
LINE
   5
1E0
 100
AcDbEntity
   8
0
 100
AcDbLine
   6
CONTINUOUS
  62
1
  10
 39.754056240558
  20
 109.38863947149
  30
0.0
  11
 59.415992006375
  21
 120.74046337867
  31
0.0
   0
LINE
   5
1E1
 100
AcDbEntity
   8
0
 100
AcDbLine
   6
CONTINUOUS
  62
1
  10
 55.342513508678
  20
 109.38863947149
  30
0.0
  11
 64.380247533647
  21
 114.60657764367
  31
0.0
   0
LINE
   5
1E2
 100
AcDbEntity
   8
0
 100
AcDbLine
   6
CONTINUOUS
  62
1
  10
 58.806615123815
  20
 109.38863947149
  30
0.0
  11
 64.380247533647
  21
 112.60657764367
  31
0.0
   0
LINE
   5
1E3
 100
AcDbEntity
   8
0
 100
AcDbLine
   6
CONTINUOUS
  62
1
  10
 64.002767546522
  20
 109.38863947149
  30
0.0
  11
 64.380247533647
  21
 109.60657764367
  31
0.0
   0
LINE
   5
1E4
 100
AcDbEntity
   8
0
 100
AcDbLine
   6
CONTINUOUS
  62
1
  10
 62.270716738953
  20
 109.38863947149
  30
0.0
  11
 64.380247533647
  21
 110.60657764367
  31
0.0
   0
LINE
   5
1E5
 100
AcDbEntity
   8
0
 100
AcDbLine
   6
CONTINUOUS
  62
1
  10
 60.538665931384
  20
 109.38863947149
  30
0.0
  11
 64.380247533647
  21
 111.60657764367
  31
0.0
   0
LINE
   5
1E6
 100
AcDbEntity
   8
0
 100
AcDbLine
   6
CONTINUOUS
  62
1
  10
 57.074564316247
  20
 109.38863947149
  30
0.0
  11
 64.380247533647
  21
 113.60657764367
  31
0.0
   0
LINE
   5
1E7
 100
AcDbEntity
   8
0
 100
AcDbLine
   6
CONTINUOUS
  62
1
  10
 53.610462701109
  20
 109.38863947149
  30
0.0
  11
 64.380247533647
  21
 115.60657764367
  31
0.0
   0
LINE
   5
1E8
 100
AcDbEntity
   8
0
 100
AcDbLine
   6
CONTINUOUS
  62
1
  10
 51.878411893540
  20
 109.38863947149
  30
0.0
  11
 64.380247533647
  21
 116.60657764367
  31
0.0
   0
LINE
   5
1E9
 100
AcDbEntity
   8
0
 100
AcDbLine
   6
CONTINUOUS
  62
1
  10
 50.146361085971
  20
 109.38863947149
  30
0.0
  11
 64.380247533647
  21
 117.60657764367
  31
0.0
   0
LINE
   5
1EA
 100
AcDbEntity
   8
0
 100
AcDbLine
   6
CONTINUOUS
  62
1
  10
 48.414310278402
  20
 109.38863947149
  30
0.0
  11
 64.380247533647
  21
 118.60657764367
  31
0.0
   0
LINE
   5
1EB
 100
AcDbEntity
   8
0
 100
AcDbLine
   6
CONTINUOUS
  62
1
  10
 46.682259470833
  20
 109.38863947149
  30
0.0
  11
 64.380247533647
  21
 119.60657764367
  31
0.0
   0
LINE
   5
1EC
 100
AcDbEntity
   8
0
 100
AcDbLine
   6
CONTINUOUS
  62
1
  10
 44.950208663264
  20
 109.38863947149
  30
0.0
  11
 64.380247533647
  21
 120.60657764367
  31
0.0
   0
LINE
   5
1ED
 100
AcDbEntity
   8
0
 100
AcDbLine
   6
CONTINUOUS
  62
1
  10
 43.218157855696
  20
 109.38863947149
  30
0.0
  11
 62.880093621513
  21
 120.74046337867
  31
0.0
   0
LINE
   5
1EE
 100
AcDbEntity
   8
0
 100
AcDbLine
   6
CONTINUOUS
  62
1
  10
 41.486107048127
  20
 109.38863947149
  30
0.0
  11
 61.148042813944
  21
 120.74046337867
  31
0.0
   0
LINE
   5
1EF
 100
AcDbEntity
   8
0
 100
AcDbLine
   6
CONTINUOUS
  62
1
  10
 60.663249219207
  20
 120.74046337867
  30
0.0
  11
 64.380247533647
  21
 118.59445340125
  31
0.0
   0
LINE
   5
1F0
 100
AcDbEntity
   8
0
 100
AcDbLine
   6
CONTINUOUS
  62
1
  10
 62.395300026776
  20
 120.74046337867
  30
0.0
  11
 64.380247533647
  21
 119.59445340125
  31
0.0
   0
LINE
   5
1F1
 100
AcDbEntity
   8
0
 100
AcDbLine
   6
CONTINUOUS
  62
1
  10
 64.127350834345
  20
 120.74046337867
  30
0.0
  11
 64.380247533647
  21
 120.59445340125
  31
0.0
   0
LINE
   5
1F2
 100
AcDbEntity
   8
0
 100
AcDbLine
   6
CONTINUOUS
  62
1
  10
 58.931198411638
  20
 120.74046337867
  30
0.0
  11
 64.380247533647
  21
 117.59445340125
  31
0.0
   0
LINE
   5
1F3
 100
AcDbEntity
   8
0
 100
AcDbLine
   6
CONTINUOUS
  62
1
  10
 28.380247533647
  20
 120.37906309208
  30
0.0
  11
 47.416219641215
  21
 109.38863947149
  31
0.0
   0
LINE
   5
1F4
 100
AcDbEntity
   8
0
 100
AcDbLine
   6
CONTINUOUS
  62
1
  10
 29.486334682967
  20
 120.74046337867
  30
0.0
  11
 49.148270448784
  21
 109.38863947149
  31
0.0
   0
LINE
   5
1F5
 100
AcDbEntity
   8
0
 100
AcDbLine
   6
CONTINUOUS
  62
1
  10
 31.218385490536
  20
 120.74046337867
  30
0.0
  11
 50.880321256353
  21
 109.38863947149
  31
0.0
   0
LINE
   5
1F6
 100
AcDbEntity
   8
0
 100
AcDbLine
   6
CONTINUOUS
  62
1
  10
 32.950436298105
  20
 120.74046337867
  30
0.0
  11
 52.612372063922
  21
 109.38863947149
  31
0.0
   0
LINE
   5
1F7
 100
AcDbEntity
   8
0
 100
AcDbLine
   6
CONTINUOUS
  62
1
  10
 34.682487105674
  20
 120.74046337867
  30
0.0
  11
 54.344422871491
  21
 109.38863947149
  31
0.0
   0
LINE
   5
1F8
 100
AcDbEntity
   8
0
 100
AcDbLine
   6
CONTINUOUS
  62
1
  10
 36.414537913243
  20
 120.74046337867
  30
0.0
  11
 56.076473679060
  21
 109.38863947149
  31
0.0
   0
LINE
   5
1F9
 100
AcDbEntity
   8
0
 100
AcDbLine
   6
CONTINUOUS
  62
1
  10
 38.146588720812
  20
 120.74046337867
  30
0.0
  11
 57.808524486628
  21
 109.38863947149
  31
0.0
   0
LINE
   5
1FA
 100
AcDbEntity
   8
0
 100
AcDbLine
   6
CONTINUOUS
  62
1
  10
 39.878639528381
  20
 120.74046337867
  30
0.0
  11
 59.540575294197
  21
 109.38863947149
  31
0.0
   0
LINE
   5
1FB
 100
AcDbEntity
   8
0
 100
AcDbLine
   6
CONTINUOUS
  62
1
  10
 43.342741143518
  20
 120.74046337867
  30
0.0
  11
 63.004676909335
  21
 109.38863947149
  31
0.0
   0
LINE
   5
1FC
 100
AcDbEntity
   8
0
 100
AcDbLine
   6
CONTINUOUS
  62
1
  10
 41.610690335949
  20
 120.74046337867
  30
0.0
  11
 61.272626101766
  21
 109.38863947149
  31
0.0
   0
LINE
   5
1FD
 100
AcDbEntity
   8
0
 100
AcDbLine
   6
CONTINUOUS
  62
1
  10
 45.074791951087
  20
 120.74046337867
  30
0.0
  11
 64.380247533647
  21
 109.59445340125
  31
0.0
   0
LINE
   5
1FE
 100
AcDbEntity
   8
0
 100
AcDbLine
   6
CONTINUOUS
  62
1
  10
 46.806842758656
  20
 120.74046337867
  30
0.0
  11
 64.380247533647
  21
 110.59445340125
  31
0.0
   0
LINE
   5
1FF
 100
AcDbEntity
   8
0
 100
AcDbLine
   6
CONTINUOUS
  62
1
  10
 48.538893566225
  20
 120.74046337867
  30
0.0
  11
 64.380247533647
  21
 111.59445340125
  31
0.0
   0
LINE
   5
200
 100
AcDbEntity
   8
0
 100
AcDbLine
   6
CONTINUOUS
  62
1
  10
 50.270944373794
  20
 120.74046337867
  30
0.0
  11
 64.380247533647
  21
 112.59445340125
  31
0.0
   0
LINE
   5
201
 100
AcDbEntity
   8
0
 100
AcDbLine
   6
CONTINUOUS
  62
1
  10
 52.002995181363
  20
 120.74046337867
  30
0.0
  11
 64.380247533647
  21
 113.59445340125
  31
0.0
   0
LINE
   5
202
 100
AcDbEntity
   8
0
 100
AcDbLine
   6
CONTINUOUS
  62
1
  10
 53.735045988932
  20
 120.74046337867
  30
0.0
  11
 64.380247533647
  21
 114.59445340125
  31
0.0
   0
LINE
   5
203
 100
AcDbEntity
   8
0
 100
AcDbLine
   6
CONTINUOUS
  62
1
  10
 55.467096796501
  20
 120.74046337867
  30
0.0
  11
 64.380247533647
  21
 115.59445340125
  31
0.0
   0
LINE
   5
204
 100
AcDbEntity
   8
0
 100
AcDbLine
   6
CONTINUOUS
  62
1
  10
 57.199147604069
  20
 120.74046337867
  30
0.0
  11
 64.380247533647
  21
 116.59445340125
  31
0.0
   0
LINE
   5
205
 100
AcDbEntity
   8
0
 100
AcDbLine
   6
CONTINUOUS
  62
1
  10
 28.380247533647
  20
 119.37906309208
  30
0.0
  11
 45.684168833646
  21
 109.38863947149
  31
0.0
   0
LINE
   5
206
 100
AcDbEntity
   8
0
 100
AcDbLine
   6
CONTINUOUS
  62
1
  10
 28.380247533647
  20
 110.37906309208
  30
0.0
  11
 30.095711565526
  21
 109.38863947149
  31
0.0
   0
LINE
   5
207
 100
AcDbEntity
   8
0
 100
AcDbLine
   6
CONTINUOUS
  62
1
  10
 28.380247533647
  20
 111.37906309208
  30
0.0
  11
 31.827762373095
  21
 109.38863947149
  31
0.0
   0
LINE
   5
208
 100
AcDbEntity
   8
0
 100
AcDbLine
   6
CONTINUOUS
  62
1
  10
 28.380247533647
  20
 112.37906309208
  30
0.0
  11
 33.559813180664
  21
 109.38863947149
  31
0.0
   0
LINE
   5
209
 100
AcDbEntity
   8
0
 100
AcDbLine
   6
CONTINUOUS
  62
1
  10
 28.380247533647
  20
 113.37906309208
  30
0.0
  11
 35.291863988233
  21
 109.38863947149
  31
0.0
   0
LINE
   5
20A
 100
AcDbEntity
   8
0
 100
AcDbLine
   6
CONTINUOUS
  62
1
  10
 28.380247533647
  20
 114.37906309208
  30
0.0
  11
 37.023914795802
  21
 109.38863947149
  31
0.0
   0
LINE
   5
20B
 100
AcDbEntity
   8
0
 100
AcDbLine
   6
CONTINUOUS
  62
1
  10
 28.380247533647
  20
 115.37906309208
  30
0.0
  11
 38.755965603371
  21
 109.38863947149
  31
0.0
   0
LINE
   5
20C
 100
AcDbEntity
   8
0
 100
AcDbLine
   6
CONTINUOUS
  62
1
  10
 28.380247533647
  20
 116.37906309208
  30
0.0
  11
 40.488016410940
  21
 109.38863947149
  31
0.0
   0
LINE
   5
20D
 100
AcDbEntity
   8
0
 100
AcDbLine
   6
CONTINUOUS
  62
1
  10
 28.380247533647
  20
 117.37906309208
  30
0.0
  11
 42.220067218509
  21
 109.38863947149
  31
0.0
   0
LINE
   5
20E
 100
AcDbEntity
   8
0
 100
AcDbLine
   6
CONTINUOUS
  62
1
  10
 28.380247533647
  20
 118.37906309208
  30
0.0
  11
 43.952118026078
  21
 109.38863947149
  31
0.0
   0
ENDBLK
   5
20F
 100
AcDbEntity
   8
0
 100
AcDbBlockEnd
   0
BLOCK
   5
210
 100
AcDbEntity
   8
0
 100
AcDbBlockBegin
   2
BLOCK006
  70
64
  10
0.0
  20
0.0
  30
0.0
   3
BLOCK006
   0
LINE
   5
211
 100
AcDbEntity
   8
0
 100
AcDbLine
   6
CONTINUOUS
  62
1
  10
 28.380247533647
  20
 71.470144045656
  30
0.0
  11
 42.095483930686
  21
 79.388639471486
  31
0.0
   0
LINE
   5
212
 100
AcDbEntity
   8
0
 100
AcDbLine
   6
CONTINUOUS
  62
1
  10
 28.380247533647
  20
 69.470144045656
  30
0.0
  11
 45.559585545824
  21
 79.388639471486
  31
0.0
   0
LINE
   5
213
 100
AcDbEntity
   8
0
 100
AcDbLine
   6
CONTINUOUS
  62
1
  10
 38.022005432989
  20
 68.036815564303
  30
0.0
  11
 57.683941198806
  21
 79.388639471486
  31
0.0
   0
LINE
   5
214
 100
AcDbEntity
   8
0
 100
AcDbLine
   6
CONTINUOUS
  62
1
  10
 36.289954625420
  20
 68.036815564303
  30
0.0
  11
 55.951890391237
  21
 79.388639471486
  31
0.0
   0
LINE
   5
215
 100
AcDbEntity
   8
0
 100
AcDbLine
   6
CONTINUOUS
  62
1
  10
 34.557903817851
  20
 68.036815564303
  30
0.0
  11
 54.219839583668
  21
 79.388639471486
  31
0.0
   0
LINE
   5
216
 100
AcDbEntity
   8
0
 100
AcDbLine
   6
CONTINUOUS
  62
1
  10
 32.825853010282
  20
 68.036815564303
  30
0.0
  11
 52.487788776099
  21
 79.388639471486
  31
0.0
   0
LINE
   5
217
 100
AcDbEntity
   8
0
 100
AcDbLine
   6
CONTINUOUS
  62
1
  10
 31.093802202713
  20
 68.036815564303
  30
0.0
  11
 50.755737968530
  21
 79.388639471486
  31
0.0
   0
LINE
   5
218
 100
AcDbEntity
   8
0
 100
AcDbLine
   6
CONTINUOUS
  62
1
  10
 29.361751395145
  20
 68.036815564303
  30
0.0
  11
 49.023687160961
  21
 79.388639471486
  31
0.0
   0
LINE
   5
219
 100
AcDbEntity
   8
0
 100
AcDbLine
   6
CONTINUOUS
  62
1
  10
 28.380247533647
  20
 68.470144045656
  30
0.0
  11
 47.291636353393
  21
 79.388639471486
  31
0.0
   0
LINE
   5
21A
 100
AcDbEntity
   8
0
 100
AcDbLine
   6
CONTINUOUS
  62
1
  10
 28.380247533647
  20
 70.470144045656
  30
0.0
  11
 43.827534738255
  21
 79.388639471486
  31
0.0
   0
LINE
   5
21B
 100
AcDbEntity
   8
0
 100
AcDbLine
   6
CONTINUOUS
  62
1
  10
 28.380247533647
  20
 72.470144045656
  30
0.0
  11
 40.363433123117
  21
 79.388639471486
  31
0.0
   0
LINE
   5
21C
 100
AcDbEntity
   8
0
 100
AcDbLine
   6
CONTINUOUS
  62
1
  10
 28.380247533647
  20
 73.470144045656
  30
0.0
  11
 38.631382315548
  21
 79.388639471486
  31
0.0
   0
LINE
   5
21D
 100
AcDbEntity
   8
0
 100
AcDbLine
   6
CONTINUOUS
  62
1
  10
 28.380247533647
  20
 74.470144045656
  30
0.0
  11
 36.899331507979
  21
 79.388639471486
  31
0.0
   0
LINE
   5
21E
 100
AcDbEntity
   8
0
 100
AcDbLine
   6
CONTINUOUS
  62
1
  10
 28.380247533647
  20
 75.470144045656
  30
0.0
  11
 35.167280700410
  21
 79.388639471486
  31
0.0
   0
LINE
   5
21F
 100
AcDbEntity
   8
0
 100
AcDbLine
   6
CONTINUOUS
  62
1
  10
 28.380247533647
  20
 76.470144045656
  30
0.0
  11
 33.435229892842
  21
 79.388639471486
  31
0.0
   0
LINE
   5
220
 100
AcDbEntity
   8
0
 100
AcDbLine
   6
CONTINUOUS
  62
1
  10
 28.380247533647
  20
 77.470144045656
  30
0.0
  11
 31.703179085273
  21
 79.388639471486
  31
0.0
   0
LINE
   5
221
 100
AcDbEntity
   8
0
 100
AcDbLine
   6
CONTINUOUS
  62
1
  10
 28.380247533647
  20
 78.470144045656
  30
0.0
  11
 29.971128277704
  21
 79.388639471486
  31
0.0
   0
LINE
   5
222
 100
AcDbEntity
   8
0
 100
AcDbLine
   6
CONTINUOUS
  62
1
  10
 39.754056240558
  20
 68.036815564303
  30
0.0
  11
 59.415992006375
  21
 79.388639471486
  31
0.0
   0
LINE
   5
223
 100
AcDbEntity
   8
0
 100
AcDbLine
   6
CONTINUOUS
  62
1
  10
 55.342513508678
  20
 68.036815564303
  30
0.0
  11
 64.380247533647
  21
 73.254753736483
  31
0.0
   0
LINE
   5
224
 100
AcDbEntity
   8
0
 100
AcDbLine
   6
CONTINUOUS
  62
1
  10
 58.806615123815
  20
 68.036815564303
  30
0.0
  11
 64.380247533647
  21
 71.254753736483
  31
0.0
   0
LINE
   5
225
 100
AcDbEntity
   8
0
 100
AcDbLine
   6
CONTINUOUS
  62
1
  10
 64.002767546522
  20
 68.036815564303
  30
0.0
  11
 64.380247533647
  21
 68.254753736483
  31
0.0
   0
LINE
   5
226
 100
AcDbEntity
   8
0
 100
AcDbLine
   6
CONTINUOUS
  62
1
  10
 62.270716738953
  20
 68.036815564303
  30
0.0
  11
 64.380247533647
  21
 69.254753736483
  31
0.0
   0
LINE
   5
227
 100
AcDbEntity
   8
0
 100
AcDbLine
   6
CONTINUOUS
  62
1
  10
 60.538665931384
  20
 68.036815564303
  30
0.0
  11
 64.380247533647
  21
 70.254753736483
  31
0.0
   0
LINE
   5
228
 100
AcDbEntity
   8
0
 100
AcDbLine
   6
CONTINUOUS
  62
1
  10
 57.074564316247
  20
 68.036815564303
  30
0.0
  11
 64.380247533647
  21
 72.254753736483
  31
0.0
   0
LINE
   5
229
 100
AcDbEntity
   8
0
 100
AcDbLine
   6
CONTINUOUS
  62
1
  10
 53.610462701109
  20
 68.036815564303
  30
0.0
  11
 64.380247533647
  21
 74.254753736483
  31
0.0
   0
LINE
   5
22A
 100
AcDbEntity
   8
0
 100
AcDbLine
   6
CONTINUOUS
  62
1
  10
 51.878411893540
  20
 68.036815564303
  30
0.0
  11
 64.380247533647
  21
 75.254753736483
  31
0.0
   0
LINE
   5
22B
 100
AcDbEntity
   8
0
 100
AcDbLine
   6
CONTINUOUS
  62
1
  10
 50.146361085971
  20
 68.036815564303
  30
0.0
  11
 64.380247533647
  21
 76.254753736483
  31
0.0
   0
LINE
   5
22C
 100
AcDbEntity
   8
0
 100
AcDbLine
   6
CONTINUOUS
  62
1
  10
 48.414310278402
  20
 68.036815564303
  30
0.0
  11
 64.380247533647
  21
 77.254753736483
  31
0.0
   0
LINE
   5
22D
 100
AcDbEntity
   8
0
 100
AcDbLine
   6
CONTINUOUS
  62
1
  10
 46.682259470833
  20
 68.036815564303
  30
0.0
  11
 64.380247533647
  21
 78.254753736483
  31
0.0
   0
LINE
   5
22E
 100
AcDbEntity
   8
0
 100
AcDbLine
   6
CONTINUOUS
  62
1
  10
 44.950208663264
  20
 68.036815564303
  30
0.0
  11
 64.380247533647
  21
 79.254753736483
  31
0.0
   0
LINE
   5
22F
 100
AcDbEntity
   8
0
 100
AcDbLine
   6
CONTINUOUS
  62
1
  10
 43.218157855696
  20
 68.036815564303
  30
0.0
  11
 62.880093621513
  21
 79.388639471486
  31
0.0
   0
LINE
   5
230
 100
AcDbEntity
   8
0
 100
AcDbLine
   6
CONTINUOUS
  62
1
  10
 41.486107048127
  20
 68.036815564303
  30
0.0
  11
 61.148042813944
  21
 79.388639471486
  31
0.0
   0
LINE
   5
231
 100
AcDbEntity
   8
0
 100
AcDbLine
   6
CONTINUOUS
  62
1
  10
 60.663249219207
  20
 79.388639471486
  30
0.0
  11
 64.380247533647
  21
 77.242629494067
  31
0.0
   0
LINE
   5
232
 100
AcDbEntity
   8
0
 100
AcDbLine
   6
CONTINUOUS
  62
1
  10
 62.395300026776
  20
 79.388639471486
  30
0.0
  11
 64.380247533647
  21
 78.242629494067
  31
0.0
   0
LINE
   5
233
 100
AcDbEntity
   8
0
 100
AcDbLine
   6
CONTINUOUS
  62
1
  10
 64.127350834345
  20
 79.388639471486
  30
0.0
  11
 64.380247533647
  21
 79.242629494067
  31
0.0
   0
LINE
   5
234
 100
AcDbEntity
   8
0
 100
AcDbLine
   6
CONTINUOUS
  62
1
  10
 58.931198411638
  20
 79.388639471486
  30
0.0
  11
 64.380247533647
  21
 76.242629494067
  31
0.0
   0
LINE
   5
235
 100
AcDbEntity
   8
0
 100
AcDbLine
   6
CONTINUOUS
  62
1
  10
 28.380247533647
  20
 79.027239184894
  30
0.0
  11
 47.416219641215
  21
 68.036815564303
  31
0.0
   0
LINE
   5
236
 100
AcDbEntity
   8
0
 100
AcDbLine
   6
CONTINUOUS
  62
1
  10
 29.486334682967
  20
 79.388639471486
  30
0.0
  11
 49.148270448784
  21
 68.036815564303
  31
0.0
   0
LINE
   5
237
 100
AcDbEntity
   8
0
 100
AcDbLine
   6
CONTINUOUS
  62
1
  10
 31.218385490536
  20
 79.388639471486
  30
0.0
  11
 50.880321256353
  21
 68.036815564303
  31
0.0
   0
LINE
   5
238
 100
AcDbEntity
   8
0
 100
AcDbLine
   6
CONTINUOUS
  62
1
  10
 32.950436298105
  20
 79.388639471486
  30
0.0
  11
 52.612372063922
  21
 68.036815564303
  31
0.0
   0
LINE
   5
239
 100
AcDbEntity
   8
0
 100
AcDbLine
   6
CONTINUOUS
  62
1
  10
 34.682487105674
  20
 79.388639471486
  30
0.0
  11
 54.344422871491
  21
 68.036815564303
  31
0.0
   0
LINE
   5
23A
 100
AcDbEntity
   8
0
 100
AcDbLine
   6
CONTINUOUS
  62
1
  10
 36.414537913243
  20
 79.388639471486
  30
0.0
  11
 56.076473679060
  21
 68.036815564303
  31
0.0
   0
LINE
   5
23B
 100
AcDbEntity
   8
0
 100
AcDbLine
   6
CONTINUOUS
  62
1
  10
 38.146588720812
  20
 79.388639471486
  30
0.0
  11
 57.808524486628
  21
 68.036815564303
  31
0.0
   0
LINE
   5
23C
 100
AcDbEntity
   8
0
 100
AcDbLine
   6
CONTINUOUS
  62
1
  10
 39.878639528380
  20
 79.388639471486
  30
0.0
  11
 59.540575294197
  21
 68.036815564303
  31
0.0
   0
LINE
   5
23D
 100
AcDbEntity
   8
0
 100
AcDbLine
   6
CONTINUOUS
  62
1
  10
 43.342741143518
  20
 79.388639471486
  30
0.0
  11
 63.004676909335
  21
 68.036815564303
  31
0.0
   0
LINE
   5
23E
 100
AcDbEntity
   8
0
 100
AcDbLine
   6
CONTINUOUS
  62
1
  10
 41.610690335949
  20
 79.388639471486
  30
0.0
  11
 61.272626101766
  21
 68.036815564303
  31
0.0
   0
LINE
   5
23F
 100
AcDbEntity
   8
0
 100
AcDbLine
   6
CONTINUOUS
  62
1
  10
 45.074791951087
  20
 79.388639471486
  30
0.0
  11
 64.380247533647
  21
 68.242629494067
  31
0.0
   0
LINE
   5
240
 100
AcDbEntity
   8
0
 100
AcDbLine
   6
CONTINUOUS
  62
1
  10
 46.806842758656
  20
 79.388639471486
  30
0.0
  11
 64.380247533647
  21
 69.242629494067
  31
0.0
   0
LINE
   5
241
 100
AcDbEntity
   8
0
 100
AcDbLine
   6
CONTINUOUS
  62
1
  10
 48.538893566225
  20
 79.388639471486
  30
0.0
  11
 64.380247533647
  21
 70.242629494067
  31
0.0
   0
LINE
   5
242
 100
AcDbEntity
   8
0
 100
AcDbLine
   6
CONTINUOUS
  62
1
  10
 50.270944373794
  20
 79.388639471486
  30
0.0
  11
 64.380247533647
  21
 71.242629494067
  31
0.0
   0
LINE
   5
243
 100
AcDbEntity
   8
0
 100
AcDbLine
   6
CONTINUOUS
  62
1
  10
 52.002995181363
  20
 79.388639471486
  30
0.0
  11
 64.380247533647
  21
 72.242629494067
  31
0.0
   0
LINE
   5
244
 100
AcDbEntity
   8
0
 100
AcDbLine
   6
CONTINUOUS
  62
1
  10
 53.735045988931
  20
 79.388639471486
  30
0.0
  11
 64.380247533647
  21
 73.242629494067
  31
0.0
   0
LINE
   5
245
 100
AcDbEntity
   8
0
 100
AcDbLine
   6
CONTINUOUS
  62
1
  10
 55.467096796500
  20
 79.388639471486
  30
0.0
  11
 64.380247533647
  21
 74.242629494067
  31
0.0
   0
LINE
   5
246
 100
AcDbEntity
   8
0
 100
AcDbLine
   6
CONTINUOUS
  62
1
  10
 57.199147604069
  20
 79.388639471486
  30
0.0
  11
 64.380247533647
  21
 75.242629494067
  31
0.0
   0
LINE
   5
247
 100
AcDbEntity
   8
0
 100
AcDbLine
   6
CONTINUOUS
  62
1
  10
 28.380247533647
  20
 78.027239184894
  30
0.0
  11
 45.684168833646
  21
 68.036815564303
  31
0.0
   0
LINE
   5
248
 100
AcDbEntity
   8
0
 100
AcDbLine
   6
CONTINUOUS
  62
1
  10
 28.380247533647
  20
 69.027239184894
  30
0.0
  11
 30.095711565526
  21
 68.036815564303
  31
0.0
   0
LINE
   5
249
 100
AcDbEntity
   8
0
 100
AcDbLine
   6
CONTINUOUS
  62
1
  10
 28.380247533647
  20
 70.027239184894
  30
0.0
  11
 31.827762373095
  21
 68.036815564303
  31
0.0
   0
LINE
   5
24A
 100
AcDbEntity
   8
0
 100
AcDbLine
   6
CONTINUOUS
  62
1
  10
 28.380247533647
  20
 71.027239184894
  30
0.0
  11
 33.559813180664
  21
 68.036815564303
  31
0.0
   0
LINE
   5
24B
 100
AcDbEntity
   8
0
 100
AcDbLine
   6
CONTINUOUS
  62
1
  10
 28.380247533647
  20
 72.027239184894
  30
0.0
  11
 35.291863988233
  21
 68.036815564303
  31
0.0
   0
LINE
   5
24C
 100
AcDbEntity
   8
0
 100
AcDbLine
   6
CONTINUOUS
  62
1
  10
 28.380247533647
  20
 73.027239184894
  30
0.0
  11
 37.023914795802
  21
 68.036815564303
  31
0.0
   0
LINE
   5
24D
 100
AcDbEntity
   8
0
 100
AcDbLine
   6
CONTINUOUS
  62
1
  10
 28.380247533647
  20
 74.027239184894
  30
0.0
  11
 38.755965603371
  21
 68.036815564303
  31
0.0
   0
LINE
   5
24E
 100
AcDbEntity
   8
0
 100
AcDbLine
   6
CONTINUOUS
  62
1
  10
 28.380247533647
  20
 75.027239184894
  30
0.0
  11
 40.488016410940
  21
 68.036815564303
  31
0.0
   0
LINE
   5
24F
 100
AcDbEntity
   8
0
 100
AcDbLine
   6
CONTINUOUS
  62
1
  10
 28.380247533647
  20
 76.027239184894
  30
0.0
  11
 42.220067218509
  21
 68.036815564303
  31
0.0
   0
LINE
   5
250
 100
AcDbEntity
   8
0
 100
AcDbLine
   6
CONTINUOUS
  62
1
  10
 28.380247533647
  20
 77.027239184894
  30
0.0
  11
 43.952118026077
  21
 68.036815564303
  31
0.0
   0
ENDBLK
   5
251
 100
AcDbEntity
   8
0
 100
AcDbBlockEnd
   0
BLOCK
   5
252
 100
AcDbEntity
   8
0
 100
AcDbBlockBegin
   2
*D16
  70
65
  10
0.0
  20
0.0
  30
0.0
   3
*D16
   0
LINE
   5
253
 100
AcDbEntity
   8
0
 100
AcDbLine
   6
CONTINUOUS
  62
6
  10
 28.380247533647
  20
 121.74046337867
  30
0.0
  11
 28.380247533647
  21
 126.48377385392
  31
0.0
   0
LINE
   5
254
 100
AcDbEntity
   8
0
 100
AcDbLine
   6
CONTINUOUS
  62
6
  10
 64.380247533647
  20
 121.74046337867
  30
0.0
  11
 64.380247533647
  21
 126.48377385392
  31
0.0
   0
LINE
   5
255
 100
AcDbEntity
   8
0
 100
AcDbLine
   6
CONTINUOUS
  62
6
  10
 28.380247533647
  20
 125.48377385392
  30
0.0
  11
 46.380247533647
  21
 125.48377385392
  31
0.0
   0
LINE
   5
256
 100
AcDbEntity
   8
0
 100
AcDbLine
   6
CONTINUOUS
  62
6
  10
 64.380247533647
  20
 125.48377385392
  30
0.0
  11
 46.380247533647
  21
 125.48377385392
  31
0.0
   0
INSERT
   5
257
 100
AcDbEntity
   8
0
   6
CONTINUOUS
  62
6
 100
AcDbBlockReference
   2
_OPEN30
  10
 28.380247533647
  20
 125.48377385392
  30
0.0
  41
 2.0000000000000
  42
 2.0000000000000
  43
 2.0000000000000
  50
 180.00000000000
   0
INSERT
   5
258
 100
AcDbEntity
   8
0
   6
CONTINUOUS
  62
6
 100
AcDbBlockReference
   2
_OPEN30
  10
 64.380247533647
  20
 125.48377385392
  30
0.0
  41
 2.0000000000000
  42
 2.0000000000000
  43
 2.0000000000000
  50
0.0
   0
MTEXT
   5
259
 100
AcDbEntity
   8
0
  62
6
 100
AcDbMText
  10
 46.380247533647
  20
 127.19805956821
  30
0.0
  40
 4.0000000000000
  41
0.0
  71
8
  72
1
   1
\A1;36
   7
GMM001
   0
ENDBLK
   5
25A
 100
AcDbEntity
   8
0
 100
AcDbBlockEnd
   0
BLOCK
   5
25B
 100
AcDbEntity
   8
0
 100
AcDbBlockBegin
   2
*D17
  70
65
  10
0.0
  20
0.0
  30
0.0
   3
*D17
   0
LINE
   5
25C
 100
AcDbEntity
   8
0
 100
AcDbLine
   6
CONTINUOUS
  62
6
  10
 325.44582279502
  20
 182.88863947149
  30
0.0
  11
 325.44582279502
  21
 198.47591983088
  31
0.0
   0
LINE
   5
25D
 100
AcDbEntity
   8
0
 100
AcDbLine
   6
CONTINUOUS
  62
6
  10
 327.23724180942
  20
 181.51863947149
  30
0.0
  11
 327.23724180942
  21
 198.47591983088
  31
0.0
   0
LINE
   5
25E
 100
AcDbEntity
   8
0
 100
AcDbLine
   6
CONTINUOUS
  62
6
  10
 322.94582279502
  20
 197.47591983088
  30
0.0
  11
 326.34153230222
  21
 197.47591983088
  31
0.0
   0
LINE
   5
25F
 100
AcDbEntity
   8
0
 100
AcDbLine
   6
CONTINUOUS
  62
6
  10
 338.43567846417
  20
 197.47591983088
  30
0.0
  11
 326.34153230222
  21
 197.47591983088
  31
0.0
   0
INSERT
   5
260
 100
AcDbEntity
   8
0
   6
CONTINUOUS
  62
6
 100
AcDbBlockReference
   2
_OPEN30
  10
 325.44582279502
  20
 197.47591983088
  30
0.0
  41
 2.0000000000000
  42
 2.0000000000000
  43
 2.0000000000000
  50
0.0
   0
INSERT
   5
261
 100
AcDbEntity
   8
0
   6
CONTINUOUS
  62
6
 100
AcDbBlockReference
   2
_OPEN30
  10
 327.23724180942
  20
 197.47591983088
  30
0.0
  41
 2.0000000000000
  42
 2.0000000000000
  43
 2.0000000000000
  50
 180.00000000000
   0
MTEXT
   5
262
 100
AcDbEntity
   8
0
  62
6
 100
AcDbMText
  10
 334.68567846417
  20
 199.09087047181
  30
0.0
  40
 4.0000000000000
  41
0.0
  71
8
  72
1
   1
\A1;1.8
   7
GMM001
   0
ENDBLK
   5
263
 100
AcDbEntity
   8
0
 100
AcDbBlockEnd
   0
ENDSEC
   0
SECTION
   2
ENTITIES
   0
LWPOLYLINE
   5
264
 100
AcDbEntity
   8
0
   6
CONTINUOUS
  62
3
 100
AcDbPolyline
  90
4
  70
1
  10
 15.000000000000
  20
 10.623482664101
  10
 15.000000000000
  20
 277.50000000000
  10
 403.00000000000
  20
 277.50000000000
  10
 403.00000000000
  20
 10.623482664101
   0
LINE
   5
265
 100
AcDbEntity
   8
0
 100
AcDbLine
   6
CONTINUOUS
  62
3
  10
 393.00000000000
  20
 20.623482664101
  30
0.0
  11
 403.00000000000
  21
 20.623482664101
  31
0.0
   0
TEXT
   5
266
 100
AcDbEntity
   8
0
  62
3
 100
AcDbText
  10
 393.91826757962
  20
 21.638868601321
  30
0.0
  40
 2.5000000000000
   1
ＲＥＶ.
   7
STANDARD
  72
1
  11
 398.29326757962
  21
 22.888868601321
  31
0.0
 100
AcDbText
  73
2
   0
LINE
   5
267
 100
AcDbEntity
   8
0
 100
AcDbLine
   6
CONTINUOUS
  62
3
  10
 393.00000000000
  20
 15.623482664101
  30
0.0
  11
 403.00000000000
  21
 15.623482664101
  31
0.0
   0
LINE
   5
268
 100
AcDbEntity
   8
0
 100
AcDbLine
   6
CONTINUOUS
  62
3
  10
 398.00000000000
  20
 20.623482664101
  30
0.0
  11
 398.00000000000
  21
 10.623482664101
  31
0.0
   0
LINE
   5
269
 100
AcDbEntity
   8
0
 100
AcDbLine
   6
CONTINUOUS
  62
3
  10
 342.00000000000
  20
 10.623482664101
  30
0.0
  11
 342.00000000000
  21
 25.623482664101
  31
0.0
   0
TEXT
   5
26A
 100
AcDbEntity
   8
0
  62
3
 100
AcDbText
  10
 342.91273375713
  20
 22.387068135946
  30
0.0
  40
 2.5000000000000
   1
ＫＵＲＩＫＩ　ＷＯＲＫＳ　ＤＷＧ．ＮＯ．
  41
 0.80000000000000
   7
STANDARD
 100
AcDbText
   0
LINE
   5
26B
 100
AcDbEntity
   8
0
 100
AcDbLine
   6
CONTINUOUS
  62
3
  10
 296.69695514066
  20
 25.623482664101
  30
0.0
  11
 296.69695514066
  21
 10.623482664101
  31
0.0
   0
LINE
   5
26C
 100
AcDbEntity
   8
0
 100
AcDbLine
   6
CONTINUOUS
  62
3
  10
 280.41198317335
  20
 25.623482664101
  30
0.0
  11
 280.41198317335
  21
 10.623482664101
  31
0.0
   0
TEXT
   5
26D
 100
AcDbEntity
   8
0
  62
3
 100
AcDbText
  10
 281.18991800322
  20
 22.471829596328
  30
0.0
  40
 2.5000000000000
   1
ＰＲＯＪＥＣＴＩＯＮ
  41
 0.76000000000000
   7
STANDARD
  72
1
  11
 288.43991800322
  21
 23.721829596328
  31
0.0
 100
AcDbText
  73
2
   0
LWPOLYLINE
   5
26E
 100
AcDbEntity
   8
0
   6
CONTINUOUS
  62
3
 100
AcDbPolyline
  90
4
  70
1
  10
 288.41014305184
  20
 16.991901306721
  10
 288.41014305184
  20
 14.001302906600
  10
 294.43848405007
  20
 13.203904941814
  10
 294.43848405007
  20
 17.789299271507
   0
CIRCLE
   5
26F
 100
AcDbEntity
   8
0
 100
AcDbCircle
   6
CONTINUOUS
  62
3
  10
 284.85876904087
  20
 15.496602106661
  30
0.0
  40
 1.4952992000607
   0
CIRCLE
   5
270
 100
AcDbEntity
   8
0
 100
AcDbCircle
   6
CONTINUOUS
  62
3
  10
 284.85876904087
  20
 15.496602106661
  30
0.0
  40
 2.2926971648466
   0
LINE
   5
271
 100
AcDbEntity
   8
0
 100
AcDbLine
   6
DASHDOT
  62
3
  10
 284.85876904087
  20
 18.276819797895
  30
0.0
  11
 284.85876904087
  21
 12.739086639187
  31
0.0
   0
LINE
   5
272
 100
AcDbEntity
   8
0
 100
AcDbLine
   6
DASHDOT
  62
3
  10
 282.06714872566
  20
 15.496602106661
  30
0.0
  11
 295.11171244742
  21
 15.496602106661
  31
0.0
   0
LINE
   5
273
 100
AcDbEntity
   8
0
 100
AcDbLine
   6
CONTINUOUS
  62
3
  10
 280.41198317335
  20
 25.623482664101
  30
0.0
  11
 280.41198317335
  21
 40.623482664101
  31
0.0
   0
LINE
   5
274
 100
AcDbEntity
   8
0
 100
AcDbLine
   6
CONTINUOUS
  62
3
  10
 393.00000000000
  20
 40.623482664101
  30
0.0
  11
 393.00000000000
  21
 10.623482664101
  31
0.0
   0
TEXT
   5
275
 100
AcDbEntity
   8
0
  62
3
 100
AcDbText
  10
 281.72327826531
  20
 37.573442796790
  30
0.0
  40
 2.5000000000000
   1
ＴＩＴＬＥ
  41
 0.76000000000000
   7
STANDARD
 100
AcDbText
   0
LINE
   5
276
 100
AcDbEntity
   8
0
 100
AcDbLine
   6
CONTINUOUS
  62
3
  10
 342.00000000000
  20
 40.623482664101
  30
0.0
  11
 342.00000000000
  21
 25.623482664101
  31
0.0
   0
LINE
   5
277
 100
AcDbEntity
   8
0
 100
AcDbLine
   6
CONTINUOUS
  62
3
  10
 342.00000000000
  20
 33.123482664101
  30
0.0
  11
 392.82654662566
  21
 33.123482664101
  31
0.0
   0
TEXT
   5
278
 100
AcDbEntity
   8
0
  62
3
 100
AcDbText
  10
 393.45881737529
  20
 37.196652667621
  30
0.0
  40
 2.5000000000000
   1
ＳＣＡＬＥ
  41
 0.88000000000000
   7
STANDARD
  72
1
  11
 398.05881737529
  21
 38.446652667621
  31
0.0
 100
AcDbText
  73
2
   0
TEXT
   5
279
 100
AcDbEntity
   8
0
  62
3
 100
AcDbText
  10
 342.59989527462
  20
 37.573442796790
  30
0.0
  40
 2.5000000000000
   1
ＰＴ.ＮＯ
  41
 0.76000000000000
   7
STANDARD
 100
AcDbText
   0
TEXT
   5
27A
 100
AcDbEntity
   8
0
  62
3
 100
AcDbText
  10
 342.59989527462
  20
 29.763824210947
  30
0.0
  40
 2.5000000000000
   1
ＰＴ.ＮＡＭＥ
  41
 0.76000000000000
   7
STANDARD
 100
AcDbText
   0
LINE
   5
27B
 100
AcDbEntity
   8
0
 100
AcDbLine
   6
CONTINUOUS
  62
3
  10
 400.58032447968
  20
 34.847167115437
  30
0.0
  11
 395.37930700766
  21
 27.832461499328
  31
0.0
   0
LINE
   5
27C
 100
AcDbEntity
   8
0
 100
AcDbLine
   6
CONTINUOUS
  62
3
  10
 280.41198317335
  20
 25.623482664101
  30
0.0
  11
 403.00000000000
  21
 25.623482664101
  31
0.0
   0
TEXT
   5
27D
 100
AcDbEntity
   8
0
  62
3
 100
AcDbText
  10
 266.61640595996
  20
 29.107349206730
  30
0.0
  40
 3.0000000000000
   1
ＤＷＮ．
   7
STANDARD
  72
1
  11
 272.61640595996
  21
 30.607349206730
  31
0.0
 100
AcDbText
  73
2
   0
LINE
   5
27E
 100
AcDbEntity
   8
0
 100
AcDbLine
   6
CONTINUOUS
  62
3
  10
 263.07864984001
  20
 32.623482664101
  30
0.0
  11
 263.07864984001
  21
 10.623482664101
  31
0.0
   0
LINE
   5
27F
 100
AcDbEntity
   8
0
 100
AcDbLine
   6
CONTINUOUS
  62
3
  10
 280.41198317335
  20
 32.623482664101
  30
0.0
  11
 228.41198317335
  21
 32.623482664101
  31
0.0
   0
LINE
   5
280
 100
AcDbEntity
   8
0
 100
AcDbLine
   6
CONTINUOUS
  62
3
  10
 245.74531650668
  20
 32.623482664101
  30
0.0
  11
 245.74531650668
  21
 10.623482664101
  31
0.0
   0
TEXT
   5
281
 100
AcDbEntity
   8
0
  62
3
 100
AcDbText
  10
 247.53332187543
  20
 29.107349206730
  30
0.0
  40
 3.0000000000000
   1
ＣＨＫＤ．
   7
STANDARD
  72
1
  11
 255.03332187543
  21
 30.607349206730
  31
0.0
 100
AcDbText
  73
2
   0
TEXT
   5
282
 100
AcDbEntity
   8
0
  62
3
 100
AcDbText
  10
 230.47773031344
  20
 29.107349206730
  30
0.0
  40
 3.0000000000000
   1
ＡＰＰＤ．
   7
STANDARD
  72
1
  11
 237.97773031344
  21
 30.607349206730
  31
0.0
 100
AcDbText
  73
2
   0
TEXT
   5
283
 100
AcDbEntity
   8
0
  62
3
 100
AcDbText
  10
 229.44990547429
  20
 37.426836655555
  30
0.0
  40
 2.5000000000000
   1
ＤＡＴＥ　
   7
STANDARD
  72
1
  11
 235.69990547429
  21
 38.676836655555
  31
0.0
 100
AcDbText
  73
2
   0
LINE
   5
284
 100
AcDbEntity
   8
0
 100
AcDbLine
   6
CONTINUOUS
  62
8
  10
 311.87601195884
  20
 23.726906399220
  30
0.0
  11
 308.57933271356
  21
 18.501906399220
  31
0.0
   0
LINE
   5
285
 100
AcDbEntity
   8
0
 100
AcDbLine
   6
CONTINUOUS
  62
8
  10
 309.78601195884
  20
 12.649906399220
  30
0.0
  11
 309.12823567852
  21
 15.839906399220
  31
0.0
   0
LINE
   5
286
 100
AcDbEntity
   8
0
 100
AcDbLine
   6
CONTINUOUS
  62
8
  10
 309.05565346828
  20
 16.191906399220
  30
0.0
  11
 308.57933271356
  21
 18.501906399220
  31
0.0
   0
LINE
   5
287
 100
AcDbEntity
   8
0
 100
AcDbLine
   6
CONTINUOUS
  62
8
  10
 309.36801195884
  20
 23.726906399220
  30
0.0
  11
 308.23065346828
  21
 16.191906399220
  31
0.0
   0
LINE
   5
288
 100
AcDbEntity
   8
0
 100
AcDbLine
   6
CONTINUOUS
  62
8
  10
 308.17752139281
  20
 15.839906399220
  30
0.0
  11
 307.69601195884
  21
 12.649906399220
  31
0.0
   0
LINE
   5
289
 100
AcDbEntity
   8
0
 100
AcDbLine
   6
CONTINUOUS
  62
8
  10
 306.02401195884
  20
 23.726906399220
  30
0.0
  11
 304.88665346828
  21
 16.191906399220
  31
0.0
   0
LINE
   5
28A
 100
AcDbEntity
   8
0
 100
AcDbLine
   6
CONTINUOUS
  62
8
  10
 304.83352139281
  20
 15.839906399220
  30
0.0
  11
 304.35201195884
  21
 12.649906399220
  31
0.0
   0
LWPOLYLINE
   5
28B
 100
AcDbEntity
   8
0
   6
CONTINUOUS
  62
8
 100
AcDbPolyline
  90
4
  70
0
  10
 304.88665346828
  20
 16.191906399220
  10
 303.25201195884
  20
 16.191906399220
  10
 303.25201195884
  20
 15.839906399220
  10
 304.83352139281
  20
 15.839906399220
   0
LINE
   5
28C
 100
AcDbEntity
   8
0
 100
AcDbLine
   6
CONTINUOUS
  62
8
  10
 309.05565346828
  20
 16.191906399220
  30
0.0
  11
 308.23065346828
  21
 16.191906399220
  31
0.0
   0
LINE
   5
28D
 100
AcDbEntity
   8
0
 100
AcDbLine
   6
CONTINUOUS
  62
8
  10
 308.17752139281
  20
 15.839906399220
  30
0.0
  11
 309.12823567852
  21
 15.839906399220
  31
0.0
   0
INSERT
   5
28E
 100
AcDbEntity
   8
0
 100
AcDbBlockReference
   2
BLOCK001
  10
0.0
  20
0.0
  30
0.0
   0
TEXT
   5
28F
 100
AcDbEntity
   8
0
  62
8
 100
AcDbText
  10
 314.65688628864
  20
 13.271725595648
  30
0.0
  40
 2.2550000000000
   1
Kuriki Manufacture Co.,Ltd
  41
 0.35365853658537
  51
 10.000000000000
   7
STANDARD
 100
AcDbText
   0
LINE
   5
290
 100
AcDbEntity
   8
0
 100
AcDbLine
   6
CONTINUOUS
  62
8
  10
 315.22001195884
  20
 23.726906399220
  30
0.0
  11
 311.92333271356
  21
 18.501906399220
  31
0.0
   0
LINE
   5
291
 100
AcDbEntity
   8
0
 100
AcDbLine
   6
CONTINUOUS
  62
8
  10
 334.17413629757
  20
 22.021906399220
  30
0.0
  11
 332.41413629757
  21
 22.021906399220
  31
0.0
   0
LINE
   5
292
 100
AcDbEntity
   8
0
 100
AcDbLine
   6
CONTINUOUS
  62
8
  10
 334.17413629757
  20
 22.021906399220
  30
0.0
  11
 333.29413629757
  21
 16.191906399220
  31
0.0
   0
LINE
   5
293
 100
AcDbEntity
   8
0
 100
AcDbLine
   6
CONTINUOUS
  62
8
  10
 332.41413629757
  20
 22.021906399220
  30
0.0
  11
 331.53413629757
  21
 16.191906399220
  31
0.0
   0
LINE
   5
294
 100
AcDbEntity
   8
0
 100
AcDbLine
   6
CONTINUOUS
  62
8
  10
 333.29413629757
  20
 16.191906399220
  30
0.0
  11
 331.53413629757
  21
 16.191906399220
  31
0.0
   0
LINE
   5
295
 100
AcDbEntity
   8
0
 100
AcDbLine
   6
CONTINUOUS
  62
8
  10
 329.00413629757
  20
 22.021906399220
  30
0.0
  11
 327.24413629757
  21
 22.021906399220
  31
0.0
   0
LINE
   5
296
 100
AcDbEntity
   8
0
 100
AcDbLine
   6
CONTINUOUS
  62
8
  10
 329.00413629757
  20
 22.021906399220
  30
0.0
  11
 328.12413629757
  21
 16.191906399220
  31
0.0
   0
LINE
   5
297
 100
AcDbEntity
   8
0
 100
AcDbLine
   6
CONTINUOUS
  62
8
  10
 327.24413629757
  20
 22.021906399220
  30
0.0
  11
 326.36413629757
  21
 16.191906399220
  31
0.0
   0
LINE
   5
298
 100
AcDbEntity
   8
0
 100
AcDbLine
   6
CONTINUOUS
  62
8
  10
 328.12413629757
  20
 16.191906399220
  30
0.0
  11
 326.36413629757
  21
 16.191906399220
  31
0.0
   0
LINE
   5
299
 100
AcDbEntity
   8
0
 100
AcDbLine
   6
CONTINUOUS
  62
8
  10
 326.58413629757
  20
 22.021906399220
  30
0.0
  11
 324.82413629757
  21
 22.021906399220
  31
0.0
   0
LINE
   5
29A
 100
AcDbEntity
   8
0
 100
AcDbLine
   6
CONTINUOUS
  62
8
  10
 326.58413629757
  20
 22.021906399220
  30
0.0
  11
 325.70413629757
  21
 16.191906399220
  31
0.0
   0
LINE
   5
29B
 100
AcDbEntity
   8
0
 100
AcDbLine
   6
CONTINUOUS
  62
8
  10
 324.82413629757
  20
 22.021906399220
  30
0.0
  11
 323.94413629757
  21
 16.191906399220
  31
0.0
   0
LINE
   5
29C
 100
AcDbEntity
   8
0
 100
AcDbLine
   6
CONTINUOUS
  62
8
  10
 325.70413629757
  20
 16.191906399220
  30
0.0
  11
 323.94413629757
  21
 16.191906399220
  31
0.0
   0
LINE
   5
29D
 100
AcDbEntity
   8
0
 100
AcDbLine
   6
CONTINUOUS
  62
8
  10
 332.08413629757
  20
 22.021906399220
  30
0.0
  11
 330.32413629757
  21
 22.021906399220
  31
0.0
   0
LINE
   5
29E
 100
AcDbEntity
   8
0
 100
AcDbLine
   6
CONTINUOUS
  62
8
  10
 330.32413629757
  20
 22.021906399220
  30
0.0
  11
 328.58904195795
  21
 19.271906399220
  31
0.0
   0
LINE
   5
29F
 100
AcDbEntity
   8
0
 100
AcDbLine
   6
CONTINUOUS
  62
8
  10
 329.22413629757
  20
 16.191906399220
  30
0.0
  11
 331.20413629757
  21
 16.191906399220
  31
0.0
   0
LINE
   5
2A0
 100
AcDbEntity
   8
0
 100
AcDbLine
   6
CONTINUOUS
  62
8
  10
 329.22413629757
  20
 16.191906399220
  30
0.0
  11
 328.58904195795
  21
 19.271906399220
  31
0.0
   0
LINE
   5
2A1
 100
AcDbEntity
   8
0
 100
AcDbLine
   6
CONTINUOUS
  62
8
  10
 332.08413629757
  20
 22.021906399220
  30
0.0
  11
 330.34904195795
  21
 19.271906399220
  31
0.0
   0
LINE
   5
2A2
 100
AcDbEntity
   8
0
 100
AcDbLine
   6
CONTINUOUS
  62
8
  10
 330.34904195795
  20
 19.271906399220
  30
0.0
  11
 331.20413629757
  21
 16.191906399220
  31
0.0
   0
LINE
   5
2A3
 100
AcDbEntity
   8
0
 100
AcDbLine
   6
CONTINUOUS
  62
8
  10
 321.63413629757
  20
 16.191906399220
  30
0.0
  11
 323.61413629757
  21
 16.191906399220
  31
0.0
   0
LINE
   5
2A4
 100
AcDbEntity
   8
0
 100
AcDbLine
   6
CONTINUOUS
  62
8
  10
 319.87413629757
  20
 22.021906399220
  30
0.0
  11
 318.99413629757
  21
 16.191906399220
  31
0.0
   0
LINE
   5
2A5
 100
AcDbEntity
   8
0
 100
AcDbLine
   6
CONTINUOUS
  62
8
  10
 320.75413629757
  20
 16.191906399220
  30
0.0
  11
 318.99413629757
  21
 16.191906399220
  31
0.0
   0
LINE
   5
2A6
 100
AcDbEntity
   8
0
 100
AcDbLine
   6
CONTINUOUS
  62
8
  10
 321.63413629757
  20
 16.191906399220
  30
0.0
  11
 321.27122524636
  21
 17.951906399220
  31
0.0
   0
LINE
   5
2A7
 100
AcDbEntity
   8
0
 100
AcDbLine
   6
CONTINUOUS
  62
8
  10
 322.97281554286
  20
 18.501906399220
  30
0.0
  11
 323.61413629757
  21
 16.191906399220
  31
0.0
   0
LINE
   5
2A8
 100
AcDbEntity
   8
0
 100
AcDbLine
   6
CONTINUOUS
  62
8
  10
 321.38577335329
  20
 20.376501893337
  30
0.0
  11
 320.75413629757
  21
 16.191906399220
  31
0.0
   0
LINE
   5
2A9
 100
AcDbEntity
   8
0
 100
AcDbLine
   6
CONTINUOUS
  62
8
  10
 321.27122524636
  20
 17.951906399220
  30
0.0
  11
 321.52571239946
  21
 19.602383443274
  31
0.0
   0
LINE
   5
2AA
 100
AcDbEntity
   8
0
 100
AcDbLine
   6
CONTINUOUS
  62
8
  10
 319.21413629757
  20
 22.021906399220
  30
0.0
  11
 317.45413629757
  21
 22.021906399220
  31
0.0
   0
LINE
   5
2AB
 100
AcDbEntity
   8
0
 100
AcDbLine
   6
CONTINUOUS
  62
8
  10
 316.90413629757
  20
 22.021906399220
  30
0.0
  11
 315.14413629757
  21
 22.021906399220
  31
0.0
   0
LINE
   5
2AC
 100
AcDbEntity
   8
0
 100
AcDbLine
   6
CONTINUOUS
  62
8
  10
 317.45413629757
  20
 22.021906399220
  30
0.0
  11
 316.87713633427
  21
 18.199281642342
  31
0.0
   0
LINE
   5
2AD
 100
AcDbEntity
   8
0
 100
AcDbLine
   6
CONTINUOUS
  62
8
  10
 316.90413629757
  20
 22.021906399220
  30
0.0
  11
 316.32651949334
  21
 18.195195071210
  31
0.0
   0
LINE
   5
2AE
 100
AcDbEntity
   8
0
 100
AcDbLine
   6
CONTINUOUS
  62
8
  10
 315.14413629757
  20
 22.021906399220
  30
0.0
  11
 314.56745987001
  21
 18.201425066603
  31
0.0
   0
LINE
   5
2AF
 100
AcDbEntity
   8
0
 100
AcDbLine
   6
CONTINUOUS
  62
8
  10
 319.21413629757
  20
 22.021906399220
  30
0.0
  11
 318.64759428831
  21
 18.268565587884
  31
0.0
   0
ARC
   5
2B0
 100
AcDbEntity
   8
0
   6
CONTINUOUS
  62
8
 100
AcDbCircle
  10
 322.25149215145
  20
 20.281654931699
  30
0.0
  40
 1.7402514675212
 100
AcDbArc
  50
 351.41637851989
  51
 89.999999999978
   0
LINE
   5
2B1
 100
AcDbEntity
   8
0
 100
AcDbLine
   6
CONTINUOUS
  62
8
  10
 322.25149215145
  20
 22.021906399220
  30
0.0
  11
 319.87413629757
  21
 22.021906399220
  31
0.0
   0
LINE
   5
2B2
 100
AcDbEntity
   8
0
 100
AcDbLine
   6
CONTINUOUS
  62
8
  10
 321.38507969380
  20
 20.371906399220
  30
0.0
  11
 321.82304781223
  21
 20.371906399220
  31
0.0
   0
ARC
   5
2B3
 100
AcDbEntity
   8
0
   6
CONTINUOUS
  62
8
 100
AcDbCircle
  10
 316.32557002286
  20
 17.958957507865
  30
0.0
  40
 1.7747512013310
 100
AcDbArc
  50
 172.14765871033
  51
 264.66082673530
   0
ARC
   5
2B4
 100
AcDbEntity
   8
0
   6
CONTINUOUS
  62
8
 100
AcDbCircle
  10
 316.21330743135
  20
 18.656314041926
  30
0.0
  40
 2.4649749219048
 100
AcDbArc
  50
 268.77075588816
  51
 350.94960092961
   0
ARC
   5
2B5
 100
AcDbEntity
   8
0
   6
CONTINUOUS
  62
8
 100
AcDbCircle
  10
 316.53858367491
  20
 18.165952445969
  30
0.0
  40
 0.21407089533906
 100
AcDbArc
  50
 170.68405351440
  51
 269.12700070201
   0
ARC
   5
2B6
 100
AcDbEntity
   8
0
   6
CONTINUOUS
  62
8
 100
AcDbCircle
  10
 316.57207126624
  20
 18.260968657993
  30
0.0
  40
 0.31123943135484
 100
AcDbArc
  50
 263.21905471517
  51
 348.56840050093
   0
ARC
   5
2B7
 100
AcDbEntity
   8
0
   6
CONTINUOUS
  62
8
 100
AcDbCircle
  10
 321.98449352605
  20
 20.240325896159
  30
0.0
  40
 1.9997206695528
 100
AcDbArc
  50
 299.61899079217
  51
 353.72968381427
   0
ARC
   5
2B8
 100
AcDbEntity
   8
0
   6
CONTINUOUS
  62
8
 100
AcDbCircle
  10
 321.82304781223
  20
 19.989374860182
  30
0.0
  40
 0.38253153903777
 100
AcDbArc
  50
0.0
  51
 90.000000000417
   0
ARC
   5
2B9
 100
AcDbEntity
   8
0
   6
CONTINUOUS
  62
8
 100
AcDbCircle
  10
 321.74321300411
  20
 20.071334648260
  30
0.0
  40
 0.46957432409482
 100
AcDbArc
  50
 272.95201820138
  51
 349.94807454513
   0
LINE
   5
2BA
 100
AcDbEntity
   8
0
 100
AcDbLine
   6
CONTINUOUS
  62
8
  10
 321.76739591525
  20
 19.602383443274
  30
0.0
  11
 321.52571239946
  21
 19.602383443274
  31
0.0
   0
LINE
   5
2BB
 100
AcDbEntity
   8
0
 100
AcDbLine
   6
CONTINUOUS
  62
8
  10
 311.92333271356
  20
 18.501906399220
  30
0.0
  11
 312.56465346828
  21
 16.191906399220
  31
0.0
   0
LINE
   5
2BC
 100
AcDbEntity
   8
0
 100
AcDbLine
   6
CONTINUOUS
  62
8
  10
 312.66237853566
  20
 15.839906399220
  30
0.0
  11
 313.54801195884
  21
 12.649906399220
  31
0.0
   0
LWPOLYLINE
   5
2BD
 100
AcDbEntity
   8
0
   6
CONTINUOUS
  62
8
 100
AcDbPolyline
  90
4
  70
0
  10
 312.66237853566
  20
 15.839906399220
  10
 335.37201195884
  20
 15.839906399220
  10
 335.37201195884
  20
 16.191906399220
  10
 312.56465346828
  20
 16.191906399220
   0
LINE
   5
2BE
 100
AcDbEntity
   8
0
 100
AcDbLine
   6
CONTINUOUS
  62
8
  10
 309.36801195884
  20
 23.726906399220
  30
0.0
  11
 306.02401195884
  21
 23.726906399220
  31
0.0
   0
LINE
   5
2BF
 100
AcDbEntity
   8
0
 100
AcDbLine
   6
CONTINUOUS
  62
8
  10
 315.22001195884
  20
 23.726906399220
  30
0.0
  11
 311.87601195884
  21
 23.726906399220
  31
0.0
   0
LINE
   5
2C0
 100
AcDbEntity
   8
0
 100
AcDbLine
   6
CONTINUOUS
  62
8
  10
 307.69601195884
  20
 12.649906399220
  30
0.0
  11
 304.35201195884
  21
 12.649906399220
  31
0.0
   0
LINE
   5
2C1
 100
AcDbEntity
   8
0
 100
AcDbLine
   6
CONTINUOUS
  62
8
  10
 309.78601195884
  20
 12.649906399220
  30
0.0
  11
 313.54801195884
  21
 12.649906399220
  31
0.0
   0
TEXT
   5
2C2
 100
AcDbEntity
   8
0
  62
6
 100
AcDbText
  10
 358.48785161961
  20
 34.639058861391
  30
0.0
  40
 4.0000000000000
   1
別表参照
   7
STANDARD
 100
AcDbText
   0
TEXT
   5
2C3
 100
AcDbEntity
   8
0
  62
6
 100
AcDbText
  10
 266.37675801974
  20
 34.547198251772
  30
0.0
  40
 3.8000000000000
   1
／
  41
 0.78947368421053
   7
STANDARD
 100
AcDbText
   0
TEXT
   5
2C4
 100
AcDbEntity
   8
0
  62
6
 100
AcDbText
  10
 254.08921373390
  20
 34.547198251772
  30
0.0
  40
 3.8000000000000
   1
／
  41
 0.78947368421053
   7
STANDARD
 100
AcDbText
   0
TEXT
   5
2C5
 100
AcDbEntity
   8
0
  62
6
 100
AcDbText
  10
 393.73996445112
  20
 31.166707948577
  30
0.0
  40
 4.0000000000000
   1
１ 　
   7
STANDARD
 100
AcDbText
   0
TEXT
   5
2C6
 100
AcDbEntity
   8
0
  62
6
 100
AcDbText
  10
 398.35511870750
  20
 27.158650445530
  30
0.0
  40
 4.0000000000000
   1
１ 　
   7
STANDARD
 100
AcDbText
   0
LINE
   5
2C7
 100
AcDbEntity
   8
0
 100
AcDbLine
   6
CONTINUOUS
  62
3
  10
 228.41198317335
  20
 40.623482664101
  30
0.0
  11
 403.00000000000
  21
 40.623482664101
  31
0.0
   0
LINE
   5
2C8
 100
AcDbEntity
   8
LAY-1
 100
AcDbLine
   6
DASHDOT
  62
2
  10
 371.94582279502
  20
 142.29766561247
  30
0.0
  11
 371.94582279502
  21
 185.79766561247
  31
0.0
   0
LINE
   5
2C9
 100
AcDbEntity
   8
LAY-1
 100
AcDbLine
   6
DASHDOT
  62
2
  10
 393.94582279502
  20
 164.38863947149
  30
0.0
  11
 349.34582279502
  21
 164.38863947149
  31
0.0
   0
LINE
   5
2CA
 100
AcDbEntity
   8
LAY-1
 100
AcDbLine
   6
DASHDOT
  62
2
  10
 190.53442821716
  20
 142.29766561247
  30
0.0
  11
 190.53442821716
  21
 185.79766561247
  31
0.0
   0
LINE
   5
2CB
 100
AcDbEntity
   8
LAY-1
 100
AcDbLine
   6
DASHDOT
  62
2
  10
 212.53442821716
  20
 164.38863947149
  30
0.0
  11
 167.93442821716
  21
 164.38863947149
  31
0.0
   0
TEXT
   5
2CC
 100
AcDbEntity
   8
0
  62
7
 100
AcDbText
  10
 278.64359649144
  20
 153.00241164359
  30
0.0
  40
 4.0000000000000
   1
入れ込む
   7
STANDARD
 100
AcDbText
   0
LINE
   5
2CD
 100
AcDbEntity
   8
0
 100
AcDbLine
   6
DASHDOT
  62
2
  10
 371.94582279502
  20
 121.85795376210
  30
0.0
  11
 371.94582279502
  21
 100.54850657936
  31
0.0
   0
LINE
   5
2CE
 100
AcDbEntity
   8
0
 100
AcDbLine
   6
CONTINUOUS
  62
2
  10
 277.01643636150
  20
 169.00744162500
  30
0.0
  11
 285.01643636150
  21
 164.38863947149
  31
0.0
   0
LINE
   5
2CF
 100
AcDbEntity
   8
0
 100
AcDbLine
   6
CONTINUOUS
  62
2
  10
 285.01643636150
  20
 164.38863947149
  30
0.0
  11
 277.01643636150
  21
 159.76983731797
  31
0.0
   0
LINE
   5
2D0
 100
AcDbEntity
   8
0
 100
AcDbLine
   6
CONTINUOUS
  62
2
  10
 277.01643636150
  20
 159.76983731797
  30
0.0
  11
 277.01643636150
  21
 161.88863947148
  31
0.0
   0
LINE
   5
2D1
 100
AcDbEntity
   8
0
 100
AcDbLine
   6
CONTINUOUS
  62
2
  10
 277.01643636150
  20
 169.00744162500
  30
0.0
  11
 277.01643636150
  21
 166.88863947148
  31
0.0
   0
LINE
   5
2D2
 100
AcDbEntity
   8
0
 100
AcDbLine
   6
CONTINUOUS
  62
2
  10
 274.01643636150
  20
 166.88863947148
  30
0.0
  11
 277.01643636150
  21
 166.88863947148
  31
0.0
   0
LINE
   5
2D3
 100
AcDbEntity
   8
0
 100
AcDbLine
   6
CONTINUOUS
  62
2
  10
 277.01643636150
  20
 161.88863947148
  30
0.0
  11
 274.01643636150
  21
 161.88863947148
  31
0.0
   0
LINE
   5
2D4
 100
AcDbEntity
   8
0
 100
AcDbLine
   6
CONTINUOUS
  62
2
  10
 294.98699815623
  20
 169.00744162500
  30
0.0
  11
 286.98699815623
  21
 164.38863947149
  31
0.0
   0
LINE
   5
2D5
 100
AcDbEntity
   8
0
 100
AcDbLine
   6
CONTINUOUS
  62
2
  10
 286.98699815623
  20
 164.38863947149
  30
0.0
  11
 294.98699815623
  21
 159.76983731797
  31
0.0
   0
LINE
   5
2D6
 100
AcDbEntity
   8
0
 100
AcDbLine
   6
CONTINUOUS
  62
2
  10
 294.98699815623
  20
 159.76983731797
  30
0.0
  11
 294.98699815623
  21
 161.88863947148
  31
0.0
   0
LINE
   5
2D7
 100
AcDbEntity
   8
0
 100
AcDbLine
   6
CONTINUOUS
  62
2
  10
 294.98699815623
  20
 169.00744162500
  30
0.0
  11
 294.98699815623
  21
 166.88863947148
  31
0.0
   0
LINE
   5
2D8
 100
AcDbEntity
   8
0
 100
AcDbLine
   6
CONTINUOUS
  62
2
  10
 297.98699815623
  20
 166.88863947148
  30
0.0
  11
 294.98699815623
  21
 166.88863947148
  31
0.0
   0
LINE
   5
2D9
 100
AcDbEntity
   8
0
 100
AcDbLine
   6
CONTINUOUS
  62
2
  10
 294.98699815623
  20
 161.88863947148
  30
0.0
  11
 297.98699815623
  21
 161.88863947148
  31
0.0
   0
CIRCLE
   5
2DA
 100
AcDbEntity
   8
0
 100
AcDbCircle
   6
DOT
  62
2
  10
 190.53442821716
  20
 164.38863947149
  30
0.0
  40
 8.8500000000000
   0
CIRCLE
   5
2DB
 100
AcDbEntity
   8
0
 100
AcDbCircle
   6
DOT
  62
2
  10
 190.53442821716
  20
 164.38863947149
  30
0.0
  40
 7.6000000000000
   0
CIRCLE
   5
2DC
 100
AcDbEntity
   8
0
 100
AcDbCircle
   6
DOT
  62
2
  10
 371.94582279502
  20
 164.38863947149
  30
0.0
  40
 10.800000000000
   0
CIRCLE
   5
2DD
 100
AcDbEntity
   8
0
 100
AcDbCircle
   6
DOT
  62
2
  10
 371.94582279502
  20
 164.38863947149
  30
0.0
  40
 11.799999999989
   0
CIRCLE
   5
2DE
 100
AcDbEntity
   8
0
 100
AcDbCircle
   6
CONTINUOUS
  62
7
  10
 190.53442821716
  20
 164.38863947143
  30
0.0
  40
 17.500000000000
   0
CIRCLE
   5
2DF
 100
AcDbEntity
   8
0
 100
AcDbCircle
   6
CONTINUOUS
  62
7
  10
 371.94582279502
  20
 164.38863947149
  30
0.0
  40
 17.500000000000
   0
LINE
   5
2E0
 100
AcDbEntity
   8
0
 100
AcDbLine
   6
CONTINUOUS
  62
7
  10
 354.44582279502
  20
 117.88863947149
  30
0.0
  11
 371.94582279502
  21
 117.88863947149
  31
0.0
   0
LINE
   5
2E1
 100
AcDbEntity
   8
0
 100
AcDbLine
   6
CONTINUOUS
  62
7
  10
 389.44582279502
  20
 117.88863947149
  30
0.0
  11
 371.94582279502
  21
 117.88863947149
  31
0.0
   0
LINE
   5
2E2
 100
AcDbEntity
   8
0
 100
AcDbLine
   6
DASHDOT
  62
2
  10
 329.41513708562
  20
 164.38863947149
  30
0.0
  11
 308.10568990289
  21
 164.38863947149
  31
0.0
   0
LINE
   5
2E3
 100
AcDbEntity
   8
0
 100
AcDbLine
   6
CONTINUOUS
  62
7
  10
 325.44582279502
  20
 181.88863947149
  30
0.0
  11
 325.44582279502
  21
 164.38863947149
  31
0.0
   0
LINE
   5
2E4
 100
AcDbEntity
   8
0
 100
AcDbLine
   6
CONTINUOUS
  62
7
  10
 325.44582279502
  20
 146.88863947149
  30
0.0
  11
 325.44582279502
  21
 164.38863947149
  31
0.0
   0
ARC
   5
2E5
 100
AcDbEntity
   8
0
   6
DOT
  62
2
 100
AcDbCircle
  10
 238.93442821716
  20
 157.78863947149
  30
0.0
  40
 1.0000000000000
 100
AcDbArc
  50
 179.99999999994
  51
 270.00000000000
   0
LINE
   5
2E6
 100
AcDbEntity
   8
0
 100
AcDbLine
   6
DOT
  62
2
  10
 237.93442821716
  20
 157.78863947149
  30
0.0
  11
 237.93442821716
  21
 164.38863947149
  31
0.0
   0
LINE
   5
2E7
 100
AcDbEntity
   8
0
 100
AcDbLine
   6
CONTINUOUS
  62
7
  10
 260.70942821716
  20
 153.58863947149
  30
0.0
  11
 261.45942821716
  21
 153.58863947149
  31
0.0
   0
ARC
   5
2E8
 100
AcDbEntity
   8
0
   6
CONTINUOUS
  62
7
 100
AcDbCircle
  10
 260.70942821716
  20
 154.56363947149
  30
0.0
  40
 0.97500000000000
 100
AcDbArc
  50
 180.00000000000
  51
 270.00000000024
   0
ARC
   5
2E9
 100
AcDbEntity
   8
0
   6
CONTINUOUS
  62
7
 100
AcDbCircle
  10
 261.45942821716
  20
 154.56363947148
  30
0.0
  40
 0.97500000000000
 100
AcDbArc
  50
 270.00000000000
  51
 0.15532850432058E-9
   0
ARC
   5
2EA
 100
AcDbEntity
   8
0
   6
DOT
  62
2
 100
AcDbCircle
  10
 238.93442821716
  20
 170.98863947149
  30
0.0
  40
 1.0000000000000
 100
AcDbArc
  50
 90.000000000000
  51
 179.99999999997
   0
LINE
   5
2EB
 100
AcDbEntity
   8
0
 100
AcDbLine
   6
DOT
  62
2
  10
 237.93442821716
  20
 170.98863947149
  30
0.0
  11
 237.93442821716
  21
 164.38863947149
  31
0.0
   0
LINE
   5
2EC
 100
AcDbEntity
   8
0
 100
AcDbLine
   6
CONTINUOUS
  62
7
  10
 260.70942821716
  20
 175.18863947149
  30
0.0
  11
 261.45942821716
  21
 175.18863947149
  31
0.0
   0
ARC
   5
2ED
 100
AcDbEntity
   8
0
   6
CONTINUOUS
  62
7
 100
AcDbCircle
  10
 260.70942821716
  20
 174.21363947149
  30
0.0
  40
 0.97500000000000
 100
AcDbArc
  50
 89.999999999699
  51
 180.00000000000
   0
ARC
   5
2EE
 100
AcDbEntity
   8
0
   6
CONTINUOUS
  62
7
 100
AcDbCircle
  10
 261.45942821716
  20
 174.21363947149
  30
0.0
  40
 0.97500000000000
 100
AcDbArc
  50
0.0
  51
 90.000000000000
   0
POINT
   5
2EF
 100
AcDbEntity
   8
0
 100
AcDbPoint
  62
7
  10
 259.73442821716
  20
 153.78863947149
  30
0.0
   0
POINT
   5
2F0
 100
AcDbEntity
   8
0
 100
AcDbPoint
  62
7
  10
 259.73442821716
  20
 174.98863947149
  30
0.0
   0
ARC
   5
2F1
 100
AcDbEntity
   8
0
   6
CONTINUOUS
  62
7
 100
AcDbCircle
  10
 262.93442821717
  20
 174.48863947149
  30
0.0
  40
 0.50000000000000
 100
AcDbArc
  50
0.0
  51
 90.000000000651
   0
POINT
   5
2F2
 100
AcDbEntity
   8
0
 100
AcDbPoint
  62
7
  10
 263.43442821716
  20
 174.98863947149
  30
0.0
   0
POINT
   5
2F3
 100
AcDbEntity
   8
0
 100
AcDbPoint
  62
7
  10
 262.43442821716
  20
 174.98863947149
  30
0.0
   0
LINE
   5
2F4
 100
AcDbEntity
   8
0
 100
AcDbLine
   6
DOT
  62
2
  10
 262.43442821716
  20
 156.78863947149
  30
0.0
  11
 238.93442821716
  21
 156.78863947149
  31
0.0
   0
ARC
   5
2F5
 100
AcDbEntity
   8
0
   6
DOT
  62
2
 100
AcDbCircle
  10
 262.43442821716
  20
 155.78863947148
  30
0.0
  40
 1.0000000000000
 100
AcDbArc
  50
 0.27032170348695E-9
  51
 90.000000000000
   0
POINT
   5
2F6
 100
AcDbEntity
   8
0
 100
AcDbPoint
  62
2
  10
 263.43442821716
  20
 156.78863947149
  30
0.0
   0
LINE
   5
2F7
 100
AcDbEntity
   8
0
 100
AcDbLine
   6
DOT
  62
2
  10
 262.43442821716
  20
 171.98863947149
  30
0.0
  11
 238.93442821716
  21
 171.98863947149
  31
0.0
   0
ARC
   5
2F8
 100
AcDbEntity
   8
0
   6
DOT
  62
2
 100
AcDbCircle
  10
 262.43442821716
  20
 172.98863947149
  30
0.0
  40
 1.0000000000000
 100
AcDbArc
  50
 270.00000000000
  51
0.0
   0
POINT
   5
2F9
 100
AcDbEntity
   8
0
 100
AcDbPoint
  62
2
  10
 263.43442821716
  20
 171.98863947149
  30
0.0
   0
LINE
   5
2FA
 100
AcDbEntity
   8
0
 100
AcDbLine
   6
CONTINUOUS
  62
7
  10
 263.43442821716
  20
 154.28863947149
  30
0.0
  11
 263.43442821716
  21
 164.38863947149
  31
0.0
   0
LINE
   5
2FB
 100
AcDbEntity
   8
0
 100
AcDbLine
   6
CONTINUOUS
  62
7
  10
 263.43442821716
  20
 174.48863947149
  30
0.0
  11
 263.43442821716
  21
 164.38863947149
  31
0.0
   0
ARC
   5
2FC
 100
AcDbEntity
   8
0
   6
CONTINUOUS
  62
7
 100
AcDbCircle
  10
 258.23442821716
  20
 173.73863947149
  30
0.0
  40
 0.50000000000000
 100
AcDbArc
  50
 270.00000000000
  51
0.0
   0
ARC
   5
2FD
 100
AcDbEntity
   8
0
   6
CONTINUOUS
  62
7
 100
AcDbCircle
  10
 258.23442821716
  20
 155.03863947148
  30
0.0
  40
 0.50000000000000
 100
AcDbArc
  50
 0.67091892672664E-9
  51
 90.000000000000
   0
LINE
   5
2FE
 100
AcDbEntity
   8
0
 100
AcDbLine
   6
CONTINUOUS
  62
7
  10
 259.73442821716
  20
 153.98863947149
  30
0.0
  11
 259.73442821716
  21
 164.38863947149
  31
0.0
   0
ARC
   5
2FF
 100
AcDbEntity
   8
0
   6
CONTINUOUS
  62
7
 100
AcDbCircle
  10
 259.53442821716
  20
 153.98863947149
  30
0.0
  40
 0.20000000000000
 100
AcDbArc
  50
 270.00000000114
  51
0.0
   0
LINE
   5
300
 100
AcDbEntity
   8
0
 100
AcDbLine
   6
CONTINUOUS
  62
7
  10
 259.73442821716
  20
 174.78863947149
  30
0.0
  11
 259.73442821716
  21
 164.38863947149
  31
0.0
   0
ARC
   5
301
 100
AcDbEntity
   8
0
   6
CONTINUOUS
  62
7
 100
AcDbCircle
  10
 259.53442821715
  20
 174.78863947149
  30
0.0
  40
 0.20000000000000
 100
AcDbArc
  50
0.0
  51
 89.999999997769
   0
LINE
   5
302
 100
AcDbEntity
   8
0
 100
AcDbLine
   6
CONTINUOUS
  62
7
  10
 258.73442821716
  20
 154.28863947149
  30
0.0
  11
 258.73442821716
  21
 164.38863947149
  31
0.0
   0
ARC
   5
303
 100
AcDbEntity
   8
0
   6
CONTINUOUS
  62
7
 100
AcDbCircle
  10
 259.23442821716
  20
 154.28863947149
  30
0.0
  40
 0.50000000000000
 100
AcDbArc
  50
 180.00000000000
  51
 270.00000000059
   0
POINT
   5
304
 100
AcDbEntity
   8
0
 100
AcDbPoint
  62
7
  10
 258.73442821716
  20
 153.78863947149
  30
0.0
   0
LINE
   5
305
 100
AcDbEntity
   8
0
 100
AcDbLine
   6
CONTINUOUS
  62
7
  10
 258.73442821716
  20
 174.48863947149
  30
0.0
  11
 258.73442821716
  21
 164.38863947149
  31
0.0
   0
ARC
   5
306
 100
AcDbEntity
   8
0
   6
CONTINUOUS
  62
7
 100
AcDbCircle
  10
 259.23442821715
  20
 174.48863947149
  30
0.0
  40
 0.50000000000000
 100
AcDbArc
  50
 89.999999999036
  51
 180.00000000000
   0
LINE
   5
307
 100
AcDbEntity
   8
0
 100
AcDbLine
   6
CONTINUOUS
  62
7
  10
 259.23442821716
  20
 153.78863947149
  30
0.0
  11
 259.53442821716
  21
 153.78863947149
  31
0.0
   0
LINE
   5
308
 100
AcDbEntity
   8
0
 100
AcDbLine
   6
CONTINUOUS
  62
7
  10
 259.23442821716
  20
 174.98863947149
  30
0.0
  11
 259.53442821716
  21
 174.98863947149
  31
0.0
   0
POINT
   5
309
 100
AcDbEntity
   8
0
 100
AcDbPoint
  62
7
  10
 262.43442821716
  20
 153.78863947149
  30
0.0
   0
ARC
   5
30A
 100
AcDbEntity
   8
0
   6
CONTINUOUS
  62
7
 100
AcDbCircle
  10
 262.63442821716
  20
 153.98863947149
  30
0.0
  40
 0.20000000000000
 100
AcDbArc
  50
 180.00000000001
  51
 269.99999999946
   0
LINE
   5
30B
 100
AcDbEntity
   8
0
 100
AcDbLine
   6
CONTINUOUS
  62
7
  10
 262.93442821716
  20
 153.78863947149
  30
0.0
  11
 262.63442821716
  21
 153.78863947149
  31
0.0
   0
LINE
   5
30C
 100
AcDbEntity
   8
0
 100
AcDbLine
   6
CONTINUOUS
  62
7
  10
 262.43442821716
  20
 164.38863947149
  30
0.0
  11
 262.43442821716
  21
 153.98863947149
  31
0.0
   0
ARC
   5
30D
 100
AcDbEntity
   8
0
   6
CONTINUOUS
  62
7
 100
AcDbCircle
  10
 262.93442821716
  20
 154.28863947149
  30
0.0
  40
 0.50000000000000
 100
AcDbArc
  50
 270.00000000000
  51
0.0
   0
POINT
   5
30E
 100
AcDbEntity
   8
0
 100
AcDbPoint
  62
7
  10
 262.43442821716
  20
 174.98863947149
  30
0.0
   0
ARC
   5
30F
 100
AcDbEntity
   8
0
   6
CONTINUOUS
  62
7
 100
AcDbCircle
  10
 262.63442821717
  20
 174.78863947149
  30
0.0
  40
 0.20000000000000
 100
AcDbArc
  50
 90.000000001449
  51
 179.99999999998
   0
LINE
   5
310
 100
AcDbEntity
   8
0
 100
AcDbLine
   6
CONTINUOUS
  62
7
  10
 262.93442821716
  20
 174.98863947149
  30
0.0
  11
 262.63442821716
  21
 174.98863947149
  31
0.0
   0
LINE
   5
311
 100
AcDbEntity
   8
0
 100
AcDbLine
   6
CONTINUOUS
  62
7
  10
 262.43442821716
  20
 164.38863947149
  30
0.0
  11
 262.43442821716
  21
 174.78863947149
  31
0.0
   0
LINE
   5
312
 100
AcDbEntity
   8
0
 100
AcDbLine
   6
DASHDOT
  62
2
  10
 265.87344183734
  20
 164.38863947149
  30
0.0
  11
 232.96511392655
  21
 164.38863947149
  31
0.0
   0
LINE
   5
313
 100
AcDbEntity
   8
0
 100
AcDbLine
   6
CONTINUOUS
  62
7
  10
 236.93442821716
  20
 181.88863947149
  30
0.0
  11
 236.93442821716
  21
 164.38863947149
  31
0.0
   0
LINE
   5
314
 100
AcDbEntity
   8
0
 100
AcDbLine
   6
CONTINUOUS
  62
2
  10
 248.93442821716
  20
 163.38863947149
  30
0.0
  11
 248.93442821716
  21
 165.38863947149
  31
0.0
   0
LINE
   5
315
 100
AcDbEntity
   8
0
 100
AcDbLine
   6
CONTINUOUS
  62
7
  10
 247.93442821716
  20
 178.78093428320
  30
0.0
  11
 247.93442821716
  21
 168.24504324354
  31
0.0
   0
LINE
   5
316
 100
AcDbEntity
   8
0
 100
AcDbLine
   6
CONTINUOUS
  62
7
  10
 245.93442821716
  20
 168.24504324354
  30
0.0
  11
 245.93442821716
  21
 178.78093428320
  31
0.0
   0
LINE
   5
317
 100
AcDbEntity
   8
0
 100
AcDbLine
   6
CONTINUOUS
  62
7
  10
 242.93442821716
  20
 178.78093428320
  30
0.0
  11
 242.93442821716
  21
 168.24504324354
  31
0.0
   0
LINE
   5
318
 100
AcDbEntity
   8
0
 100
AcDbLine
   6
CONTINUOUS
  62
7
  10
 240.93442821716
  20
 168.24504324354
  30
0.0
  11
 240.93442821716
  21
 178.78093428320
  31
0.0
   0
LINE
   5
319
 100
AcDbEntity
   8
0
 100
AcDbLine
   6
CONTINUOUS
  62
7
  10
 247.93442821716
  20
 178.78093428320
  30
0.0
  11
 245.93442821716
  21
 178.78093428320
  31
0.0
   0
LINE
   5
31A
 100
AcDbEntity
   8
0
 100
AcDbLine
   6
CONTINUOUS
  62
7
  10
 242.93442821716
  20
 178.78093428320
  30
0.0
  11
 240.93442821716
  21
 178.78093428320
  31
0.0
   0
LINE
   5
31B
 100
AcDbEntity
   8
0
 100
AcDbLine
   6
CONTINUOUS
  62
7
  10
 248.43442821716
  20
 179.28863947149
  30
0.0
  11
 236.93442821716
  21
 179.28863947149
  31
0.0
   0
LINE
   5
31C
 100
AcDbEntity
   8
0
 100
AcDbLine
   6
CONTINUOUS
  62
7
  10
 248.93442821716
  20
 164.38863947149
  30
0.0
  11
 248.93442821716
  21
 178.78863947149
  31
0.0
   0
LINE
   5
31D
 100
AcDbEntity
   8
0
 100
AcDbLine
   6
DOT
  62
2
  10
 248.93442821716
  20
 174.98863947149
  30
0.0
  11
 248.93442821716
  21
 173.73863947149
  31
0.0
   0
ARC
   5
31E
 100
AcDbEntity
   8
0
   6
CONTINUOUS
  62
7
 100
AcDbCircle
  10
 248.43442821716
  20
 178.78863947149
  30
0.0
  40
 0.50000000000000
 100
AcDbArc
  50
0.0
  51
 89.999999999805
   0
LINE
   5
31F
 100
AcDbEntity
   8
0
 100
AcDbLine
   6
CONTINUOUS
  62
7
  10
 248.93442821716
  20
 174.98863947149
  30
0.0
  11
 248.93442821716
  21
 176.68863947149
  31
0.0
   0
LINE
   5
320
 100
AcDbEntity
   8
0
 100
AcDbLine
   6
CONTINUOUS
  62
7
  10
 245.93442821716
  20
 168.24504324352
  30
0.0
  11
 247.93442821716
  21
 168.24504324352
  31
0.0
   0
LINE
   5
321
 100
AcDbEntity
   8
0
 100
AcDbLine
   6
CONTINUOUS
  62
7
  10
 245.93442821716
  20
 169.86785931131
  30
0.0
  11
 247.93442821716
  21
 168.24504324352
  31
0.0
   0
LINE
   5
322
 100
AcDbEntity
   8
0
 100
AcDbLine
   6
CONTINUOUS
  62
7
  10
 240.93442821716
  20
 168.24504324352
  30
0.0
  11
 242.93442821716
  21
 168.24504324352
  31
0.0
   0
LINE
   5
323
 100
AcDbEntity
   8
0
 100
AcDbLine
   6
CONTINUOUS
  62
7
  10
 240.93442821716
  20
 169.86785931131
  30
0.0
  11
 242.93442821716
  21
 168.24504324352
  31
0.0
   0
LINE
   5
324
 100
AcDbEntity
   8
0
 100
AcDbLine
   6
CONTINUOUS
  62
7
  10
 248.93442821716
  20
 164.38863947149
  30
0.0
  11
 248.93442821716
  21
 149.98863947149
  31
0.0
   0
LINE
   5
325
 100
AcDbEntity
   8
0
 100
AcDbLine
   6
CONTINUOUS
  62
7
  10
 240.93442821716
  20
 160.53223569945
  30
0.0
  11
 242.93442821716
  21
 160.53223569945
  31
0.0
   0
LINE
   5
326
 100
AcDbEntity
   8
0
 100
AcDbLine
   6
CONTINUOUS
  62
7
  10
 240.93442821716
  20
 158.90941963166
  30
0.0
  11
 242.93442821716
  21
 160.53223569945
  31
0.0
   0
LINE
   5
327
 100
AcDbEntity
   8
0
 100
AcDbLine
   6
CONTINUOUS
  62
7
  10
 245.93442821716
  20
 160.53223569945
  30
0.0
  11
 247.93442821716
  21
 160.53223569945
  31
0.0
   0
LINE
   5
328
 100
AcDbEntity
   8
0
 100
AcDbLine
   6
CONTINUOUS
  62
7
  10
 245.93442821716
  20
 158.90941963166
  30
0.0
  11
 247.93442821716
  21
 160.53223569945
  31
0.0
   0
LINE
   5
329
 100
AcDbEntity
   8
0
 100
AcDbLine
   6
CONTINUOUS
  62
7
  10
 247.93442821716
  20
 149.99634465977
  30
0.0
  11
 247.93442821716
  21
 160.53223569943
  31
0.0
   0
LINE
   5
32A
 100
AcDbEntity
   8
0
 100
AcDbLine
   6
CONTINUOUS
  62
7
  10
 245.93442821716
  20
 160.53223569943
  30
0.0
  11
 245.93442821716
  21
 149.99634465977
  31
0.0
   0
LINE
   5
32B
 100
AcDbEntity
   8
0
 100
AcDbLine
   6
CONTINUOUS
  62
7
  10
 242.93442821716
  20
 149.99634465977
  30
0.0
  11
 242.93442821716
  21
 160.53223569943
  31
0.0
   0
LINE
   5
32C
 100
AcDbEntity
   8
0
 100
AcDbLine
   6
CONTINUOUS
  62
7
  10
 240.93442821716
  20
 160.53223569943
  30
0.0
  11
 240.93442821716
  21
 149.99634465977
  31
0.0
   0
ARC
   5
32D
 100
AcDbEntity
   8
0
   6
CONTINUOUS
  62
7
 100
AcDbCircle
  10
 248.43442821716
  20
 149.98863947149
  30
0.0
  40
 0.50000000000000
 100
AcDbArc
  50
 270.00000000015
  51
0.0
   0
LINE
   5
32E
 100
AcDbEntity
   8
0
 100
AcDbLine
   6
CONTINUOUS
  62
7
  10
 247.93442821716
  20
 149.99634465977
  30
0.0
  11
 245.93442821716
  21
 149.99634465977
  31
0.0
   0
LINE
   5
32F
 100
AcDbEntity
   8
0
 100
AcDbLine
   6
CONTINUOUS
  62
7
  10
 242.93442821716
  20
 149.99634465977
  30
0.0
  11
 240.93442821716
  21
 149.99634465977
  31
0.0
   0
LINE
   5
330
 100
AcDbEntity
   8
0
 100
AcDbLine
   6
CONTINUOUS
  62
7
  10
 248.43442821716
  20
 149.48863947149
  30
0.0
  11
 236.93442821716
  21
 149.48863947149
  31
0.0
   0
POINT
   5
331
 100
AcDbEntity
   8
0
 100
AcDbPoint
  62
7
  10
 248.93442821716
  20
 179.28863947149
  30
0.0
   0
POINT
   5
332
 100
AcDbEntity
   8
0
 100
AcDbPoint
  62
7
  10
 248.93442821716
  20
 149.48863947149
  30
0.0
   0
ARC
   5
333
 100
AcDbEntity
   8
0
   6
CONTINUOUS
  62
7
 100
AcDbCircle
  10
 249.43442821716
  20
 173.73863947148
  30
0.0
  40
 0.50000000000000
 100
AcDbArc
  50
 179.99999999934
  51
 270.00000000000
   0
LINE
   5
334
 100
AcDbEntity
   8
0
 100
AcDbLine
   6
CONTINUOUS
  62
7
  10
 249.43442821716
  20
 173.23863947149
  30
0.0
  11
 258.23442821716
  21
 173.23863947149
  31
0.0
   0
ARC
   5
335
 100
AcDbEntity
   8
0
   6
CONTINUOUS
  62
7
 100
AcDbCircle
  10
 249.43442821716
  20
 155.03863947149
  30
0.0
  40
 0.50000000000000
 100
AcDbArc
  50
 90.000000000000
  51
 180.00000000069
   0
LINE
   5
336
 100
AcDbEntity
   8
0
 100
AcDbLine
   6
CONTINUOUS
  62
7
  10
 249.43442821716
  20
 155.53863947149
  30
0.0
  11
 258.23442821716
  21
 155.53863947149
  31
0.0
   0
ARC
   5
337
 100
AcDbEntity
   8
0
   6
DOT
  62
2
 100
AcDbCircle
  10
 183.93442821716
  20
 115.88863947149
  30
0.0
  40
 1.0000000000000
 100
AcDbArc
  50
 90.000000000052
  51
 180.00000000000
   0
LINE
   5
338
 100
AcDbEntity
   8
0
 100
AcDbLine
   6
DOT
  62
2
  10
 183.93442821716
  20
 116.88863947149
  30
0.0
  11
 190.53442821716
  21
 116.88863947149
  31
0.0
   0
LINE
   5
339
 100
AcDbEntity
   8
0
 100
AcDbLine
   6
CONTINUOUS
  62
7
  10
 179.73442821716
  20
 94.113639471486
  30
0.0
  11
 179.73442821716
  21
 93.363639471486
  31
0.0
   0
ARC
   5
33A
 100
AcDbEntity
   8
0
   6
CONTINUOUS
  62
7
 100
AcDbCircle
  10
 180.70942821716
  20
 94.113639471485
  30
0.0
  40
 0.97500000000000
 100
AcDbArc
  50
 89.999999999998
  51
 179.99999999992
   0
ARC
   5
33B
 100
AcDbEntity
   8
0
   6
CONTINUOUS
  62
7
 100
AcDbCircle
  10
 180.70942821716
  20
 93.363639471486
  30
0.0
  40
 0.97500000000000
 100
AcDbArc
  50
 180.00000000000
  51
 270.00000000000
   0
ARC
   5
33C
 100
AcDbEntity
   8
0
   6
DOT
  62
2
 100
AcDbCircle
  10
 197.13442821716
  20
 115.88863947149
  30
0.0
  40
 1.0000000000000
 100
AcDbArc
  50
0.0
  51
 89.999999999873
   0
LINE
   5
33D
 100
AcDbEntity
   8
0
 100
AcDbLine
   6
DOT
  62
2
  10
 197.13442821716
  20
 116.88863947149
  30
0.0
  11
 190.53442821716
  21
 116.88863947149
  31
0.0
   0
LINE
   5
33E
 100
AcDbEntity
   8
0
 100
AcDbLine
   6
CONTINUOUS
  62
7
  10
 201.33442821716
  20
 94.113639471486
  30
0.0
  11
 201.33442821716
  21
 93.363639471486
  31
0.0
   0
ARC
   5
33F
 100
AcDbEntity
   8
0
   6
CONTINUOUS
  62
7
 100
AcDbCircle
  10
 200.35942821716
  20
 94.113639471485
  30
0.0
  40
 0.97500000000000
 100
AcDbArc
  50
 0.81839749588264E-10
  51
 90.000000000002
   0
ARC
   5
340
 100
AcDbEntity
   8
0
   6
CONTINUOUS
  62
7
 100
AcDbCircle
  10
 200.35942821716
  20
 93.363639471486
  30
0.0
  40
 0.97500000000000
 100
AcDbArc
  50
 270.00000000001
  51
 0.83509948559443E-12
   0
POINT
   5
341
 100
AcDbEntity
   8
0
 100
AcDbPoint
  62
7
  10
 179.93442821716
  20
 95.088639471486
  30
0.0
   0
POINT
   5
342
 100
AcDbEntity
   8
0
 100
AcDbPoint
  62
7
  10
 201.13442821716
  20
 95.088639471486
  30
0.0
   0
ARC
   5
343
 100
AcDbEntity
   8
0
   6
CONTINUOUS
  62
7
 100
AcDbCircle
  10
 200.63442821716
  20
 91.888639471488
  30
0.0
  40
 0.50000000000000
 100
AcDbArc
  50
 270.00000000000
  51
0.0
   0
POINT
   5
344
 100
AcDbEntity
   8
0
 100
AcDbPoint
  62
7
  10
 201.13442821716
  20
 91.388639471486
  30
0.0
   0
POINT
   5
345
 100
AcDbEntity
   8
0
 100
AcDbPoint
  62
7
  10
 201.13442821716
  20
 92.388639471486
  30
0.0
   0
LINE
   5
346
 100
AcDbEntity
   8
0
 100
AcDbLine
   6
DOT
  62
2
  10
 182.93442821716
  20
 92.388639471486
  30
0.0
  11
 182.93442821716
  21
 115.88863947149
  31
0.0
   0
ARC
   5
347
 100
AcDbEntity
   8
0
   6
DOT
  62
2
 100
AcDbCircle
  10
 181.93442821716
  20
 92.388639471486
  30
0.0
  40
 1.0000000000000
 100
AcDbArc
  50
 269.99999999995
  51
0.0
   0
POINT
   5
348
 100
AcDbEntity
   8
0
 100
AcDbPoint
  62
2
  10
 182.93442821716
  20
 91.388639471486
  30
0.0
   0
LINE
   5
349
 100
AcDbEntity
   8
0
 100
AcDbLine
   6
DOT
  62
2
  10
 198.13442821716
  20
 92.388639471486
  30
0.0
  11
 198.13442821716
  21
 115.88863947149
  31
0.0
   0
ARC
   5
34A
 100
AcDbEntity
   8
0
   6
DOT
  62
2
 100
AcDbCircle
  10
 199.13442821716
  20
 92.388639471486
  30
0.0
  40
 1.0000000000000
 100
AcDbArc
  50
 180.00000000000
  51
 269.99999999992
   0
POINT
   5
34B
 100
AcDbEntity
   8
0
 100
AcDbPoint
  62
2
  10
 198.13442821716
  20
 91.388639471486
  30
0.0
   0
LINE
   5
34C
 100
AcDbEntity
   8
0
 100
AcDbLine
   6
CONTINUOUS
  62
7
  10
 180.43442821716
  20
 91.388639471486
  30
0.0
  11
 190.53442821716
  21
 91.388639471486
  31
0.0
   0
LINE
   5
34D
 100
AcDbEntity
   8
0
 100
AcDbLine
   6
CONTINUOUS
  62
7
  10
 200.63442821716
  20
 91.388639471486
  30
0.0
  11
 190.53442821716
  21
 91.388639471486
  31
0.0
   0
ARC
   5
34E
 100
AcDbEntity
   8
0
   6
CONTINUOUS
  62
7
 100
AcDbCircle
  10
 199.88442821716
  20
 96.588639471486
  30
0.0
  40
 0.50000000000000
 100
AcDbArc
  50
 180.00000000000
  51
 269.99999999993
   0
ARC
   5
34F
 100
AcDbEntity
   8
0
   6
CONTINUOUS
  62
7
 100
AcDbCircle
  10
 181.18442821717
  20
 96.588639471486
  30
0.0
  40
 0.50000000000000
 100
AcDbArc
  50
 269.99999999940
  51
0.0
   0
LINE
   5
350
 100
AcDbEntity
   8
0
 100
AcDbLine
   6
CONTINUOUS
  62
7
  10
 180.13442821716
  20
 95.088639471486
  30
0.0
  11
 190.53442821716
  21
 95.088639471486
  31
0.0
   0
ARC
   5
351
 100
AcDbEntity
   8
0
   6
CONTINUOUS
  62
7
 100
AcDbCircle
  10
 180.13442821716
  20
 95.288639471487
  30
0.0
  40
 0.20000000000000
 100
AcDbArc
  50
 180.00000000022
  51
 270.00000000000
   0
LINE
   5
352
 100
AcDbEntity
   8
0
 100
AcDbLine
   6
CONTINUOUS
  62
7
  10
 200.93442821716
  20
 95.088639471486
  30
0.0
  11
 190.53442821716
  21
 95.088639471486
  31
0.0
   0
ARC
   5
353
 100
AcDbEntity
   8
0
   6
CONTINUOUS
  62
7
 100
AcDbCircle
  10
 200.93442821716
  20
 95.288639471489
  30
0.0
  40
 0.20000000000000
 100
AcDbArc
  50
 270.00000000001
  51
0.0
   0
LINE
   5
354
 100
AcDbEntity
   8
0
 100
AcDbLine
   6
CONTINUOUS
  62
7
  10
 180.43442821716
  20
 96.088639471486
  30
0.0
  11
 190.53442821716
  21
 96.088639471486
  31
0.0
   0
ARC
   5
355
 100
AcDbEntity
   8
0
   6
CONTINUOUS
  62
7
 100
AcDbCircle
  10
 180.43442821716
  20
 95.588639471486
  30
0.0
  40
 0.50000000000000
 100
AcDbArc
  50
 90.000000000000
  51
 179.99999999997
   0
POINT
   5
356
 100
AcDbEntity
   8
0
 100
AcDbPoint
  62
7
  10
 179.93442821716
  20
 96.088639471486
  30
0.0
   0
LINE
   5
357
 100
AcDbEntity
   8
0
 100
AcDbLine
   6
CONTINUOUS
  62
7
  10
 200.63442821716
  20
 96.088639471486
  30
0.0
  11
 190.53442821716
  21
 96.088639471486
  31
0.0
   0
ARC
   5
358
 100
AcDbEntity
   8
0
   6
CONTINUOUS
  62
7
 100
AcDbCircle
  10
 200.63442821716
  20
 95.588639471484
  30
0.0
  40
 0.50000000000000
 100
AcDbArc
  50
 0.28660614345604E-9
  51
 90.000000000000
   0
LINE
   5
359
 100
AcDbEntity
   8
0
 100
AcDbLine
   6
CONTINUOUS
  62
7
  10
 179.93442821716
  20
 95.588639471486
  30
0.0
  11
 179.93442821716
  21
 95.288639471486
  31
0.0
   0
LINE
   5
35A
 100
AcDbEntity
   8
0
 100
AcDbLine
   6
CONTINUOUS
  62
7
  10
 201.13442821716
  20
 95.588639471486
  30
0.0
  11
 201.13442821716
  21
 95.288639471486
  31
0.0
   0
POINT
   5
35B
 100
AcDbEntity
   8
0
 100
AcDbPoint
  62
7
  10
 179.93442821716
  20
 92.388639471486
  30
0.0
   0
ARC
   5
35C
 100
AcDbEntity
   8
0
   6
CONTINUOUS
  62
7
 100
AcDbCircle
  10
 180.13442821716
  20
 92.188639471489
  30
0.0
  40
 0.20000000000000
 100
AcDbArc
  50
 90.000000000000
  51
 180.00000000075
   0
LINE
   5
35D
 100
AcDbEntity
   8
0
 100
AcDbLine
   6
CONTINUOUS
  62
7
  10
 179.93442821716
  20
 91.888639471486
  30
0.0
  11
 179.93442821716
  21
 92.188639471486
  31
0.0
   0
LINE
   5
35E
 100
AcDbEntity
   8
0
 100
AcDbLine
   6
CONTINUOUS
  62
7
  10
 190.53442821716
  20
 92.388639471486
  30
0.0
  11
 180.13442821716
  21
 92.388639471486
  31
0.0
   0
ARC
   5
35F
 100
AcDbEntity
   8
0
   6
CONTINUOUS
  62
7
 100
AcDbCircle
  10
 180.43442821716
  20
 91.888639471486
  30
0.0
  40
 0.50000000000000
 100
AcDbArc
  50
 180.00000000000
  51
 269.99999999993
   0
POINT
   5
360
 100
AcDbEntity
   8
0
 100
AcDbPoint
  62
7
  10
 201.13442821716
  20
 92.388639471486
  30
0.0
   0
ARC
   5
361
 100
AcDbEntity
   8
0
   6
CONTINUOUS
  62
7
 100
AcDbCircle
  10
 200.93442821716
  20
 92.188639471487
  30
0.0
  40
 0.20000000000000
 100
AcDbArc
  50
0.0
  51
 89.999999999992
   0
LINE
   5
362
 100
AcDbEntity
   8
0
 100
AcDbLine
   6
CONTINUOUS
  62
7
  10
 201.13442821716
  20
 91.888639471486
  30
0.0
  11
 201.13442821716
  21
 92.188639471486
  31
0.0
   0
LINE
   5
363
 100
AcDbEntity
   8
0
 100
AcDbLine
   6
CONTINUOUS
  62
7
  10
 190.53442821716
  20
 92.388639471486
  30
0.0
  11
 200.93442821716
  21
 92.388639471486
  31
0.0
   0
LINE
   5
364
 100
AcDbEntity
   8
0
 100
AcDbLine
   6
DASHDOT
  62
2
  10
 190.53442821716
  20
 88.949625851303
  30
0.0
  11
 190.53442821716
  21
 121.85795376210
  31
0.0
   0
LINE
   5
365
 100
AcDbEntity
   8
0
 100
AcDbLine
   6
CONTINUOUS
  62
7
  10
 173.03442821716
  20
 117.88863947149
  30
0.0
  11
 190.53442821716
  21
 117.88863947149
  31
0.0
   0
LINE
   5
366
 100
AcDbEntity
   8
0
 100
AcDbLine
   6
CONTINUOUS
  62
7
  10
 208.03442821716
  20
 117.88863947149
  30
0.0
  11
 190.53442821716
  21
 117.88863947149
  31
0.0
   0
LINE
   5
367
 100
AcDbEntity
   8
0
 100
AcDbLine
   6
CONTINUOUS
  62
7
  10
 204.92672302888
  20
 106.88863947149
  30
0.0
  11
 194.39083198922
  21
 106.88863947149
  31
0.0
   0
LINE
   5
368
 100
AcDbEntity
   8
0
 100
AcDbLine
   6
CONTINUOUS
  62
7
  10
 194.39083198922
  20
 108.88863947149
  30
0.0
  11
 204.92672302888
  21
 108.88863947149
  31
0.0
   0
LINE
   5
369
 100
AcDbEntity
   8
0
 100
AcDbLine
   6
CONTINUOUS
  62
7
  10
 204.92672302888
  20
 111.88863947149
  30
0.0
  11
 194.39083198922
  21
 111.88863947149
  31
0.0
   0
LINE
   5
36A
 100
AcDbEntity
   8
0
 100
AcDbLine
   6
CONTINUOUS
  62
7
  10
 194.39083198922
  20
 113.88863947149
  30
0.0
  11
 204.92672302888
  21
 113.88863947149
  31
0.0
   0
LINE
   5
36B
 100
AcDbEntity
   8
0
 100
AcDbLine
   6
CONTINUOUS
  62
7
  10
 204.92672302888
  20
 106.88863947149
  30
0.0
  11
 204.92672302888
  21
 108.88863947149
  31
0.0
   0
LINE
   5
36C
 100
AcDbEntity
   8
0
 100
AcDbLine
   6
CONTINUOUS
  62
7
  10
 204.92672302888
  20
 111.88863947149
  30
0.0
  11
 204.92672302888
  21
 113.88863947149
  31
0.0
   0
LINE
   5
36D
 100
AcDbEntity
   8
0
 100
AcDbLine
   6
CONTINUOUS
  62
7
  10
 205.43442821716
  20
 106.38863947149
  30
0.0
  11
 205.43442821716
  21
 117.88863947149
  31
0.0
   0
LINE
   5
36E
 100
AcDbEntity
   8
0
 100
AcDbLine
   6
DOT
  62
2
  10
 201.13442821716
  20
 105.88863947149
  30
0.0
  11
 199.88442821716
  21
 105.88863947149
  31
0.0
   0
ARC
   5
36F
 100
AcDbEntity
   8
0
   6
CONTINUOUS
  62
7
 100
AcDbCircle
  10
 204.93442821716
  20
 106.38863947148
  30
0.0
  40
 0.50000000000000
 100
AcDbArc
  50
 270.00000000000
  51
 0.37454211928914E-9
   0
LINE
   5
370
 100
AcDbEntity
   8
0
 100
AcDbLine
   6
CONTINUOUS
  62
7
  10
 201.13442821716
  20
 105.88863947149
  30
0.0
  11
 202.83442821716
  21
 105.88863947149
  31
0.0
   0
LINE
   5
371
 100
AcDbEntity
   8
0
 100
AcDbLine
   6
CONTINUOUS
  62
7
  10
 194.39083198920
  20
 108.88863947149
  30
0.0
  11
 194.39083198920
  21
 106.88863947149
  31
0.0
   0
LINE
   5
372
 100
AcDbEntity
   8
0
 100
AcDbLine
   6
CONTINUOUS
  62
7
  10
 196.01364805699
  20
 108.88863947149
  30
0.0
  11
 194.39083198920
  21
 106.88863947149
  31
0.0
   0
LINE
   5
373
 100
AcDbEntity
   8
0
 100
AcDbLine
   6
CONTINUOUS
  62
7
  10
 194.39083198920
  20
 113.88863947149
  30
0.0
  11
 194.39083198920
  21
 111.88863947149
  31
0.0
   0
LINE
   5
374
 100
AcDbEntity
   8
0
 100
AcDbLine
   6
CONTINUOUS
  62
7
  10
 196.01364805699
  20
 113.88863947149
  30
0.0
  11
 194.39083198920
  21
 111.88863947149
  31
0.0
   0
LINE
   5
375
 100
AcDbEntity
   8
0
 100
AcDbLine
   6
CONTINUOUS
  62
7
  10
 186.67802444512
  20
 113.88863947149
  30
0.0
  11
 186.67802444512
  21
 111.88863947149
  31
0.0
   0
LINE
   5
376
 100
AcDbEntity
   8
0
 100
AcDbLine
   6
CONTINUOUS
  62
7
  10
 185.05520837734
  20
 113.88863947149
  30
0.0
  11
 186.67802444512
  21
 111.88863947149
  31
0.0
   0
LINE
   5
377
 100
AcDbEntity
   8
0
 100
AcDbLine
   6
CONTINUOUS
  62
7
  10
 186.67802444512
  20
 108.88863947149
  30
0.0
  11
 186.67802444512
  21
 106.88863947149
  31
0.0
   0
LINE
   5
378
 100
AcDbEntity
   8
0
 100
AcDbLine
   6
CONTINUOUS
  62
7
  10
 185.05520837734
  20
 108.88863947149
  30
0.0
  11
 186.67802444512
  21
 106.88863947149
  31
0.0
   0
LINE
   5
379
 100
AcDbEntity
   8
0
 100
AcDbLine
   6
CONTINUOUS
  62
7
  10
 176.14213340545
  20
 106.88863947149
  30
0.0
  11
 186.67802444510
  21
 106.88863947149
  31
0.0
   0
LINE
   5
37A
 100
AcDbEntity
   8
0
 100
AcDbLine
   6
CONTINUOUS
  62
7
  10
 186.67802444510
  20
 108.88863947149
  30
0.0
  11
 176.14213340545
  21
 108.88863947149
  31
0.0
   0
LINE
   5
37B
 100
AcDbEntity
   8
0
 100
AcDbLine
   6
CONTINUOUS
  62
7
  10
 176.14213340545
  20
 111.88863947149
  30
0.0
  11
 186.67802444510
  21
 111.88863947149
  31
0.0
   0
LINE
   5
37C
 100
AcDbEntity
   8
0
 100
AcDbLine
   6
CONTINUOUS
  62
7
  10
 186.67802444510
  20
 113.88863947149
  30
0.0
  11
 176.14213340545
  21
 113.88863947149
  31
0.0
   0
ARC
   5
37D
 100
AcDbEntity
   8
0
   6
CONTINUOUS
  62
7
 100
AcDbCircle
  10
 176.13442821716
  20
 106.38863947149
  30
0.0
  40
 0.50000000000000
 100
AcDbArc
  50
 180.00000000018
  51
 270.00000000000
   0
LINE
   5
37E
 100
AcDbEntity
   8
0
 100
AcDbLine
   6
CONTINUOUS
  62
7
  10
 176.14213340545
  20
 106.88863947149
  30
0.0
  11
 176.14213340545
  21
 108.88863947149
  31
0.0
   0
LINE
   5
37F
 100
AcDbEntity
   8
0
 100
AcDbLine
   6
CONTINUOUS
  62
7
  10
 176.14213340545
  20
 111.88863947149
  30
0.0
  11
 176.14213340545
  21
 113.88863947149
  31
0.0
   0
LINE
   5
380
 100
AcDbEntity
   8
0
 100
AcDbLine
   6
CONTINUOUS
  62
7
  10
 175.63442821716
  20
 106.38863947149
  30
0.0
  11
 175.63442821716
  21
 117.88863947149
  31
0.0
   0
POINT
   5
381
 100
AcDbEntity
   8
0
 100
AcDbPoint
  62
7
  10
 205.43442821716
  20
 105.88863947149
  30
0.0
   0
POINT
   5
382
 100
AcDbEntity
   8
0
 100
AcDbPoint
  62
7
  10
 175.63442821716
  20
 105.88863947149
  30
0.0
   0
ARC
   5
383
 100
AcDbEntity
   8
0
   6
CONTINUOUS
  62
7
 100
AcDbCircle
  10
 199.88442821716
  20
 105.38863947149
  30
0.0
  40
 0.50000000000000
 100
AcDbArc
  50
 90.000000000182
  51
 180.00000000000
   0
LINE
   5
384
 100
AcDbEntity
   8
0
 100
AcDbLine
   6
CONTINUOUS
  62
7
  10
 199.38442821716
  20
 105.38863947149
  30
0.0
  11
 199.38442821716
  21
 96.588639471486
  31
0.0
   0
ARC
   5
385
 100
AcDbEntity
   8
0
   6
CONTINUOUS
  62
7
 100
AcDbCircle
  10
 181.18442821717
  20
 105.38863947149
  30
0.0
  40
 0.50000000000000
 100
AcDbArc
  50
0.0
  51
 90.000000000489
   0
LINE
   5
386
 100
AcDbEntity
   8
0
 100
AcDbLine
   6
CONTINUOUS
  62
7
  10
 181.68442821716
  20
 105.38863947149
  30
0.0
  11
 181.68442821716
  21
 96.588639471486
  31
0.0
   0
LINE
   5
387
 100
AcDbEntity
   8
0
 100
AcDbLine
   6
CONTINUOUS
  62
7
  10
 319.44582279502
  20
 149.99634465977
  30
0.0
  11
 319.44582279502
  21
 160.53223569943
  31
0.0
   0
LINE
   5
388
 100
AcDbEntity
   8
0
 100
AcDbLine
   6
CONTINUOUS
  62
7
  10
 321.44582279502
  20
 160.53223569943
  30
0.0
  11
 321.44582279502
  21
 149.99634465977
  31
0.0
   0
LINE
   5
389
 100
AcDbEntity
   8
0
 100
AcDbLine
   6
CONTINUOUS
  62
7
  10
 319.44582279502
  20
 149.99634465977
  30
0.0
  11
 321.44582279502
  21
 149.99634465977
  31
0.0
   0
LINE
   5
38A
 100
AcDbEntity
   8
0
 100
AcDbLine
   6
CONTINUOUS
  62
7
  10
 314.44582279502
  20
 149.99634465977
  30
0.0
  11
 314.44582279502
  21
 160.53223569943
  31
0.0
   0
LINE
   5
38B
 100
AcDbEntity
   8
0
 100
AcDbLine
   6
CONTINUOUS
  62
7
  10
 314.44582279502
  20
 149.99634465977
  30
0.0
  11
 316.44582279502
  21
 149.99634465977
  31
0.0
   0
LINE
   5
38C
 100
AcDbEntity
   8
0
 100
AcDbLine
   6
CONTINUOUS
  62
7
  10
 316.44582279502
  20
 158.90941963166
  30
0.0
  11
 314.44582279502
  21
 160.53223569945
  31
0.0
   0
LINE
   5
38D
 100
AcDbEntity
   8
0
 100
AcDbLine
   6
CONTINUOUS
  62
7
  10
 316.44582279502
  20
 160.53223569943
  30
0.0
  11
 316.44582279502
  21
 149.99634465977
  31
0.0
   0
LINE
   5
38E
 100
AcDbEntity
   8
0
 100
AcDbLine
   6
CONTINUOUS
  62
7
  10
 316.44582279502
  20
 160.53223569945
  30
0.0
  11
 314.44582279502
  21
 160.53223569945
  31
0.0
   0
LINE
   5
38F
 100
AcDbEntity
   8
0
 100
AcDbLine
   6
CONTINUOUS
  62
7
  10
 321.44582279502
  20
 160.53223569945
  30
0.0
  11
 319.44582279502
  21
 160.53223569945
  31
0.0
   0
LINE
   5
390
 100
AcDbEntity
   8
0
 100
AcDbLine
   6
CONTINUOUS
  62
7
  10
 321.44582279502
  20
 158.90941963166
  30
0.0
  11
 319.44582279502
  21
 160.53223569945
  31
0.0
   0
ARC
   5
391
 100
AcDbEntity
   8
0
   6
CONTINUOUS
  62
7
 100
AcDbCircle
  10
 313.94582279502
  20
 149.98863947149
  30
0.0
  40
 0.50000000000000
 100
AcDbArc
  50
 180.00000000063
  51
 270.00000000000
   0
LINE
   5
392
 100
AcDbEntity
   8
0
 100
AcDbLine
   6
CONTINUOUS
  62
7
  10
 313.94582279502
  20
 149.48863947149
  30
0.0
  11
 325.44582279502
  21
 149.48863947149
  31
0.0
   0
LINE
   5
393
 100
AcDbEntity
   8
0
 100
AcDbLine
   6
CONTINUOUS
  62
7
  10
 309.94582279502
  20
 164.38863947149
  30
0.0
  11
 309.94582279502
  21
 152.58863947149
  31
0.0
   0
ARC
   5
394
 100
AcDbEntity
   8
0
   6
DOT
  62
2
 100
AcDbCircle
  10
 315.44582279497
  20
 151.58863947166
  30
0.0
  40
 1.0000000000000
 100
AcDbArc
  50
 11.536959022633
  51
 13.342363786743
   0
LINE
   5
395
 100
AcDbEntity
   8
0
 100
AcDbLine
   6
CONTINUOUS
  62
7
  10
 309.94582279502
  20
 152.58863947149
  30
0.0
  11
 313.44582279502
  21
 151.88863947149
  31
0.0
   0
LINE
   5
396
 100
AcDbEntity
   8
0
 100
AcDbLine
   6
CONTINUOUS
  62
7
  10
 319.44582279502
  20
 178.78093428320
  30
0.0
  11
 319.44582279502
  21
 168.24504324354
  31
0.0
   0
LINE
   5
397
 100
AcDbEntity
   8
0
 100
AcDbLine
   6
CONTINUOUS
  62
7
  10
 321.44582279502
  20
 168.24504324354
  30
0.0
  11
 321.44582279502
  21
 178.78093428320
  31
0.0
   0
LINE
   5
398
 100
AcDbEntity
   8
0
 100
AcDbLine
   6
CONTINUOUS
  62
7
  10
 319.44582279502
  20
 178.78093428320
  30
0.0
  11
 321.44582279502
  21
 178.78093428320
  31
0.0
   0
LINE
   5
399
 100
AcDbEntity
   8
0
 100
AcDbLine
   6
CONTINUOUS
  62
7
  10
 314.44582279502
  20
 178.78093428320
  30
0.0
  11
 314.44582279502
  21
 168.24504324354
  31
0.0
   0
LINE
   5
39A
 100
AcDbEntity
   8
0
 100
AcDbLine
   6
CONTINUOUS
  62
7
  10
 314.44582279502
  20
 178.78093428320
  30
0.0
  11
 316.44582279502
  21
 178.78093428320
  31
0.0
   0
LINE
   5
39B
 100
AcDbEntity
   8
0
 100
AcDbLine
   6
CONTINUOUS
  62
7
  10
 316.44582279502
  20
 169.86785931131
  30
0.0
  11
 314.44582279502
  21
 168.24504324353
  31
0.0
   0
LINE
   5
39C
 100
AcDbEntity
   8
0
 100
AcDbLine
   6
CONTINUOUS
  62
7
  10
 316.44582279502
  20
 168.24504324354
  30
0.0
  11
 316.44582279502
  21
 178.78093428320
  31
0.0
   0
LINE
   5
39D
 100
AcDbEntity
   8
0
 100
AcDbLine
   6
CONTINUOUS
  62
7
  10
 316.44582279502
  20
 168.24504324353
  30
0.0
  11
 314.44582279502
  21
 168.24504324353
  31
0.0
   0
LINE
   5
39E
 100
AcDbEntity
   8
0
 100
AcDbLine
   6
CONTINUOUS
  62
7
  10
 321.44582279502
  20
 168.24504324353
  30
0.0
  11
 319.44582279502
  21
 168.24504324353
  31
0.0
   0
LINE
   5
39F
 100
AcDbEntity
   8
0
 100
AcDbLine
   6
CONTINUOUS
  62
7
  10
 321.44582279502
  20
 169.86785931131
  30
0.0
  11
 319.44582279502
  21
 168.24504324353
  31
0.0
   0
ARC
   5
3A0
 100
AcDbEntity
   8
0
   6
CONTINUOUS
  62
7
 100
AcDbCircle
  10
 313.94582279502
  20
 178.78863947148
  30
0.0
  40
 0.50000000000000
 100
AcDbArc
  50
 90.000000000000
  51
 179.99999999899
   0
LINE
   5
3A1
 100
AcDbEntity
   8
0
 100
AcDbLine
   6
CONTINUOUS
  62
7
  10
 313.94582279502
  20
 179.28863947149
  30
0.0
  11
 325.44582279502
  21
 179.28863947149
  31
0.0
   0
LINE
   5
3A2
 100
AcDbEntity
   8
0
 100
AcDbLine
   6
CONTINUOUS
  62
7
  10
 309.94582279502
  20
 164.38863947149
  30
0.0
  11
 309.94582279502
  21
 176.18863947149
  31
0.0
   0
ARC
   5
3A3
 100
AcDbEntity
   8
0
   6
DOT
  62
2
 100
AcDbCircle
  10
 315.44582279498
  20
 177.18863947133
  30
0.0
  40
 1.0000000000000
 100
AcDbArc
  50
 346.65763621247
  51
 348.46304097658
   0
LINE
   5
3A4
 100
AcDbEntity
   8
0
 100
AcDbLine
   6
CONTINUOUS
  62
7
  10
 309.94582279502
  20
 176.18863947149
  30
0.0
  11
 313.44582279502
  21
 176.88863947149
  31
0.0
   0
ARC
   5
3A5
 100
AcDbEntity
   8
0
   6
DOT
  62
2
 100
AcDbCircle
  10
 266.94582279502
  20
 164.38863947149
  30
0.0
  40
 60.000000000000
 100
AcDbArc
  50
0.0
  51
 12.904891503687
   0
ARC
   5
3A6
 100
AcDbEntity
   8
0
   6
DOT
  62
2
 100
AcDbCircle
  10
 266.94582279502
  20
 164.38863947149
  30
0.0
  40
 60.000000000000
 100
AcDbArc
  50
 347.09510849631
  51
 0.48853319907280E-12
   0
LINE
   5
3A7
 100
AcDbEntity
   8
0
 100
AcDbLine
   6
CONTINUOUS
  62
7
  10
 357.55352798330
  20
 111.88863947149
  30
0.0
  11
 368.08941902296
  21
 111.88863947149
  31
0.0
   0
LINE
   5
3A8
 100
AcDbEntity
   8
0
 100
AcDbLine
   6
CONTINUOUS
  62
7
  10
 368.08941902296
  20
 113.88863947149
  30
0.0
  11
 357.55352798330
  21
 113.88863947149
  31
0.0
   0
LINE
   5
3A9
 100
AcDbEntity
   8
0
 100
AcDbLine
   6
CONTINUOUS
  62
7
  10
 357.55352798330
  20
 111.88863947149
  30
0.0
  11
 357.55352798330
  21
 113.88863947149
  31
0.0
   0
LINE
   5
3AA
 100
AcDbEntity
   8
0
 100
AcDbLine
   6
CONTINUOUS
  62
7
  10
 357.55352798330
  20
 106.88863947149
  30
0.0
  11
 368.08941902296
  21
 106.88863947149
  31
0.0
   0
LINE
   5
3AB
 100
AcDbEntity
   8
0
 100
AcDbLine
   6
CONTINUOUS
  62
7
  10
 357.55352798330
  20
 106.88863947149
  30
0.0
  11
 357.55352798330
  21
 108.88863947149
  31
0.0
   0
LINE
   5
3AC
 100
AcDbEntity
   8
0
 100
AcDbLine
   6
CONTINUOUS
  62
7
  10
 366.46660295519
  20
 108.88863947149
  30
0.0
  11
 368.08941902298
  21
 106.88863947149
  31
0.0
   0
LINE
   5
3AD
 100
AcDbEntity
   8
0
 100
AcDbLine
   6
CONTINUOUS
  62
7
  10
 368.08941902296
  20
 108.88863947149
  30
0.0
  11
 357.55352798330
  21
 108.88863947149
  31
0.0
   0
LINE
   5
3AE
 100
AcDbEntity
   8
0
 100
AcDbLine
   6
CONTINUOUS
  62
7
  10
 368.08941902298
  20
 108.88863947149
  30
0.0
  11
 368.08941902298
  21
 106.88863947149
  31
0.0
   0
LINE
   5
3AF
 100
AcDbEntity
   8
0
 100
AcDbLine
   6
CONTINUOUS
  62
7
  10
 368.08941902298
  20
 113.88863947149
  30
0.0
  11
 368.08941902298
  21
 111.88863947149
  31
0.0
   0
LINE
   5
3B0
 100
AcDbEntity
   8
0
 100
AcDbLine
   6
CONTINUOUS
  62
7
  10
 366.46660295519
  20
 113.88863947149
  30
0.0
  11
 368.08941902298
  21
 111.88863947149
  31
0.0
   0
LINE
   5
3B1
 100
AcDbEntity
   8
0
 100
AcDbLine
   6
DOT
  62
2
  10
 361.64582279502
  20
 116.88863947149
  30
0.0
  11
 371.94582279502
  21
 116.88863947149
  31
0.0
   0
ARC
   5
3B2
 100
AcDbEntity
   8
0
   6
DOT
  62
2
 100
AcDbCircle
  10
 361.64582279502
  20
 116.38863947149
  30
0.0
  40
 0.50000000000000
 100
AcDbArc
  50
 90.000000000560
  51
 180.00000000000
   0
POINT
   5
3B3
 100
AcDbEntity
   8
0
 100
AcDbPoint
  62
2
  10
 361.14582279502
  20
 102.38863947149
  30
0.0
   0
LINE
   5
3B4
 100
AcDbEntity
   8
0
 100
AcDbLine
   6
DOT
  62
2
  10
 361.14582279502
  20
 102.88863947149
  30
0.0
  11
 361.14582279502
  21
 116.38863947149
  31
0.0
   0
ARC
   5
3B5
 100
AcDbEntity
   8
0
   6
DOT
  62
2
 100
AcDbCircle
  10
 360.64582279501
  20
 102.88863947149
  30
0.0
  40
 0.50000000000000
 100
AcDbArc
  50
 270.00000000112
  51
0.0
   0
LINE
   5
3B6
 100
AcDbEntity
   8
0
 100
AcDbLine
   6
DOT
  62
2
  10
 361.14582279502
  20
 102.88863947149
  30
0.0
  11
 361.14582279502
  21
 116.38863947149
  31
0.0
   0
ARC
   5
3B7
 100
AcDbEntity
   8
0
   6
DOT
  62
2
 100
AcDbCircle
  10
 360.64582279501
  20
 102.88863947149
  30
0.0
  40
 0.50000000000000
 100
AcDbArc
  50
 270.00000000112
  51
0.0
   0
ARC
   5
3B8
 100
AcDbEntity
   8
0
   6
CONTINUOUS
  62
7
 100
AcDbCircle
  10
 357.54582279501
  20
 106.38863947149
  30
0.0
  40
 0.50000000000000
 100
AcDbArc
  50
 180.00000000000
  51
 270.00000000013
   0
LINE
   5
3B9
 100
AcDbEntity
   8
0
 100
AcDbLine
   6
CONTINUOUS
  62
7
  10
 357.04582279502
  20
 106.38863947149
  30
0.0
  11
 357.04582279502
  21
 117.88863947149
  31
0.0
   0
LINE
   5
3BA
 100
AcDbEntity
   8
0
 100
AcDbLine
   6
CONTINUOUS
  62
7
  10
 371.94582279502
  20
 102.38863947149
  30
0.0
  11
 360.14582279502
  21
 102.38863947149
  31
0.0
   0
LINE
   5
3BB
 100
AcDbEntity
   8
0
 100
AcDbLine
   6
CONTINUOUS
  62
7
  10
 360.14582279502
  20
 102.38863947149
  30
0.0
  11
 359.44582279502
  21
 105.88863947149
  31
0.0
   0
LINE
   5
3BC
 100
AcDbEntity
   8
0
 100
AcDbLine
   6
CONTINUOUS
  62
7
  10
 386.33811760673
  20
 111.88863947149
  30
0.0
  11
 375.80222656707
  21
 111.88863947149
  31
0.0
   0
LINE
   5
3BD
 100
AcDbEntity
   8
0
 100
AcDbLine
   6
CONTINUOUS
  62
7
  10
 375.80222656707
  20
 113.88863947149
  30
0.0
  11
 386.33811760673
  21
 113.88863947149
  31
0.0
   0
LINE
   5
3BE
 100
AcDbEntity
   8
0
 100
AcDbLine
   6
CONTINUOUS
  62
7
  10
 386.33811760673
  20
 111.88863947149
  30
0.0
  11
 386.33811760673
  21
 113.88863947149
  31
0.0
   0
LINE
   5
3BF
 100
AcDbEntity
   8
0
 100
AcDbLine
   6
CONTINUOUS
  62
7
  10
 386.33811760673
  20
 106.88863947149
  30
0.0
  11
 375.80222656707
  21
 106.88863947149
  31
0.0
   0
LINE
   5
3C0
 100
AcDbEntity
   8
0
 100
AcDbLine
   6
CONTINUOUS
  62
7
  10
 386.33811760673
  20
 106.88863947149
  30
0.0
  11
 386.33811760673
  21
 108.88863947149
  31
0.0
   0
LINE
   5
3C1
 100
AcDbEntity
   8
0
 100
AcDbLine
   6
CONTINUOUS
  62
7
  10
 377.42504263484
  20
 108.88863947149
  30
0.0
  11
 375.80222656705
  21
 106.88863947149
  31
0.0
   0
LINE
   5
3C2
 100
AcDbEntity
   8
0
 100
AcDbLine
   6
CONTINUOUS
  62
7
  10
 375.80222656707
  20
 108.88863947149
  30
0.0
  11
 386.33811760673
  21
 108.88863947149
  31
0.0
   0
LINE
   5
3C3
 100
AcDbEntity
   8
0
 100
AcDbLine
   6
CONTINUOUS
  62
7
  10
 375.80222656705
  20
 108.88863947149
  30
0.0
  11
 375.80222656705
  21
 106.88863947149
  31
0.0
   0
LINE
   5
3C4
 100
AcDbEntity
   8
0
 100
AcDbLine
   6
CONTINUOUS
  62
7
  10
 375.80222656705
  20
 113.88863947149
  30
0.0
  11
 375.80222656705
  21
 111.88863947149
  31
0.0
   0
LINE
   5
3C5
 100
AcDbEntity
   8
0
 100
AcDbLine
   6
CONTINUOUS
  62
7
  10
 377.42504263484
  20
 113.88863947149
  30
0.0
  11
 375.80222656705
  21
 111.88863947149
  31
0.0
   0
POINT
   5
3C6
 100
AcDbEntity
   8
0
 100
AcDbPoint
  62
2
  10
 382.74582279502
  20
 102.38863947149
  30
0.0
   0
ARC
   5
3C7
 100
AcDbEntity
   8
0
   6
DOT
  62
2
 100
AcDbCircle
  10
 383.24582279503
  20
 102.88863947149
  30
0.0
  40
 0.50000000000000
 100
AcDbArc
  50
 180.00000000000
  51
 269.99999999880
   0
LINE
   5
3C8
 100
AcDbEntity
   8
0
 100
AcDbLine
   6
DOT
  62
2
  10
 382.74582279502
  20
 102.88863947149
  30
0.0
  11
 382.74582279502
  21
 116.38863947149
  31
0.0
   0
ARC
   5
3C9
 100
AcDbEntity
   8
0
   6
DOT
  62
2
 100
AcDbCircle
  10
 383.24582279503
  20
 102.88863947149
  30
0.0
  40
 0.50000000000000
 100
AcDbArc
  50
 180.00000000000
  51
 269.99999999880
   0
ARC
   5
3CA
 100
AcDbEntity
   8
0
   6
CONTINUOUS
  62
7
 100
AcDbCircle
  10
 386.34582279500
  20
 106.38863947149
  30
0.0
  40
 0.50000000000000
 100
AcDbArc
  50
 270.00000000143
  51
0.0
   0
LINE
   5
3CB
 100
AcDbEntity
   8
0
 100
AcDbLine
   6
CONTINUOUS
  62
7
  10
 386.84582279502
  20
 106.38863947149
  30
0.0
  11
 386.84582279502
  21
 117.88863947149
  31
0.0
   0
LINE
   5
3CC
 100
AcDbEntity
   8
0
 100
AcDbLine
   6
CONTINUOUS
  62
7
  10
 371.94582279502
  20
 102.38863947149
  30
0.0
  11
 383.74582279502
  21
 102.38863947149
  31
0.0
   0
LINE
   5
3CD
 100
AcDbEntity
   8
0
 100
AcDbLine
   6
CONTINUOUS
  62
7
  10
 383.74582279502
  20
 102.38863947149
  30
0.0
  11
 384.44582279502
  21
 105.88863947149
  31
0.0
   0
LINE
   5
3CE
 100
AcDbEntity
   8
0
 100
AcDbLine
   6
DOT
  62
2
  10
 382.74582279502
  20
 102.88863947149
  30
0.0
  11
 382.74582279502
  21
 116.38863947149
  31
0.0
   0
ARC
   5
3CF
 100
AcDbEntity
   8
0
   6
DOT
  62
2
 100
AcDbCircle
  10
 382.24582279500
  20
 116.38863947149
  30
0.0
  40
 0.50000000000000
 100
AcDbArc
  50
0.0
  51
 89.999999997863
   0
LINE
   5
3D0
 100
AcDbEntity
   8
0
 100
AcDbLine
   6
DOT
  62
2
  10
 382.24582279502
  20
 116.88863947149
  30
0.0
  11
 371.94582279502
  21
 116.88863947149
  31
0.0
   0
POINT
   5
3D1
 100
AcDbEntity
   8
0
 100
AcDbPoint
  62
7
  10
 327.44582279502
  20
 181.88863947149
  30
0.0
   0
ARC
   5
3D2
 100
AcDbEntity
   8
0
   6
DOT
  62
2
 100
AcDbCircle
  10
 371.94582279502
  20
 59.388639471486
  30
0.0
  40
 60.000000000000
 100
AcDbArc
  50
 90.000000000000
  51
 102.90489150369
   0
ARC
   5
3D3
 100
AcDbEntity
   8
0
   6
DOT
  62
2
 100
AcDbCircle
  10
 371.94582279502
  20
 59.388639471486
  30
0.0
  40
 60.000000000000
 100
AcDbArc
  50
 77.095108496313
  51
 90.000000000000
   0
ARC
   5
3D4
 100
AcDbEntity
   8
0
   6
DOT
  62
2
 100
AcDbCircle
  10
 295.43442821716
  20
 164.38863947149
  30
0.0
  40
 60.000000000000
 100
AcDbArc
  50
 180.00000000000
  51
 192.90489150369
   0
ARC
   5
3D5
 100
AcDbEntity
   8
0
   6
DOT
  62
2
 100
AcDbCircle
  10
 295.43442821716
  20
 164.38863947149
  30
0.0
  40
 60.000000000000
 100
AcDbArc
  50
 167.09510849631
  51
 180.00000000000
   0
LINE
   5
3D6
 100
AcDbEntity
   8
0
 100
AcDbLine
   6
HIDDEN
  62
7
  10
 190.51427364464
  20
 112.38863947149
  30
0.0
  11
 190.55458278969
  21
 112.38863947149
  31
0.0
   0
LINE
   5
3D7
 100
AcDbEntity
   8
0
 100
AcDbLine
   6
HIDDEN
  62
7
  10
 242.43442821716
  20
 164.40879404401
  30
0.0
  11
 242.43442821716
  21
 164.36848489896
  31
0.0
   0
DIMENSION
   5
3D8
 100
AcDbEntity
   8
0
   6
CONTINUOUS
  62
6
 100
AcDbDimension
   2
*D1
  10
 203.93442821716
  20
 187.09018735697
  30
0.0
  11
 190.53442821716
  21
 187.09018735697
  31
0.0
  70
0
   3
GMM001
 100
AcDbAlignedDimension
  13
 177.13442821716
  23
 164.38863947149
  33
0.0
  14
 203.93442821716
  24
 164.38863947149
  34
0.0
 100
AcDbRotatedDimension
   0
DIMENSION
   5
3D9
 100
AcDbEntity
   8
0
   6
CONTINUOUS
  62
6
 100
AcDbDimension
   2
*D2
  10
 385.34582279502
  20
 187.09018735699
  30
0.0
  11
 371.94582279502
  21
 187.09018735699
  31
0.0
  70
0
   3
GMM001
 100
AcDbAlignedDimension
  13
 358.54582279502
  23
 164.38863947150
  33
0.0
  14
 385.34582279502
  24
 164.38863947150
  34
0.0
 100
AcDbRotatedDimension
   0
DIMENSION
   5
3DA
 100
AcDbEntity
   8
0
   6
CONTINUOUS
  62
6
 100
AcDbDimension
   2
*D3
  10
 272.93761953147
  20
 149.48863947149
  30
0.0
  11
 272.93761953147
  21
 164.38863947149
  31
0.0
  70
0
   3
GMM001
 100
AcDbAlignedDimension
  13
 247.93442821716
  23
 179.28863947149
  33
0.0
  14
 247.93442821716
  24
 149.48863947149
  34
0.0
  50
 270.00000000000
 100
AcDbRotatedDimension
   0
DIMENSION
   5
3DB
 100
AcDbEntity
   8
0
   6
CONTINUOUS
  62
6
 100
AcDbDimension
   2
*D4
  10
 306.34335958993
  20
 149.48863947149
  30
0.0
  11
 306.34335958993
  21
 164.38863947149
  31
0.0
  70
0
   3
GMM001
 100
AcDbAlignedDimension
  13
 313.94582279502
  23
 179.28863947149
  33
0.0
  14
 313.94582279502
  24
 149.48863947149
  34
0.0
  50
 270.00000000000
 100
AcDbRotatedDimension
   0
LINE
   5
3DC
 100
AcDbEntity
   8
0
 100
AcDbLine
   6
CONTINUOUS
  62
7
  10
 235.14300920276
  20
 180.51863947149
  30
0.0
  11
 235.14300920276
  21
 179.86863947149
  31
0.0
   0
LINE
   5
3DD
 100
AcDbEntity
   8
0
 100
AcDbLine
   6
CONTINUOUS
  62
7
  10
 235.14300920276
  20
 179.86863947149
  30
0.0
  11
 235.14300920276
  21
 179.21863947149
  31
0.0
   0
ARC
   5
3DE
 100
AcDbEntity
   8
0
   6
CONTINUOUS
  62
7
 100
AcDbCircle
  10
 236.43442821716
  20
 180.48863947148
  30
0.0
  40
 1.4000000000000
 100
AcDbArc
  50
 89.999999999962
  51
 150.80769329762
   0
POINT
   5
3DF
 100
AcDbEntity
   8
0
 100
AcDbPoint
  62
7
  10
 235.17325871841
  20
 181.09646468924
  30
0.0
   0
ARC
   5
3E0
 100
AcDbEntity
   8
0
   6
DOT
  62
2
 100
AcDbCircle
  10
 236.43442821716
  20
 179.25147516634
  30
0.0
  40
 1.4000000000001
 100
AcDbArc
  50
 209.29075699251
  51
 269.50000000001
   0
LINE
   5
3E1
 100
AcDbEntity
   8
0
 100
AcDbLine
   6
CONTINUOUS
  62
7
  10
 236.93442821716
  20
 181.88863947149
  30
0.0
  11
 236.43442821716
  21
 181.88863947149
  31
0.0
   0
LINE
   5
3E2
 100
AcDbEntity
   8
0
 100
AcDbLine
   6
CONTINUOUS
  62
7
  10
 235.14300920276
  20
 179.21863947149
  30
0.0
  11
 235.14300920276
  21
 164.38863947149
  31
0.0
   0
DIMENSION
   5
3E3
 100
AcDbEntity
   8
0
   6
CONTINUOUS
  62
6
 100
AcDbDimension
   2
*D5
  10
 235.14300920276
  20
 200.35663695822
  30
0.0
  11
 249.28871870996
  21
 200.35663695822
  31
0.0
  70
0
   1
\A1;28.3
   3
GMM002
 100
AcDbAlignedDimension
  13
 263.43442821716
  23
 174.98863947149
  33
0.0
  14
 235.14300920276
  24
 180.51863947149
  34
0.0
  50
 180.00000000000
 100
AcDbRotatedDimension
   0
ARC
   5
3E4
 100
AcDbEntity
   8
0
   6
DOT
  62
2
 100
AcDbCircle
  10
 235.29954436839
  20
 181.12270464941
  30
0.0
  40
 0.10000000000002
 100
AcDbArc
  50
 180.00000000611
  51
 230.90614113308
   0
ARC
   5
3E5
 100
AcDbEntity
   8
0
   6
CONTINUOUS
  62
7
 100
AcDbCircle
  10
 235.29954436840
  20
 181.12270464936
  30
0.0
  40
 0.10000000000002
 100
AcDbArc
  50
 150.80769327924
  51
 179.99999997852
   0
ARC
   5
3E6
 100
AcDbEntity
   8
0
   6
CONTINUOUS
  62
7
 100
AcDbCircle
  10
 235.24300920276
  20
 180.51863947148
  30
0.0
  40
 0.10000000000001
 100
AcDbArc
  50
 129.09385888952
  51
 179.99999999542
   0
LINE
   5
3E7
 100
AcDbEntity
   8
0
 100
AcDbLine
   6
CONTINUOUS
  62
7
  10
 235.19954436841
  20
 180.61217134436
  30
0.0
  11
 235.17994994025
  21
 180.59625087148
  31
0.0
   0
LINE
   5
3E8
 100
AcDbEntity
   8
0
 100
AcDbLine
   6
CONTINUOUS
  62
7
  10
 235.19954436841
  20
 181.12270464939
  30
0.0
  11
 235.19954436841
  21
 164.38863947149
  31
0.0
   0
CIRCLE
   5
3E9
 100
AcDbEntity
   8
0
 100
AcDbCircle
   6
CONTINUOUS
  62
1
  10
 190.53442821716
  20
 164.38863947155
  30
0.0
  40
 16.707825217690
   0
CIRCLE
   5
3EA
 100
AcDbEntity
   8
0
 100
AcDbCircle
   6
CONTINUOUS
  62
1
  10
 190.53442821716
  20
 164.38863947155
  30
0.0
  40
 16.129999999940
   0
CIRCLE
   5
3EB
 100
AcDbEntity
   8
0
 100
AcDbCircle
   6
CONTINUOUS
  62
1
  10
 190.53442821716
  20
 164.38863947155
  30
0.0
  40
 15.479999999940
   0
CIRCLE
   5
3EC
 100
AcDbEntity
   8
0
 100
AcDbCircle
   6
CONTINUOUS
  62
1
  10
 190.53442821716
  20
 164.38863947155
  30
0.0
  40
 14.829999999940
   0
CIRCLE
   5
3ED
 100
AcDbEntity
   8
0
 100
AcDbCircle
   6
CONTINUOUS
  62
1
  10
 190.53442821716
  20
 164.38863947155
  30
0.0
  40
 14.252973919790
   0
CIRCLE
   5
3EE
 100
AcDbEntity
   8
0
 100
AcDbCircle
   6
CONTINUOUS
  62
7
  10
 190.53442821716
  20
 164.38863947155
  30
0.0
  40
 13.450000000000
   0
CIRCLE
   5
3EF
 100
AcDbEntity
   8
0
 100
AcDbCircle
   6
CONTINUOUS
  62
7
  10
 190.53442821716
  20
 164.38863947155
  30
0.0
  40
 13.250000000000
   0
CIRCLE
   5
3F0
 100
AcDbEntity
   8
0
 100
AcDbCircle
   6
CONTINUOUS
  62
1
  10
 371.94582279502
  20
 164.38863947155
  30
0.0
  40
 14.829999999940
   0
CIRCLE
   5
3F1
 100
AcDbEntity
   8
0
 100
AcDbCircle
   6
CONTINUOUS
  62
1
  10
 371.94582279502
  20
 164.38863947155
  30
0.0
  40
 14.252973919790
   0
CIRCLE
   5
3F2
 100
AcDbEntity
   8
0
 100
AcDbCircle
   6
CONTINUOUS
  62
1
  10
 371.94582279502
  20
 164.38863947155
  30
0.0
  40
 16.707825217690
   0
CIRCLE
   5
3F3
 100
AcDbEntity
   8
0
 100
AcDbCircle
   6
CONTINUOUS
  62
1
  10
 371.94582279502
  20
 164.38863947155
  30
0.0
  40
 16.129999999940
   0
CIRCLE
   5
3F4
 100
AcDbEntity
   8
0
 100
AcDbCircle
   6
CONTINUOUS
  62
1
  10
 371.94582279502
  20
 164.38863947155
  30
0.0
  40
 15.479999999940
   0
CIRCLE
   5
3F5
 100
AcDbEntity
   8
0
 100
AcDbCircle
   6
CONTINUOUS
  62
7
  10
 371.94582279502
  20
 164.38863947155
  30
0.0
  40
 13.450000000000
   0
CIRCLE
   5
3F6
 100
AcDbEntity
   8
0
 100
AcDbCircle
   6
CONTINUOUS
  62
7
  10
 371.94582279502
  20
 164.38863947155
  30
0.0
  40
 13.250000000000
   0
LINE
   5
3F7
 100
AcDbEntity
   8
0
 100
AcDbLine
   6
CONTINUOUS
  62
7
  10
 236.93442821716
  20
 146.88863947149
  30
0.0
  11
 236.93442821716
  21
 164.38863947149
  31
0.0
   0
ARC
   5
3F8
 100
AcDbEntity
   8
0
   6
CONTINUOUS
  62
7
 100
AcDbCircle
  10
 236.43442821716
  20
 148.28863947149
  30
0.0
  40
 1.4000000000000
 100
AcDbArc
  50
 209.19230670231
  51
 270.00000000000
   0
LINE
   5
3F9
 100
AcDbEntity
   8
0
 100
AcDbLine
   6
CONTINUOUS
  62
7
  10
 236.93442821716
  20
 146.88863947149
  30
0.0
  11
 236.43442821716
  21
 146.88863947149
  31
0.0
   0
LINE
   5
3FA
 100
AcDbEntity
   8
0
 100
AcDbLine
   6
CONTINUOUS
  62
7
  10
 235.14300920276
  20
 148.25863947149
  30
0.0
  11
 235.14300920276
  21
 148.90863947149
  31
0.0
   0
LINE
   5
3FB
 100
AcDbEntity
   8
0
 100
AcDbLine
   6
CONTINUOUS
  62
7
  10
 235.14300920276
  20
 148.90863947149
  30
0.0
  11
 235.14300920276
  21
 149.55863947149
  31
0.0
   0
LINE
   5
3FC
 100
AcDbEntity
   8
0
 100
AcDbLine
   6
CONTINUOUS
  62
7
  10
 235.14300920276
  20
 149.55863947149
  30
0.0
  11
 235.14300920276
  21
 164.38863947149
  31
0.0
   0
ARC
   5
3FD
 100
AcDbEntity
   8
0
   6
CONTINUOUS
  62
7
 100
AcDbCircle
  10
 235.29954436840
  20
 147.65457429358
  30
0.0
  40
 0.10000000000002
 100
AcDbArc
  50
 180.00000000150
  51
 209.19230670332
   0
ARC
   5
3FE
 100
AcDbEntity
   8
0
   6
CONTINUOUS
  62
7
 100
AcDbCircle
  10
 235.24300920276
  20
 148.25863947154
  30
0.0
  40
 0.10000000000001
 100
AcDbArc
  50
 180.00000003143
  51
 230.90614112740
   0
LINE
   5
3FF
 100
AcDbEntity
   8
0
 100
AcDbLine
   6
CONTINUOUS
  62
7
  10
 235.19954436841
  20
 148.16510759861
  30
0.0
  11
 235.17994994025
  21
 148.18102807149
  31
0.0
   0
LINE
   5
400
 100
AcDbEntity
   8
0
 100
AcDbLine
   6
CONTINUOUS
  62
7
  10
 235.19954436841
  20
 147.65457429359
  30
0.0
  11
 235.19954436841
  21
 164.38863947149
  31
0.0
   0
ARC
   5
401
 100
AcDbEntity
   8
0
   6
DOT
  62
2
 100
AcDbCircle
  10
 236.43442821716
  20
 149.52580377664
  30
0.0
  40
 1.4000000000001
 100
AcDbArc
  50
 90.500000000072
  51
 150.70924300753
   0
DIMENSION
   5
402
 100
AcDbEntity
   8
0
   6
CONTINUOUS
  62
6
 100
AcDbDimension
   2
*D6
  10
 208.03442821716
  20
 195.66139211009
  30
0.0
  11
 190.53442821716
  21
 195.66139211009
  31
0.0
  70
0
   3
GMM001
 100
AcDbAlignedDimension
  13
 173.03442821716
  23
 164.38863947149
  33
0.0
  14
 208.03442821716
  24
 164.38863947149
  34
0.0
 100
AcDbRotatedDimension
   0
DIMENSION
   5
403
 100
AcDbEntity
   8
0
   6
CONTINUOUS
  62
6
 100
AcDbDimension
   2
*D7
  10
 389.44582279502
  20
 195.66139211009
  30
0.0
  11
 371.94582279502
  21
 195.66139211009
  31
0.0
  70
0
   3
GMM001
 100
AcDbAlignedDimension
  13
 354.44582279502
  23
 164.38863947149
  33
0.0
  14
 389.44582279502
  24
 164.38863947149
  34
0.0
 100
AcDbRotatedDimension
   0
LINE
   5
404
 100
AcDbEntity
   8
0
 100
AcDbLine
   6
CONTINUOUS
  62
7
  10
 327.23724180942
  20
 180.51863947149
  30
0.0
  11
 327.23724180942
  21
 179.86863947149
  31
0.0
   0
LINE
   5
405
 100
AcDbEntity
   8
0
 100
AcDbLine
   6
CONTINUOUS
  62
7
  10
 327.23724180942
  20
 179.86863947149
  30
0.0
  11
 327.23724180942
  21
 179.21863947149
  31
0.0
   0
ARC
   5
406
 100
AcDbEntity
   8
0
   6
CONTINUOUS
  62
7
 100
AcDbCircle
  10
 325.94582279502
  20
 180.48863947149
  30
0.0
  40
 1.4000000000000
 100
AcDbArc
  50
 29.192306702238
  51
 89.999999999967
   0
ARC
   5
407
 100
AcDbEntity
   8
0
   6
DOT
  62
2
 100
AcDbCircle
  10
 325.94582279502
  20
 179.25147516634
  30
0.0
  40
 1.4000000000001
 100
AcDbArc
  50
 270.50000000000
  51
 330.70924300750
   0
LINE
   5
408
 100
AcDbEntity
   8
0
 100
AcDbLine
   6
CONTINUOUS
  62
7
  10
 325.44582279502
  20
 181.88863947149
  30
0.0
  11
 325.94582279502
  21
 181.88863947149
  31
0.0
   0
LINE
   5
409
 100
AcDbEntity
   8
0
 100
AcDbLine
   6
CONTINUOUS
  62
7
  10
 327.23724180942
  20
 179.21863947149
  30
0.0
  11
 327.23724180942
  21
 164.38863947149
  31
0.0
   0
ARC
   5
40A
 100
AcDbEntity
   8
0
   6
CONTINUOUS
  62
7
 100
AcDbCircle
  10
 327.08070664378
  20
 181.12270464930
  30
0.0
  40
 0.10000000000002
 100
AcDbArc
  50
 0.54601727216357E-7
  51
 29.192306749671
   0
ARC
   5
40B
 100
AcDbEntity
   8
0
   6
CONTINUOUS
  62
7
 100
AcDbCircle
  10
 327.13724180942
  20
 180.51863947146
  30
0.0
  40
 0.10000000000001
 100
AcDbArc
  50
 0.17310359687142E-7
  51
 50.906141118487
   0
LINE
   5
40C
 100
AcDbEntity
   8
0
 100
AcDbLine
   6
CONTINUOUS
  62
7
  10
 327.18070664377
  20
 180.61217134436
  30
0.0
  11
 327.20030107192
  21
 180.59625087148
  31
0.0
   0
LINE
   5
40D
 100
AcDbEntity
   8
0
 100
AcDbLine
   6
CONTINUOUS
  62
7
  10
 327.18070664377
  20
 181.12270464939
  30
0.0
  11
 327.18070664377
  21
 164.38863947149
  31
0.0
   0
ARC
   5
40E
 100
AcDbEntity
   8
0
   6
CONTINUOUS
  62
7
 100
AcDbCircle
  10
 325.94582279502
  20
 148.28863947149
  30
0.0
  40
 1.4000000000000
 100
AcDbArc
  50
 269.99999999994
  51
 330.80769329757
   0
LINE
   5
40F
 100
AcDbEntity
   8
0
 100
AcDbLine
   6
CONTINUOUS
  62
7
  10
 325.44582279502
  20
 146.88863947149
  30
0.0
  11
 325.94582279502
  21
 146.88863947149
  31
0.0
   0
LINE
   5
410
 100
AcDbEntity
   8
0
 100
AcDbLine
   6
CONTINUOUS
  62
7
  10
 327.23724180942
  20
 148.25863947149
  30
0.0
  11
 327.23724180942
  21
 148.90863947149
  31
0.0
   0
LINE
   5
411
 100
AcDbEntity
   8
0
 100
AcDbLine
   6
CONTINUOUS
  62
7
  10
 327.23724180942
  20
 148.90863947149
  30
0.0
  11
 327.23724180942
  21
 149.55863947149
  31
0.0
   0
LINE
   5
412
 100
AcDbEntity
   8
0
 100
AcDbLine
   6
CONTINUOUS
  62
7
  10
 327.23724180942
  20
 149.55863947149
  30
0.0
  11
 327.23724180942
  21
 164.38863947149
  31
0.0
   0
ARC
   5
413
 100
AcDbEntity
   8
0
   6
CONTINUOUS
  62
7
 100
AcDbCircle
  10
 327.08070664378
  20
 147.65457429349
  30
0.0
  40
 0.10000000000002
 100
AcDbArc
  50
 330.80769334236
  51
 0.50823737143528E-7
   0
ARC
   5
414
 100
AcDbEntity
   8
0
   6
CONTINUOUS
  62
7
 100
AcDbCircle
  10
 327.13724180942
  20
 148.25863947152
  30
0.0
  40
 0.10000000000001
 100
AcDbArc
  50
 309.09385888151
  51
0.0
   0
LINE
   5
415
 100
AcDbEntity
   8
0
 100
AcDbLine
   6
CONTINUOUS
  62
7
  10
 327.18070664377
  20
 148.16510759861
  30
0.0
  11
 327.20030107192
  21
 148.18102807149
  31
0.0
   0
LINE
   5
416
 100
AcDbEntity
   8
0
 100
AcDbLine
   6
CONTINUOUS
  62
7
  10
 327.18070664377
  20
 147.65457429359
  30
0.0
  11
 327.18070664377
  21
 164.38863947149
  31
0.0
   0
ARC
   5
417
 100
AcDbEntity
   8
0
   6
DOT
  62
2
 100
AcDbCircle
  10
 325.94582279501
  20
 149.52580377664
  30
0.0
  40
 1.4000000000001
 100
AcDbArc
  50
 29.290756992404
  51
 89.499999999804
   0
DIMENSION
   5
418
 100
AcDbEntity
   8
0
   6
CONTINUOUS
  62
6
 100
AcDbDimension
   2
*D8
  10
 309.94582279502
  20
 200.35663695822
  30
0.0
  11
 318.59153230222
  21
 200.35663695822
  31
0.0
  70
0
   1
\A1;17.3
   3
GMM002
 100
AcDbAlignedDimension
  13
 327.23724180942
  23
 180.51863947149
  33
0.0
  14
 309.94582279502
  24
 176.18863947149
  34
0.0
  50
 180.00000000000
 100
AcDbRotatedDimension
   0
LINE
   5
419
 100
AcDbEntity
   8
0
 100
AcDbLine
   6
DOT
  62
2
  10
 325.95803994472
  20
 177.85152847404
  30
0.0
  11
 325.44582279502
  21
 177.84705842268
  31
0.0
   0
LINE
   5
41A
 100
AcDbEntity
   8
0
 100
AcDbLine
   6
DOT
  62
2
  10
 325.95803994472
  20
 150.92575046894
  30
0.0
  11
 325.44582279502
  21
 150.93022052029
  31
0.0
   0
LINE
   5
41B
 100
AcDbEntity
   8
0
 100
AcDbLine
   6
DOT
  62
2
  10
 236.42221106746
  20
 177.85152847404
  30
0.0
  11
 236.93442821716
  21
 177.84705842268
  31
0.0
   0
LINE
   5
41C
 100
AcDbEntity
   8
0
 100
AcDbLine
   6
DOT
  62
2
  10
 236.42221106746
  20
 150.92575046894
  30
0.0
  11
 236.93442821716
  21
 150.93022052029
  31
0.0
   0
LINE
   5
41D
 100
AcDbEntity
   8
0
 100
AcDbLine
   6
CONTINUOUS
  62
7
  10
 355.81582279502
  20
 119.68005848589
  30
0.0
  11
 356.46582279502
  21
 119.68005848589
  31
0.0
   0
LINE
   5
41E
 100
AcDbEntity
   8
0
 100
AcDbLine
   6
CONTINUOUS
  62
7
  10
 356.46582279502
  20
 119.68005848589
  30
0.0
  11
 357.11582279502
  21
 119.68005848589
  31
0.0
   0
ARC
   5
41F
 100
AcDbEntity
   8
0
   6
CONTINUOUS
  62
7
 100
AcDbCircle
  10
 355.84582279502
  20
 118.38863947149
  30
0.0
  40
 1.4000000000000
 100
AcDbArc
  50
 119.19230670230
  51
 180.00000000000
   0
ARC
   5
420
 100
AcDbEntity
   8
0
   6
DOT
  62
2
 100
AcDbCircle
  10
 357.08298710017
  20
 118.38863947149
  30
0.0
  40
 1.4000000000001
 100
AcDbArc
  50
 0.50000000003933
  51
 60.709243007517
   0
LINE
   5
421
 100
AcDbEntity
   8
0
 100
AcDbLine
   6
CONTINUOUS
  62
7
  10
 354.44582279502
  20
 117.88863947149
  30
0.0
  11
 354.44582279502
  21
 118.38863947149
  31
0.0
   0
LINE
   5
422
 100
AcDbEntity
   8
0
 100
AcDbLine
   6
CONTINUOUS
  62
7
  10
 357.11582279502
  20
 119.68005848589
  30
0.0
  11
 371.94582279502
  21
 119.68005848589
  31
0.0
   0
ARC
   5
423
 100
AcDbEntity
   8
0
   6
CONTINUOUS
  62
7
 100
AcDbCircle
  10
 355.21175761719
  20
 119.52352332025
  30
0.0
  40
 0.10000000000002
 100
AcDbArc
  50
 90.000000047941
  51
 119.19230674386
   0
ARC
   5
424
 100
AcDbEntity
   8
0
   6
CONTINUOUS
  62
7
 100
AcDbCircle
  10
 355.81582279500
  20
 119.58005848589
  30
0.0
  40
 0.10000000000001
 100
AcDbArc
  50
 89.999999993291
  51
 140.90614110335
   0
LINE
   5
425
 100
AcDbEntity
   8
0
 100
AcDbLine
   6
CONTINUOUS
  62
7
  10
 355.72229092214
  20
 119.62352332024
  30
0.0
  11
 355.73821139502
  21
 119.64311774839
  31
0.0
   0
LINE
   5
426
 100
AcDbEntity
   8
0
 100
AcDbLine
   6
CONTINUOUS
  62
7
  10
 355.21175761712
  20
 119.62352332024
  30
0.0
  11
 371.94582279502
  21
 119.62352332024
  31
0.0
   0
ARC
   5
427
 100
AcDbEntity
   8
0
   6
CONTINUOUS
  62
7
 100
AcDbCircle
  10
 388.04582279501
  20
 118.38863947149
  30
0.0
  40
 1.4000000000000
 100
AcDbArc
  50
0.0
  51
 60.807693297557
   0
LINE
   5
428
 100
AcDbEntity
   8
0
 100
AcDbLine
   6
CONTINUOUS
  62
7
  10
 389.44582279502
  20
 117.88863947149
  30
0.0
  11
 389.44582279502
  21
 118.38863947149
  31
0.0
   0
LINE
   5
429
 100
AcDbEntity
   8
0
 100
AcDbLine
   6
CONTINUOUS
  62
7
  10
 388.07582279502
  20
 119.68005848589
  30
0.0
  11
 387.42582279502
  21
 119.68005848589
  31
0.0
   0
LINE
   5
42A
 100
AcDbEntity
   8
0
 100
AcDbLine
   6
CONTINUOUS
  62
7
  10
 387.42582279502
  20
 119.68005848589
  30
0.0
  11
 386.77582279502
  21
 119.68005848589
  31
0.0
   0
LINE
   5
42B
 100
AcDbEntity
   8
0
 100
AcDbLine
   6
CONTINUOUS
  62
7
  10
 386.77582279502
  20
 119.68005848589
  30
0.0
  11
 371.94582279502
  21
 119.68005848589
  31
0.0
   0
ARC
   5
42C
 100
AcDbEntity
   8
0
   6
CONTINUOUS
  62
7
 100
AcDbCircle
  10
 388.67988797266
  20
 119.52352332025
  30
0.0
  40
 0.10000000000002
 100
AcDbArc
  50
 60.807693166582
  51
 89.999999849467
   0
ARC
   5
42D
 100
AcDbEntity
   8
0
   6
CONTINUOUS
  62
7
 100
AcDbCircle
  10
 388.07582279493
  20
 119.58005848589
  30
0.0
  40
 0.10000000000001
 100
AcDbArc
  50
 39.093858861862
  51
 89.999999951538
   0
LINE
   5
42E
 100
AcDbEntity
   8
0
 100
AcDbLine
   6
CONTINUOUS
  62
7
  10
 388.16935466789
  20
 119.62352332024
  30
0.0
  11
 388.15343419501
  21
 119.64311774839
  31
0.0
   0
LINE
   5
42F
 100
AcDbEntity
   8
0
 100
AcDbLine
   6
CONTINUOUS
  62
7
  10
 388.67988797292
  20
 119.62352332024
  30
0.0
  11
 371.94582279502
  21
 119.62352332024
  31
0.0
   0
ARC
   5
430
 100
AcDbEntity
   8
0
   6
DOT
  62
2
 100
AcDbCircle
  10
 386.80865848987
  20
 118.38863947148
  30
0.0
  40
 1.4000000000001
 100
AcDbArc
  50
 119.29075699229
  51
 179.49999999956
   0
LINE
   5
431
 100
AcDbEntity
   8
0
 100
AcDbLine
   6
CONTINUOUS
  62
7
  10
 174.40442821716
  20
 119.68005848589
  30
0.0
  11
 175.05442821716
  21
 119.68005848589
  31
0.0
   0
LINE
   5
432
 100
AcDbEntity
   8
0
 100
AcDbLine
   6
CONTINUOUS
  62
7
  10
 175.05442821716
  20
 119.68005848589
  30
0.0
  11
 175.70442821716
  21
 119.68005848589
  31
0.0
   0
ARC
   5
433
 100
AcDbEntity
   8
0
   6
CONTINUOUS
  62
7
 100
AcDbCircle
  10
 174.43442821716
  20
 118.38863947149
  30
0.0
  40
 1.4000000000000
 100
AcDbArc
  50
 119.19230670233
  51
 180.00000000001
   0
ARC
   5
434
 100
AcDbEntity
   8
0
   6
DOT
  62
2
 100
AcDbCircle
  10
 175.67159252231
  20
 118.38863947149
  30
0.0
  40
 1.4000000000001
 100
AcDbArc
  50
 0.49999999996489
  51
 60.709243007481
   0
LINE
   5
435
 100
AcDbEntity
   8
0
 100
AcDbLine
   6
CONTINUOUS
  62
7
  10
 173.03442821716
  20
 117.88863947149
  30
0.0
  11
 173.03442821716
  21
 118.38863947149
  31
0.0
   0
LINE
   5
436
 100
AcDbEntity
   8
0
 100
AcDbLine
   6
CONTINUOUS
  62
7
  10
 175.70442821716
  20
 119.68005848589
  30
0.0
  11
 190.53442821716
  21
 119.68005848589
  31
0.0
   0
ARC
   5
437
 100
AcDbEntity
   8
0
   6
CONTINUOUS
  62
7
 100
AcDbCircle
  10
 173.80036303926
  20
 119.52352332025
  30
0.0
  40
 0.10000000000002
 100
AcDbArc
  50
 90.000000006839
  51
 119.19230670798
   0
ARC
   5
438
 100
AcDbEntity
   8
0
   6
CONTINUOUS
  62
7
 100
AcDbCircle
  10
 174.40442821718
  20
 119.58005848589
  30
0.0
  40
 0.10000000000001
 100
AcDbArc
  50
 90.000000011041
  51
 140.90614111454
   0
LINE
   5
439
 100
AcDbEntity
   8
0
 100
AcDbLine
   6
CONTINUOUS
  62
7
  10
 174.31089634429
  20
 119.62352332024
  30
0.0
  11
 174.32681681717
  21
 119.64311774839
  31
0.0
   0
LINE
   5
43A
 100
AcDbEntity
   8
0
 100
AcDbLine
   6
CONTINUOUS
  62
7
  10
 173.80036303926
  20
 119.62352332024
  30
0.0
  11
 190.53442821716
  21
 119.62352332024
  31
0.0
   0
ARC
   5
43B
 100
AcDbEntity
   8
0
   6
CONTINUOUS
  62
7
 100
AcDbCircle
  10
 206.63442821716
  20
 118.38863947149
  30
0.0
  40
 1.4000000000000
 100
AcDbArc
  50
0.0
  51
 60.807693297586
   0
LINE
   5
43C
 100
AcDbEntity
   8
0
 100
AcDbLine
   6
CONTINUOUS
  62
7
  10
 208.03442821716
  20
 117.88863947149
  30
0.0
  11
 208.03442821716
  21
 118.38863947149
  31
0.0
   0
LINE
   5
43D
 100
AcDbEntity
   8
0
 100
AcDbLine
   6
CONTINUOUS
  62
7
  10
 206.66442821716
  20
 119.68005848589
  30
0.0
  11
 206.01442821716
  21
 119.68005848589
  31
0.0
   0
LINE
   5
43E
 100
AcDbEntity
   8
0
 100
AcDbLine
   6
CONTINUOUS
  62
7
  10
 206.01442821716
  20
 119.68005848589
  30
0.0
  11
 205.36442821716
  21
 119.68005848589
  31
0.0
   0
LINE
   5
43F
 100
AcDbEntity
   8
0
 100
AcDbLine
   6
CONTINUOUS
  62
7
  10
 205.36442821716
  20
 119.68005848589
  30
0.0
  11
 190.53442821716
  21
 119.68005848589
  31
0.0
   0
ARC
   5
440
 100
AcDbEntity
   8
0
   6
CONTINUOUS
  62
7
 100
AcDbCircle
  10
 207.26849339504
  20
 119.52352332025
  30
0.0
  40
 0.10000000000002
 100
AcDbArc
  50
 60.807693279927
  51
 89.999999979302
   0
ARC
   5
441
 100
AcDbEntity
   8
0
   6
CONTINUOUS
  62
7
 100
AcDbCircle
  10
 206.66442821713
  20
 119.58005848589
  30
0.0
  40
 0.10000000000001
 100
AcDbArc
  50
 39.093858881558
  51
 89.999999982771
   0
LINE
   5
442
 100
AcDbEntity
   8
0
 100
AcDbLine
   6
CONTINUOUS
  62
7
  10
 206.75796009004
  20
 119.62352332024
  30
0.0
  11
 206.74203961715
  21
 119.64311774839
  31
0.0
   0
LINE
   5
443
 100
AcDbEntity
   8
0
 100
AcDbLine
   6
CONTINUOUS
  62
7
  10
 207.26849339506
  20
 119.62352332024
  30
0.0
  11
 190.53442821716
  21
 119.62352332024
  31
0.0
   0
ARC
   5
444
 100
AcDbEntity
   8
0
   6
DOT
  62
2
 100
AcDbCircle
  10
 205.39726391201
  20
 118.38863947148
  30
0.0
  40
 1.4000000000001
 100
AcDbArc
  50
 119.29075699246
  51
 179.49999999992
   0
LINE
   5
445
 100
AcDbEntity
   8
0
 100
AcDbLine
   6
DOT
  62
2
  10
 177.07153921461
  20
 118.40085662119
  30
0.0
  11
 177.07600926597
  21
 117.88863947149
  31
0.0
   0
LINE
   5
446
 100
AcDbEntity
   8
0
 100
AcDbLine
   6
DOT
  62
2
  10
 203.99731721971
  20
 118.40085662119
  30
0.0
  11
 203.99284716836
  21
 117.88863947149
  31
0.0
   0
LINE
   5
447
 100
AcDbEntity
   8
0
 100
AcDbLine
   6
DOT
  62
2
  10
 358.48293379247
  20
 118.40085662119
  30
0.0
  11
 358.48740384382
  21
 117.88863947149
  31
0.0
   0
LINE
   5
448
 100
AcDbEntity
   8
0
 100
AcDbLine
   6
DOT
  62
2
  10
 385.40871179757
  20
 118.40085662119
  30
0.0
  11
 385.40424174621
  21
 117.88863947149
  31
0.0
   0
LINE
   5
449
 100
AcDbEntity
   8
0
 100
AcDbLine
   6
DOT
  62
2
  10
 245.93442821716
  20
 179.58863947149
  30
0.0
  11
 246.23442821716
  21
 179.58863947149
  31
0.0
   0
LINE
   5
44A
 100
AcDbEntity
   8
0
 100
AcDbLine
   6
DOT
  62
2
  10
 246.23442821716
  20
 179.58863947149
  30
0.0
  11
 247.93442821716
  21
 179.28863947149
  31
0.0
   0
LINE
   5
44B
 100
AcDbEntity
   8
0
 100
AcDbLine
   6
DOT
  62
2
  10
 245.93442821716
  20
 179.28863947149
  30
0.0
  11
 245.93442821716
  21
 179.58863947149
  31
0.0
   0
LINE
   5
44C
 100
AcDbEntity
   8
0
 100
AcDbLine
   6
DOT
  62
2
  10
 240.93442821716
  20
 179.58863947149
  30
0.0
  11
 241.23442821716
  21
 179.58863947149
  31
0.0
   0
LINE
   5
44D
 100
AcDbEntity
   8
0
 100
AcDbLine
   6
DOT
  62
2
  10
 241.23442821716
  20
 179.58863947149
  30
0.0
  11
 242.93442821716
  21
 179.28863947149
  31
0.0
   0
LINE
   5
44E
 100
AcDbEntity
   8
0
 100
AcDbLine
   6
DOT
  62
2
  10
 240.93442821716
  20
 179.28863947149
  30
0.0
  11
 240.93442821716
  21
 179.58863947149
  31
0.0
   0
LINE
   5
44F
 100
AcDbEntity
   8
0
 100
AcDbLine
   6
DOT
  62
2
  10
 240.93442821716
  20
 149.18863947149
  30
0.0
  11
 241.23442821716
  21
 149.18863947149
  31
0.0
   0
LINE
   5
450
 100
AcDbEntity
   8
0
 100
AcDbLine
   6
DOT
  62
2
  10
 241.23442821716
  20
 149.18863947149
  30
0.0
  11
 242.93442821716
  21
 149.48863947149
  31
0.0
   0
LINE
   5
451
 100
AcDbEntity
   8
0
 100
AcDbLine
   6
DOT
  62
2
  10
 245.93442821716
  20
 149.18863947149
  30
0.0
  11
 246.23442821716
  21
 149.18863947149
  31
0.0
   0
LINE
   5
452
 100
AcDbEntity
   8
0
 100
AcDbLine
   6
DOT
  62
2
  10
 246.23442821716
  20
 149.18863947149
  30
0.0
  11
 247.93442821716
  21
 149.48863947149
  31
0.0
   0
LINE
   5
453
 100
AcDbEntity
   8
0
 100
AcDbLine
   6
DOT
  62
2
  10
 245.93442821716
  20
 149.48863947149
  30
0.0
  11
 245.93442821716
  21
 149.18863947149
  31
0.0
   0
LINE
   5
454
 100
AcDbEntity
   8
0
 100
AcDbLine
   6
DOT
  62
2
  10
 240.93442821716
  20
 149.48863947149
  30
0.0
  11
 240.93442821716
  21
 149.18863947149
  31
0.0
   0
LINE
   5
455
 100
AcDbEntity
   8
0
 100
AcDbLine
   6
DOT
  62
2
  10
 316.44582279502
  20
 179.58863947149
  30
0.0
  11
 316.14582279502
  21
 179.58863947149
  31
0.0
   0
LINE
   5
456
 100
AcDbEntity
   8
0
 100
AcDbLine
   6
DOT
  62
2
  10
 316.14582279502
  20
 179.58863947149
  30
0.0
  11
 314.44582279502
  21
 179.28863947149
  31
0.0
   0
LINE
   5
457
 100
AcDbEntity
   8
0
 100
AcDbLine
   6
DOT
  62
2
  10
 316.44582279502
  20
 179.28863947149
  30
0.0
  11
 316.44582279502
  21
 179.58863947149
  31
0.0
   0
LINE
   5
458
 100
AcDbEntity
   8
0
 100
AcDbLine
   6
DOT
  62
2
  10
 321.44582279502
  20
 179.58863947149
  30
0.0
  11
 321.14582279502
  21
 179.58863947149
  31
0.0
   0
LINE
   5
459
 100
AcDbEntity
   8
0
 100
AcDbLine
   6
DOT
  62
2
  10
 321.14582279502
  20
 179.58863947149
  30
0.0
  11
 319.44582279502
  21
 179.28863947149
  31
0.0
   0
LINE
   5
45A
 100
AcDbEntity
   8
0
 100
AcDbLine
   6
DOT
  62
2
  10
 321.44582279502
  20
 179.28863947149
  30
0.0
  11
 321.44582279502
  21
 179.58863947149
  31
0.0
   0
LINE
   5
45B
 100
AcDbEntity
   8
0
 100
AcDbLine
   6
DOT
  62
2
  10
 321.44582279502
  20
 149.18863947149
  30
0.0
  11
 321.14582279502
  21
 149.18863947149
  31
0.0
   0
LINE
   5
45C
 100
AcDbEntity
   8
0
 100
AcDbLine
   6
DOT
  62
2
  10
 321.14582279502
  20
 149.18863947149
  30
0.0
  11
 319.44582279502
  21
 149.48863947149
  31
0.0
   0
LINE
   5
45D
 100
AcDbEntity
   8
0
 100
AcDbLine
   6
DOT
  62
2
  10
 316.44582279502
  20
 149.18863947149
  30
0.0
  11
 316.14582279502
  21
 149.18863947149
  31
0.0
   0
LINE
   5
45E
 100
AcDbEntity
   8
0
 100
AcDbLine
   6
DOT
  62
2
  10
 316.14582279502
  20
 149.18863947149
  30
0.0
  11
 314.44582279502
  21
 149.48863947149
  31
0.0
   0
LINE
   5
45F
 100
AcDbEntity
   8
0
 100
AcDbLine
   6
DOT
  62
2
  10
 316.44582279502
  20
 149.48863947149
  30
0.0
  11
 316.44582279502
  21
 149.18863947149
  31
0.0
   0
LINE
   5
460
 100
AcDbEntity
   8
0
 100
AcDbLine
   6
DOT
  62
2
  10
 321.44582279502
  20
 149.48863947149
  30
0.0
  11
 321.44582279502
  21
 149.18863947149
  31
0.0
   0
DIMENSION
   5
461
 100
AcDbEntity
   8
0
   6
CONTINUOUS
  62
6
 100
AcDbDimension
   2
*D9
  10
 272.93761953147
  20
 179.58863947149
  30
0.0
  11
 272.93761953147
  21
 186.06159969459
  31
0.0
  70
128
   3
GMM003
 100
AcDbAlignedDimension
  13
 248.93442821716
  23
 179.28863947149
  33
0.0
  14
 246.23442821716
  24
 179.58863947149
  34
0.0
  50
 90.000000000000
 100
AcDbRotatedDimension
   0
DIMENSION
   5
462
 100
AcDbEntity
   8
0
   6
CONTINUOUS
  62
6
 100
AcDbDimension
   2
*D10
  10
 272.93761953147
  20
 149.48863947149
  30
0.0
  11
 272.93761953147
  21
 144.34237123301
  31
0.0
  70
128
   3
GMM003
 100
AcDbAlignedDimension
  13
 246.23442821716
  23
 149.18863947149
  33
0.0
  14
 248.93442821716
  24
 149.48863947149
  34
0.0
  50
 90.000000000000
 100
AcDbRotatedDimension
   0
TEXT
   5
463
 100
AcDbEntity
   8
0
  62
6
 100
AcDbText
  10
 358.48785161961
  20
 27.139058861391
  30
0.0
  40
 4.0000000000000
   1
組立図
   7
STANDARD
 100
AcDbText
   0
TEXT
   5
464
 100
AcDbEntity
   8
0
  62
6
 100
AcDbText
  10
 256.89212431220
  20
 33.998437965356
  30
0.0
  40
 4.0000000000000
   1
１０
   7
STANDARD
 100
AcDbText
   0
TEXT
   5
465
 100
AcDbEntity
   8
0
  62
6
 100
AcDbText
  10
 269.11633533994
  20
 33.998437965356
  30
0.0
  40
 4.0000000000000
   1
１９
   7
STANDARD
 100
AcDbText
   0
TEXT
   5
466
 100
AcDbEntity
   8
0
  62
6
 100
AcDbText
  10
 240.09903069972
  20
 33.998437965356
  30
0.0
  40
 4.0000000000000
   1
 '２２
   7
STANDARD
 100
AcDbText
   0
LINE
   5
467
 100
AcDbEntity
   8
0
 100
AcDbLine
   6
CONTINUOUS
  62
3
  10
 228.41198317335
  20
 40.623482664101
  30
0.0
  11
 228.41198317335
  21
 10.623482664101
  31
0.0
   0
TEXT
   5
468
 100
AcDbEntity
   8
0
  62
3
 100
AcDbText
  10
 15.000000000000
  20
 5.2415425549978
  30
0.0
  40
 4.2000000000000
   1
用紙サイズ：Ａ３
  41
 0.71428571428571
   7
STANDARD
 100
AcDbText
   0
TEXT
   5
469
 100
AcDbEntity
   8
0
  62
7
 100
AcDbText
  10
 344.01329241905
  20
 10.344329463407
  30
0.0
  40
 11.000000000000
   1
Ｋ３-２２５１
  41
 0.50000000000000
   7
STANDARD
 100
AcDbText
   0
ARC
   5
46A
 100
AcDbEntity
   8
0
   6
DOT
  62
2
 100
AcDbCircle
  10
 190.53442821716
  20
 59.388639471486
  30
0.0
  40
 60.000000000000
 100
AcDbArc
  50
 90.000000000000
  51
 102.90489150369
   0
ARC
   5
46B
 100
AcDbEntity
   8
0
   6
DOT
  62
2
 100
AcDbCircle
  10
 190.53442821716
  20
 59.388639471486
  30
0.0
  40
 60.000000000000
 100
AcDbArc
  50
 77.095108496313
  51
 90.000000000000
   0
DIMENSION
   5
46C
 100
AcDbEntity
   8
0
   6
CONTINUOUS
  62
6
 100
AcDbDimension
   2
*D11
  10
 235.14300920276
  20
 197.47591983088
  30
0.0
  11
 227.69457254801
  21
 197.47591983088
  31
0.0
  70
128
   1
\A1;1.8
   3
GMM004
 100
AcDbAlignedDimension
  13
 236.93442821716
  23
 181.88863947149
  33
0.0
  14
 235.14300920276
  24
 180.51863947149
  34
0.0
  50
 180.00000000000
 100
AcDbRotatedDimension
   0
LINE
   5
46D
 100
AcDbEntity
   8
0
 100
AcDbLine
   6
CONTINUOUS
  62
7
  10
 313.44582279502
  20
 178.78863947149
  30
0.0
  11
 313.44582279502
  21
 164.38863947149
  31
0.0
   0
LINE
   5
46E
 100
AcDbEntity
   8
0
 100
AcDbLine
   6
CONTINUOUS
  62
7
  10
 313.44582279502
  20
 149.98863947149
  30
0.0
  11
 313.44582279502
  21
 164.38863947149
  31
0.0
   0
LINE
   5
46F
 100
AcDbEntity
   8
0
 100
AcDbLine
   6
CONTINUOUS
  62
7
  10
 357.54582279502
  20
 105.88863947149
  30
0.0
  11
 371.94582279502
  21
 105.88863947149
  31
0.0
   0
LINE
   5
470
 100
AcDbEntity
   8
0
 100
AcDbLine
   6
CONTINUOUS
  62
7
  10
 386.34582279502
  20
 105.88863947149
  30
0.0
  11
 371.94582279502
  21
 105.88863947149
  31
0.0
   0
LINE
   5
471
 100
AcDbEntity
   8
0
 100
AcDbLine
   6
CONTINUOUS
  62
7
  10
 190.53442821716
  20
 105.88863947149
  30
0.0
  11
 176.13442821716
  21
 105.88863947149
  31
0.0
   0
LINE
   5
472
 100
AcDbEntity
   8
0
 100
AcDbLine
   6
CONTINUOUS
  62
7
  10
 190.53442821716
  20
 105.88863947149
  30
0.0
  11
 204.93442821716
  21
 105.88863947149
  31
0.0
   0
CIRCLE
   5
473
 100
AcDbEntity
   8
0
 100
AcDbCircle
   6
CONTINUOUS
  62
7
  10
 103.14770441593
  20
 164.38863947149
  30
0.0
  40
 15.000000000000
   0
LINE
   5
474
 100
AcDbEntity
   8
0
 100
AcDbLine
   6
DASHDOT
  62
2
  10
 81.147704415935
  20
 164.38863947149
  30
0.0
  11
 125.14770441593
  21
 164.38863947149
  31
0.0
   0
LINE
   5
475
 100
AcDbEntity
   8
0
 100
AcDbLine
   6
DASHDOT
  62
2
  10
 103.14770441593
  20
 186.38863947149
  30
0.0
  11
 103.14770441593
  21
 142.38863947149
  31
0.0
   0
TEXT
   5
476
 100
AcDbEntity
   8
0
  62
7
 100
AcDbText
  10
 84.352706300135
  20
 128.32434110009
  30
0.0
  40
 4.0000000000000
   1
切欠き図　Ｓ＝１／１
   7
STANDARD
 100
AcDbText
   0
LWPOLYLINE
   5
477
 100
AcDbEntity
   8
0
   6
CONTINUOUS
  62
2
 100
AcDbPolyline
  90
4
  70
1
  10
 79.198787495622
  20
 194.13482613952
  10
 79.198787495622
  20
 122.97578577887
  10
 136.50112068208
  20
 122.97578577887
  10
 136.50112068208
  20
 194.13482613952
   0
INSERT
   5
478
 100
AcDbEntity
   8
0
 100
AcDbBlockReference
   2
BLOCK002
  10
0.0
  20
0.0
  30
0.0
   0
DIMENSION
   5
479
 100
AcDbEntity
   8
0
   6
CONTINUOUS
  62
2
 100
AcDbDimension
   2
*D12
  10
 96.871388117525
  20
 178.01243680271
  30
0.0
  11
 115.34590488859
  21
 137.91039918789
  31
0.0
  70
131
   1
\A1;%%c30{\H0.625x;\S +0.2^ -0;} 
   3
GMM005
 100
AcDbDiametricDimension
  15
 109.42402071434
  25
 150.76484214026
  35
0.0
  40
 14.152929583263
   0
TEXT
   5
47A
 100
AcDbEntity
   8
0
  62
6
 100
AcDbText
  10
 283.88459885582
  20
 32.748156581613
  30
0.0
  40
 4.0000000000000
   1
明かり取り%%c３５溝４
   7
STANDARD
 100
AcDbText
   0
TEXT
   5
47B
 100
AcDbEntity
   8
0
  62
2
 100
AcDbText
  10
 305.21446017383
  20
 50.623482664101
  30
0.0
  40
 4.0000000000000
   1
品番
   7
STANDARD
  11
 305.21446017383
  21
 52.623482664101
  31
0.0
 100
AcDbText
  73
2
   0
LINE
   5
47C
 100
AcDbEntity
   8
0
 100
AcDbLine
   6
CONTINUOUS
  62
3
  10
 304.06796834606
  20
 55.623482664101
  30
0.0
  11
 400.00000000000
  21
 55.623482664101
  31
0.0
   0
LINE
   5
47D
 100
AcDbEntity
   8
0
 100
AcDbLine
   6
CONTINUOUS
  62
3
  10
 304.06796834606
  20
 49.623482664101
  30
0.0
  11
 400.00000000000
  21
 49.623482664101
  31
0.0
   0
LINE
   5
47E
 100
AcDbEntity
   8
0
 100
AcDbLine
   6
CONTINUOUS
  62
3
  10
 304.06796834606
  20
 43.623482664101
  30
0.0
  11
 400.00000000000
  21
 43.623482664101
  31
0.0
   0
TEXT
   5
47F
 100
AcDbEntity
   8
0
  62
2
 100
AcDbText
  10
 304.06796834606
  20
 56.623482664101
  30
0.0
  40
 4.0000000000000
   1
表
   7
STANDARD
  11
 304.06796834606
  21
 58.623482664101
  31
0.0
 100
AcDbText
  73
2
   0
TEXT
   5
480
 100
AcDbEntity
   8
0
  62
7
 100
AcDbText
  10
 306.21940707223
  20
 44.623482664101
  30
0.0
  40
 4.0000000000000
   1
２５０－３１８
   7
STANDARD
  11
 306.21940707223
  21
 46.623482664101
  31
0.0
 100
AcDbText
  73
2
   0
TEXT
   5
481
 100
AcDbEntity
   8
0
  62
7
 100
AcDbText
  10
 348.21940707223
  20
 44.623482664101
  30
0.0
  40
 4.0000000000000
   1
弱乳白色
   7
STANDARD
  11
 348.21940707223
  21
 46.623482664101
  31
0.0
 100
AcDbText
  73
2
   0
LINE
   5
482
 100
AcDbEntity
   8
0
 100
AcDbLine
   6
CONTINUOUS
  62
3
  10
 304.06796834606
  20
 43.623482664101
  30
0.0
  11
 304.06796834606
  21
 55.623482664101
  31
0.0
   0
LINE
   5
483
 100
AcDbEntity
   8
0
 100
AcDbLine
   6
CONTINUOUS
  62
3
  10
 400.00000000000
  20
 43.623482664101
  30
0.0
  11
 400.00000000000
  21
 55.623482664101
  31
0.0
   0
LINE
   5
484
 100
AcDbEntity
   8
0
 100
AcDbLine
   6
DOT
  62
3
  10
 382.00000000000
  20
 49.623482664101
  30
0.0
  11
 382.00000000000
  21
 43.623482664101
  31
0.0
   0
LINE
   5
485
 100
AcDbEntity
   8
0
 100
AcDbLine
   6
CONTINUOUS
  62
3
  10
 346.06796834606
  20
 43.623482664101
  30
0.0
  11
 346.06796834606
  21
 55.623482664101
  31
0.0
   0
LEADER
   5
486
 100
AcDbEntity
   8
0
   6
CONTINUOUS
  62
6
 100
AcDbLeader
   3
GMM006
  73
0
  74
1
  75
0
  40
 4.0000000000000
  41
 21.000000000000
  76
2
  10
 179.53749820014
  20
 151.17795543278
  30
0.0
  10
 174.16223280872
  20
 146.43357793924
  30
0.0
  77
6
 340
487
 213
0.0
 223
-1.7142857142858
 233
0.0
   0
MTEXT
   5
487
 102
{ACAD_REACTORS
 330
486
 102
}
 100
AcDbEntity
   8
0
  62
6
 100
AcDbMText
  10
 153.16223280872
  20
 153.48119698686
  30
0.0
  40
 4.0000000000000
  41
0.0
  71
4
  72
1
   1
\A1;リング部\P表面に４重の溝
   7
GMM001
   0
LEADER
   5
488
 100
AcDbEntity
   8
0
   6
CONTINUOUS
  62
6
 100
AcDbLeader
   3
GMM006
  73
0
  74
0
  75
0
  40
 4.0000000000000
  41
 21.000000000000
  76
2
  10
 374.34065943847
  20
 147.80137851475
  30
0.0
  10
 379.48134164255
  20
 132.37933190252
  30
0.0
  77
6
 340
489
 213
0.0
 223
-1.7142857142857
 233
0.0
   0
MTEXT
   5
489
 102
{ACAD_REACTORS
 330
488
 102
}
 100
AcDbEntity
   8
0
  62
6
 100
AcDbMText
  10
 379.48134164255
  20
 139.42695095014
  30
0.0
  40
 4.0000000000000
  41
0.0
  71
4
  72
1
   1
\A1;リング部\P表面に４重の溝
   7
GMM001
   0
TEXT
   5
48A
 100
AcDbEntity
   8
0
  62
2
 100
AcDbText
  10
 347.21446017383
  20
 50.623482664101
  30
0.0
  40
 4.0000000000000
   1
リング部の仕上げ／色調
   7
STANDARD
  11
 347.21446017383
  21
 52.623482664101
  31
0.0
 100
AcDbText
  73
2
   0
INSERT
   5
48B
 100
AcDbEntity
   8
0
 100
AcDbBlockReference
   2
BLOCK003
  10
0.0
  20
0.0
  30
0.0
   0
LINE
   5
48C
 100
AcDbEntity
   8
0
 100
AcDbLine
   6
DIVIDE
  62
3
  10
 28.380247533647
  20
 149.38863947149
  30
0.0
  11
 28.380247533647
  21
 138.34037427196
  31
0.0
   0
LINE
   5
48D
 100
AcDbEntity
   8
0
 100
AcDbLine
   6
DIVIDE
  62
3
  10
 56.380247533647
  20
 149.38863947149
  30
0.0
  11
 56.380247533647
  21
 138.34037427196
  31
0.0
   0
LINE
   5
48E
 100
AcDbEntity
   8
0
 100
AcDbLine
   6
DASHDOT
  62
2
  10
 62.475473217113
  20
 164.38863947149
  30
0.0
  11
 23.180666028596
  21
 164.38863947149
  31
0.0
   0
LINE
   5
48F
 100
AcDbEntity
   8
0
 100
AcDbLine
   6
DIVIDE
  62
3
  10
 56.380247533647
  20
 149.38863947149
  30
0.0
  11
 28.380247533647
  21
 149.38863947149
  31
0.0
   0
LINE
   5
490
 100
AcDbEntity
   8
0
 100
AcDbLine
   6
CONTINUOUS
  62
7
  10
 28.380247533647
  20
 146.88863947149
  30
0.0
  11
 28.380247533647
  21
 164.38863947149
  31
0.0
   0
LINE
   5
491
 100
AcDbEntity
   8
0
 100
AcDbLine
   6
CONTINUOUS
  62
7
  10
 28.380247533647
  20
 181.88863947149
  30
0.0
  11
 28.380247533647
  21
 164.38863947149
  31
0.0
   0
LINE
   5
492
 100
AcDbEntity
   8
0
 100
AcDbLine
   6
CONTINUOUS
  62
7
  10
 56.380247533647
  20
 181.88863947149
  30
0.0
  11
 56.380247533647
  21
 164.38863947149
  31
0.0
   0
LINE
   5
493
 100
AcDbEntity
   8
0
 100
AcDbLine
   6
CONTINUOUS
  62
7
  10
 56.380247533647
  20
 146.88863947149
  30
0.0
  11
 56.380247533647
  21
 164.38863947149
  31
0.0
   0
ARC
   5
494
 100
AcDbEntity
   8
0
   6
DOT
  62
2
 100
AcDbCircle
  10
 30.380247533647
  20
 157.78863947149
  30
0.0
  40
 1.0000000000000
 100
AcDbArc
  50
 180.00000000022
  51
 270.00000000000
   0
LINE
   5
495
 100
AcDbEntity
   8
0
 100
AcDbLine
   6
DOT
  62
2
  10
 29.380247533647
  20
 157.78863947149
  30
0.0
  11
 29.380247533647
  21
 164.38863947149
  31
0.0
   0
LINE
   5
496
 100
AcDbEntity
   8
0
 100
AcDbLine
   6
DOT
  62
2
  10
 29.380247533647
  20
 170.98863947149
  30
0.0
  11
 29.380247533647
  21
 164.38863947149
  31
0.0
   0
LINE
   5
497
 100
AcDbEntity
   8
0
 100
AcDbLine
   6
CONTINUOUS
  62
2
  10
 40.380247533647
  20
 163.38863947149
  30
0.0
  11
 40.380247533647
  21
 165.38863947149
  31
0.0
   0
LINE
   5
498
 100
AcDbEntity
   8
0
 100
AcDbLine
   6
CONTINUOUS
  62
7
  10
 39.380247533647
  20
 178.78093428320
  30
0.0
  11
 39.380247533647
  21
 168.24504324354
  31
0.0
   0
LINE
   5
499
 100
AcDbEntity
   8
0
 100
AcDbLine
   6
CONTINUOUS
  62
7
  10
 37.380247533647
  20
 168.24504324354
  30
0.0
  11
 37.380247533647
  21
 178.78093428320
  31
0.0
   0
LINE
   5
49A
 100
AcDbEntity
   8
0
 100
AcDbLine
   6
CONTINUOUS
  62
7
  10
 34.380247533647
  20
 178.78093428320
  30
0.0
  11
 34.380247533647
  21
 168.24504324354
  31
0.0
   0
LINE
   5
49B
 100
AcDbEntity
   8
0
 100
AcDbLine
   6
CONTINUOUS
  62
7
  10
 32.380247533647
  20
 168.24504324354
  30
0.0
  11
 32.380247533647
  21
 178.78093428320
  31
0.0
   0
LINE
   5
49C
 100
AcDbEntity
   8
0
 100
AcDbLine
   6
CONTINUOUS
  62
7
  10
 40.380247533647
  20
 164.38863947149
  30
0.0
  11
 40.380247533647
  21
 178.78863947149
  31
0.0
   0
LINE
   5
49D
 100
AcDbEntity
   8
0
 100
AcDbLine
   6
CONTINUOUS
  62
7
  10
 37.380247533647
  20
 168.24504324352
  30
0.0
  11
 39.380247533647
  21
 168.24504324352
  31
0.0
   0
LINE
   5
49E
 100
AcDbEntity
   8
0
 100
AcDbLine
   6
CONTINUOUS
  62
7
  10
 37.380247533647
  20
 169.86785931131
  30
0.0
  11
 39.380247533647
  21
 168.24504324352
  31
0.0
   0
LINE
   5
49F
 100
AcDbEntity
   8
0
 100
AcDbLine
   6
CONTINUOUS
  62
7
  10
 32.380247533647
  20
 168.24504324352
  30
0.0
  11
 34.380247533647
  21
 168.24504324352
  31
0.0
   0
LINE
   5
4A0
 100
AcDbEntity
   8
0
 100
AcDbLine
   6
CONTINUOUS
  62
7
  10
 32.380247533647
  20
 169.86785931131
  30
0.0
  11
 34.380247533647
  21
 168.24504324352
  31
0.0
   0
LINE
   5
4A1
 100
AcDbEntity
   8
0
 100
AcDbLine
   6
CONTINUOUS
  62
7
  10
 40.380247533647
  20
 164.38863947149
  30
0.0
  11
 40.380247533647
  21
 149.98863947149
  31
0.0
   0
LINE
   5
4A2
 100
AcDbEntity
   8
0
 100
AcDbLine
   6
CONTINUOUS
  62
7
  10
 32.380247533647
  20
 160.53223569945
  30
0.0
  11
 34.380247533647
  21
 160.53223569945
  31
0.0
   0
LINE
   5
4A3
 100
AcDbEntity
   8
0
 100
AcDbLine
   6
CONTINUOUS
  62
7
  10
 32.380247533647
  20
 158.90941963166
  30
0.0
  11
 34.380247533647
  21
 160.53223569945
  31
0.0
   0
LINE
   5
4A4
 100
AcDbEntity
   8
0
 100
AcDbLine
   6
CONTINUOUS
  62
7
  10
 37.380247533647
  20
 160.53223569945
  30
0.0
  11
 39.380247533647
  21
 160.53223569945
  31
0.0
   0
LINE
   5
4A5
 100
AcDbEntity
   8
0
 100
AcDbLine
   6
CONTINUOUS
  62
7
  10
 37.380247533647
  20
 158.90941963166
  30
0.0
  11
 39.380247533647
  21
 160.53223569945
  31
0.0
   0
LINE
   5
4A6
 100
AcDbEntity
   8
0
 100
AcDbLine
   6
CONTINUOUS
  62
7
  10
 39.380247533647
  20
 149.99634465977
  30
0.0
  11
 39.380247533647
  21
 160.53223569943
  31
0.0
   0
LINE
   5
4A7
 100
AcDbEntity
   8
0
 100
AcDbLine
   6
CONTINUOUS
  62
7
  10
 37.380247533647
  20
 160.53223569943
  30
0.0
  11
 37.380247533647
  21
 149.99634465977
  31
0.0
   0
LINE
   5
4A8
 100
AcDbEntity
   8
0
 100
AcDbLine
   6
CONTINUOUS
  62
7
  10
 34.380247533647
  20
 149.99634465977
  30
0.0
  11
 34.380247533647
  21
 160.53223569943
  31
0.0
   0
LINE
   5
4A9
 100
AcDbEntity
   8
0
 100
AcDbLine
   6
CONTINUOUS
  62
7
  10
 32.380247533647
  20
 160.53223569943
  30
0.0
  11
 32.380247533647
  21
 149.99634465977
  31
0.0
   0
ARC
   5
4AA
 100
AcDbEntity
   8
0
   6
CONTINUOUS
  62
7
 100
AcDbCircle
  10
 39.880247533640
  20
 149.98863947149
  30
0.0
  40
 0.50000000000000
 100
AcDbArc
  50
 270.00000000079
  51
0.0
   0
LINE
   5
4AB
 100
AcDbEntity
   8
0
 100
AcDbLine
   6
CONTINUOUS
  62
7
  10
 39.380247533647
  20
 149.99634465977
  30
0.0
  11
 37.380247533647
  21
 149.99634465977
  31
0.0
   0
LINE
   5
4AC
 100
AcDbEntity
   8
0
 100
AcDbLine
   6
CONTINUOUS
  62
7
  10
 34.380247533647
  20
 149.99634465977
  30
0.0
  11
 32.380247533647
  21
 149.99634465977
  31
0.0
   0
LINE
   5
4AD
 100
AcDbEntity
   8
0
 100
AcDbLine
   6
CONTINUOUS
  62
7
  10
 39.880247533647
  20
 149.48863947149
  30
0.0
  11
 28.380247533647
  21
 149.48863947149
  31
0.0
   0
LWPOLYLINE
   5
4AE
 100
AcDbEntity
   8
0
   6
DOT
  62
2
 100
AcDbPolyline
  90
3
  70
0
  10
 37.380247533647
  20
 149.48863947149
  10
 37.380247533647
  20
 148.98863947149
  10
 39.380247533647
  20
 149.48863947149
   0
LWPOLYLINE
   5
4AF
 100
AcDbEntity
   8
0
   6
DOT
  62
2
 100
AcDbPolyline
  90
3
  70
0
  10
 32.380247533647
  20
 149.48863947149
  10
 32.380247533647
  20
 148.98863947149
  10
 34.380247533647
  20
 149.48863947149
   0
LWPOLYLINE
   5
4B0
 100
AcDbEntity
   8
0
   6
DOT
  62
2
 100
AcDbPolyline
  90
3
  70
0
  10
 37.380247533647
  20
 149.48863947149
  10
 37.380247533647
  20
 148.98863947149
  10
 39.380247533647
  20
 149.48863947149
   0
LWPOLYLINE
   5
4B1
 100
AcDbEntity
   8
0
   6
DOT
  62
2
 100
AcDbPolyline
  90
3
  70
0
  10
 32.380247533647
  20
 149.48863947149
  10
 32.380247533647
  20
 148.98863947149
  10
 34.380247533647
  20
 149.48863947149
   0
POINT
   5
4B2
 100
AcDbEntity
   8
0
 100
AcDbPoint
  62
7
  10
 40.380247533647
  20
 149.48863947149
  30
0.0
   0
LINE
   5
4B3
 100
AcDbEntity
   8
0
 100
AcDbLine
   6
DOT
  62
2
  10
 54.880247533647
  20
 174.48863947149
  30
0.0
  11
 54.880247533647
  21
 164.38863947149
  31
0.0
   0
LINE
   5
4B4
 100
AcDbEntity
   8
0
 100
AcDbLine
   6
DOT
  62
2
  10
 51.180247533647
  20
 174.78863947149
  30
0.0
  11
 51.180247533647
  21
 164.38863947149
  31
0.0
   0
LINE
   5
4B5
 100
AcDbEntity
   8
0
 100
AcDbLine
   6
DOT
  62
2
  10
 50.180247533647
  20
 174.48863947149
  30
0.0
  11
 50.180247533647
  21
 164.38863947149
  31
0.0
   0
LINE
   5
4B6
 100
AcDbEntity
   8
0
 100
AcDbLine
   6
DOT
  62
2
  10
 53.880247533647
  20
 164.38863947149
  30
0.0
  11
 53.880247533647
  21
 174.78863947149
  31
0.0
   0
LINE
   5
4B7
 100
AcDbEntity
   8
0
 100
AcDbLine
   6
DOT
  62
2
  10
 52.155247533647
  20
 153.58863947149
  30
0.0
  11
 52.905247533647
  21
 153.58863947149
  31
0.0
   0
ARC
   5
4B8
 100
AcDbEntity
   8
0
   6
DOT
  62
2
 100
AcDbCircle
  10
 52.155247533643
  20
 154.56363947149
  30
0.0
  40
 0.97500000000000
 100
AcDbArc
  50
 179.99999999999
  51
 270.00000000021
   0
ARC
   5
4B9
 100
AcDbEntity
   8
0
   6
DOT
  62
2
 100
AcDbCircle
  10
 52.905247533647
  20
 154.56363947149
  30
0.0
  40
 0.97500000000000
 100
AcDbArc
  50
 270.00000000000
  51
0.0
   0
POINT
   5
4BA
 100
AcDbEntity
   8
0
 100
AcDbPoint
  62
2
  10
 51.180247533647
  20
 153.78863947149
  30
0.0
   0
LINE
   5
4BB
 100
AcDbEntity
   8
0
 100
AcDbLine
   6
DOT
  62
2
  10
 53.880247533647
  20
 156.78863947149
  30
0.0
  11
 30.380247533647
  21
 156.78863947149
  31
0.0
   0
ARC
   5
4BC
 100
AcDbEntity
   8
0
   6
DOT
  62
2
 100
AcDbCircle
  10
 53.880247533647
  20
 155.78863947149
  30
0.0
  40
 1.0000000000000
 100
AcDbArc
  50
0.0
  51
 90.000000000000
   0
POINT
   5
4BD
 100
AcDbEntity
   8
0
 100
AcDbPoint
  62
2
  10
 54.880247533647
  20
 156.78863947149
  30
0.0
   0
LINE
   5
4BE
 100
AcDbEntity
   8
0
 100
AcDbLine
   6
DOT
  62
2
  10
 54.880247533647
  20
 154.28863947149
  30
0.0
  11
 54.880247533647
  21
 164.38863947149
  31
0.0
   0
ARC
   5
4BF
 100
AcDbEntity
   8
0
   6
DOT
  62
2
 100
AcDbCircle
  10
 49.680247533647
  20
 155.03863947149
  30
0.0
  40
 0.50000000000000
 100
AcDbArc
  50
0.0
  51
 90.000000000000
   0
LINE
   5
4C0
 100
AcDbEntity
   8
0
 100
AcDbLine
   6
DOT
  62
2
  10
 51.180247533647
  20
 153.98863947149
  30
0.0
  11
 51.180247533647
  21
 164.38863947149
  31
0.0
   0
ARC
   5
4C1
 100
AcDbEntity
   8
0
   6
DOT
  62
2
 100
AcDbCircle
  10
 50.980247533658
  20
 153.98863947149
  30
0.0
  40
 0.20000000000000
 100
AcDbArc
  50
 269.99999999664
  51
 0.16284439970048E-10
   0
LINE
   5
4C2
 100
AcDbEntity
   8
0
 100
AcDbLine
   6
DOT
  62
2
  10
 50.180247533647
  20
 154.28863947149
  30
0.0
  11
 50.180247533647
  21
 164.38863947149
  31
0.0
   0
ARC
   5
4C3
 100
AcDbEntity
   8
0
   6
DOT
  62
2
 100
AcDbCircle
  10
 50.680247533646
  20
 154.28863947149
  30
0.0
  40
 0.50000000000000
 100
AcDbArc
  50
 180.00000000000
  51
 270.00000000010
   0
POINT
   5
4C4
 100
AcDbEntity
   8
0
 100
AcDbPoint
  62
2
  10
 50.180247533647
  20
 153.78863947149
  30
0.0
   0
LINE
   5
4C5
 100
AcDbEntity
   8
0
 100
AcDbLine
   6
DOT
  62
2
  10
 50.680247533647
  20
 153.78863947149
  30
0.0
  11
 50.980247533647
  21
 153.78863947149
  31
0.0
   0
POINT
   5
4C6
 100
AcDbEntity
   8
0
 100
AcDbPoint
  62
2
  10
 53.880247533647
  20
 153.78863947149
  30
0.0
   0
ARC
   5
4C7
 100
AcDbEntity
   8
0
   6
DOT
  62
2
 100
AcDbCircle
  10
 54.080247533630
  20
 153.98863947149
  30
0.0
  40
 0.20000000000000
 100
AcDbArc
  50
 179.99999999999
  51
 270.00000000473
   0
LINE
   5
4C8
 100
AcDbEntity
   8
0
 100
AcDbLine
   6
DOT
  62
2
  10
 54.380247533647
  20
 153.78863947149
  30
0.0
  11
 54.080247533647
  21
 153.78863947149
  31
0.0
   0
LINE
   5
4C9
 100
AcDbEntity
   8
0
 100
AcDbLine
   6
DOT
  62
2
  10
 53.880247533647
  20
 164.38863947149
  30
0.0
  11
 53.880247533647
  21
 153.98863947149
  31
0.0
   0
ARC
   5
4CA
 100
AcDbEntity
   8
0
   6
DOT
  62
2
 100
AcDbCircle
  10
 54.380247533647
  20
 154.28863947149
  30
0.0
  40
 0.50000000000000
 100
AcDbArc
  50
 270.00000000000
  51
0.0
   0
LINE
   5
4CB
 100
AcDbEntity
   8
0
 100
AcDbLine
   6
DOT
  62
2
  10
 40.880247533647
  20
 155.53863947149
  30
0.0
  11
 49.680247533647
  21
 155.53863947149
  31
0.0
   0
LINE
   5
4CC
 100
AcDbEntity
   8
0
 100
AcDbLine
   6
CONTINUOUS
  62
7
  10
 50.380247533647
  20
 178.78093428320
  30
0.0
  11
 50.380247533647
  21
 168.24504324354
  31
0.0
   0
LINE
   5
4CD
 100
AcDbEntity
   8
0
 100
AcDbLine
   6
CONTINUOUS
  62
7
  10
 52.380247533647
  20
 168.24504324354
  30
0.0
  11
 52.380247533647
  21
 178.78093428320
  31
0.0
   0
LINE
   5
4CE
 100
AcDbEntity
   8
0
 100
AcDbLine
   6
CONTINUOUS
  62
7
  10
 45.380247533647
  20
 178.78093428320
  30
0.0
  11
 45.380247533647
  21
 168.24504324354
  31
0.0
   0
LINE
   5
4CF
 100
AcDbEntity
   8
0
 100
AcDbLine
   6
CONTINUOUS
  62
7
  10
 47.380247533647
  20
 169.86785931131
  30
0.0
  11
 45.380247533647
  21
 168.24504324353
  31
0.0
   0
LINE
   5
4D0
 100
AcDbEntity
   8
0
 100
AcDbLine
   6
CONTINUOUS
  62
7
  10
 47.380247533647
  20
 168.24504324354
  30
0.0
  11
 47.380247533647
  21
 178.78093428320
  31
0.0
   0
LINE
   5
4D1
 100
AcDbEntity
   8
0
 100
AcDbLine
   6
CONTINUOUS
  62
7
  10
 47.380247533647
  20
 168.24504324353
  30
0.0
  11
 45.380247533647
  21
 168.24504324353
  31
0.0
   0
LINE
   5
4D2
 100
AcDbEntity
   8
0
 100
AcDbLine
   6
CONTINUOUS
  62
7
  10
 52.380247533647
  20
 168.24504324353
  30
0.0
  11
 50.380247533647
  21
 168.24504324353
  31
0.0
   0
LINE
   5
4D3
 100
AcDbEntity
   8
0
 100
AcDbLine
   6
CONTINUOUS
  62
7
  10
 52.380247533647
  20
 169.86785931131
  30
0.0
  11
 50.380247533647
  21
 168.24504324353
  31
0.0
   0
LINE
   5
4D4
 100
AcDbEntity
   8
0
 100
AcDbLine
   6
DOT
  62
2
  10
 55.380247533647
  20
 174.68863947149
  30
0.0
  11
 55.380247533647
  21
 164.38863947149
  31
0.0
   0
LINE
   5
4D5
 100
AcDbEntity
   8
0
 100
AcDbLine
   6
CONTINUOUS
  62
7
  10
 40.880247533647
  20
 164.38863947149
  30
0.0
  11
 40.880247533647
  21
 176.18863947149
  31
0.0
   0
LINE
   5
4D6
 100
AcDbEntity
   8
0
 100
AcDbLine
   6
CONTINUOUS
  62
7
  10
 50.380247533647
  20
 149.99634465977
  30
0.0
  11
 50.380247533647
  21
 160.53223569943
  31
0.0
   0
LINE
   5
4D7
 100
AcDbEntity
   8
0
 100
AcDbLine
   6
CONTINUOUS
  62
7
  10
 52.380247533647
  20
 160.53223569943
  30
0.0
  11
 52.380247533647
  21
 149.99634465977
  31
0.0
   0
LINE
   5
4D8
 100
AcDbEntity
   8
0
 100
AcDbLine
   6
CONTINUOUS
  62
7
  10
 50.380247533647
  20
 149.99634465977
  30
0.0
  11
 52.380247533647
  21
 149.99634465977
  31
0.0
   0
LINE
   5
4D9
 100
AcDbEntity
   8
0
 100
AcDbLine
   6
CONTINUOUS
  62
7
  10
 45.380247533647
  20
 149.99634465977
  30
0.0
  11
 45.380247533647
  21
 160.53223569943
  31
0.0
   0
LINE
   5
4DA
 100
AcDbEntity
   8
0
 100
AcDbLine
   6
CONTINUOUS
  62
7
  10
 45.380247533647
  20
 149.99634465977
  30
0.0
  11
 47.380247533647
  21
 149.99634465977
  31
0.0
   0
LINE
   5
4DB
 100
AcDbEntity
   8
0
 100
AcDbLine
   6
CONTINUOUS
  62
7
  10
 47.380247533647
  20
 158.90941963166
  30
0.0
  11
 45.380247533647
  21
 160.53223569945
  31
0.0
   0
LINE
   5
4DC
 100
AcDbEntity
   8
0
 100
AcDbLine
   6
CONTINUOUS
  62
7
  10
 47.380247533647
  20
 160.53223569943
  30
0.0
  11
 47.380247533647
  21
 149.99634465977
  31
0.0
   0
LINE
   5
4DD
 100
AcDbEntity
   8
0
 100
AcDbLine
   6
CONTINUOUS
  62
7
  10
 47.380247533647
  20
 160.53223569945
  30
0.0
  11
 45.380247533647
  21
 160.53223569945
  31
0.0
   0
LINE
   5
4DE
 100
AcDbEntity
   8
0
 100
AcDbLine
   6
CONTINUOUS
  62
7
  10
 52.380247533647
  20
 160.53223569945
  30
0.0
  11
 50.380247533647
  21
 160.53223569945
  31
0.0
   0
LINE
   5
4DF
 100
AcDbEntity
   8
0
 100
AcDbLine
   6
CONTINUOUS
  62
7
  10
 52.380247533647
  20
 158.90941963166
  30
0.0
  11
 50.380247533647
  21
 160.53223569945
  31
0.0
   0
LWPOLYLINE
   5
4E0
 100
AcDbEntity
   8
0
   6
DOT
  62
2
 100
AcDbPolyline
  90
3
  70
0
  10
 47.380247533647
  20
 149.48863947149
  10
 47.380247533647
  20
 148.98863947149
  10
 45.380247533647
  20
 149.48863947149
   0
LWPOLYLINE
   5
4E1
 100
AcDbEntity
   8
0
   6
DOT
  62
2
 100
AcDbPolyline
  90
3
  70
0
  10
 52.380247533647
  20
 149.48863947149
  10
 52.380247533647
  20
 148.98863947149
  10
 50.380247533647
  20
 149.48863947149
   0
LWPOLYLINE
   5
4E2
 100
AcDbEntity
   8
0
   6
DOT
  62
2
 100
AcDbPolyline
  90
3
  70
0
  10
 47.380247533647
  20
 149.48863947149
  10
 47.380247533647
  20
 148.98863947149
  10
 45.380247533647
  20
 149.48863947149
   0
LWPOLYLINE
   5
4E3
 100
AcDbEntity
   8
0
   6
DOT
  62
2
 100
AcDbPolyline
  90
3
  70
0
  10
 52.380247533647
  20
 149.48863947149
  10
 52.380247533647
  20
 148.98863947149
  10
 50.380247533647
  20
 149.48863947149
   0
POINT
   5
4E4
 100
AcDbEntity
   8
0
 100
AcDbPoint
  62
2
  10
 40.880247533647
  20
 153.58863947149
  30
0.0
   0
ARC
   5
4E5
 100
AcDbEntity
   8
0
   6
DOT
  62
2
 100
AcDbCircle
  10
 41.380247533647
  20
 153.08863947148
  30
0.0
  40
 0.50000000000000
 100
AcDbArc
  50
 90.000000000000
  51
 179.99999999962
   0
LINE
   5
4E6
 100
AcDbEntity
   8
0
 100
AcDbLine
   6
DOT
  62
2
  10
 41.380247533647
  20
 153.58863947149
  30
0.0
  11
 54.880247533647
  21
 153.58863947149
  31
0.0
   0
ARC
   5
4E7
 100
AcDbEntity
   8
0
   6
DOT
  62
2
 100
AcDbCircle
  10
 41.380247533647
  20
 153.08863947148
  30
0.0
  40
 0.50000000000000
 100
AcDbArc
  50
 90.000000000000
  51
 179.99999999962
   0
ARC
   5
4E8
 100
AcDbEntity
   8
0
   6
CONTINUOUS
  62
7
 100
AcDbCircle
  10
 44.880247533647
  20
 149.98863947148
  30
0.0
  40
 0.50000000000000
 100
AcDbArc
  50
 179.99999999928
  51
 270.00000000000
   0
LINE
   5
4E9
 100
AcDbEntity
   8
0
 100
AcDbLine
   6
CONTINUOUS
  62
7
  10
 44.880247533647
  20
 149.48863947149
  30
0.0
  11
 56.380247533647
  21
 149.48863947149
  31
0.0
   0
LINE
   5
4EA
 100
AcDbEntity
   8
0
 100
AcDbLine
   6
CONTINUOUS
  62
7
  10
 40.880247533647
  20
 164.38863947149
  30
0.0
  11
 40.880247533647
  21
 152.58863947149
  31
0.0
   0
LINE
   5
4EB
 100
AcDbEntity
   8
0
 100
AcDbLine
   6
CONTINUOUS
  62
7
  10
 40.880247533647
  20
 152.58863947149
  30
0.0
  11
 44.380247533647
  21
 151.88863947149
  31
0.0
   0
LINE
   5
4EC
 100
AcDbEntity
   8
0
 100
AcDbLine
   6
DOT
  62
2
  10
 41.380247533647
  20
 153.58863947149
  30
0.0
  11
 54.880247533647
  21
 153.58863947149
  31
0.0
   0
ARC
   5
4ED
 100
AcDbEntity
   8
0
   6
DOT
  62
2
 100
AcDbCircle
  10
 54.880247533647
  20
 154.08863947149
  30
0.0
  40
 0.50000000000000
 100
AcDbArc
  50
 270.00000000000
  51
0.0
   0
LINE
   5
4EE
 100
AcDbEntity
   8
0
 100
AcDbLine
   6
DOT
  62
2
  10
 55.380247533647
  20
 154.08863947149
  30
0.0
  11
 55.380247533647
  21
 164.38863947149
  31
0.0
   0
ARC
   5
4EF
 100
AcDbEntity
   8
0
   6
CONTINUOUS
  62
7
 100
AcDbCircle
  10
 40.880247533647
  20
 155.03863947149
  30
0.0
  40
 0.50000000000000
 100
AcDbArc
  50
 90.000000000000
  51
 180.00000000010
   0
ARC
   5
4F0
 100
AcDbEntity
   8
0
   6
DOT
  62
2
 100
AcDbCircle
  10
-2.1197524663534
  20
 164.38863947149
  30
0.0
  40
 60.000000000000
 100
AcDbArc
  50
 0.21712586625458E-12
  51
 12.904891503687
   0
ARC
   5
4F1
 100
AcDbEntity
   8
0
   6
DOT
  62
2
 100
AcDbCircle
  10
-2.1197524663534
  20
 164.38863947149
  30
0.0
  40
 60.000000000000
 100
AcDbArc
  50
 347.09510849631
  51
0.0
   0
ARC
   5
4F2
 100
AcDbEntity
   8
0
   6
DOT
  62
2
 100
AcDbCircle
  10
 86.880247533647
  20
 164.38863947149
  30
0.0
  40
 60.000000000000
 100
AcDbArc
  50
 167.09510849631
  51
 180.00000000000
   0
ARC
   5
4F3
 100
AcDbEntity
   8
0
   6
DOT
  62
2
 100
AcDbCircle
  10
 86.880247533647
  20
 164.38863947149
  30
0.0
  40
 60.000000000000
 100
AcDbArc
  50
 180.00000000000
  51
 192.90489150369
   0
LINE
   5
4F4
 100
AcDbEntity
   8
0
 100
AcDbLine
   6
DIVIDE
  62
3
  10
 28.380247533647
  20
 190.74046337867
  30
0.0
  11
 28.380247533647
  21
 179.28863947149
  31
0.0
   0
LINE
   5
4F5
 100
AcDbEntity
   8
0
 100
AcDbLine
   6
DIVIDE
  62
3
  10
 56.380247533647
  20
 190.74046337867
  30
0.0
  11
 56.380247533647
  21
 179.28863947149
  31
0.0
   0
LINE
   5
4F6
 100
AcDbEntity
   8
0
 100
AcDbLine
   6
DIVIDE
  62
3
  10
 56.380247533647
  20
 179.38863947149
  30
0.0
  11
 28.380247533647
  21
 179.38863947149
  31
0.0
   0
INSERT
   5
4F7
 100
AcDbEntity
   8
0
 100
AcDbBlockReference
   2
BLOCK004
  10
0.0
  20
0.0
  30
0.0
   0
ARC
   5
4F8
 100
AcDbEntity
   8
0
   6
DOT
  62
2
 100
AcDbCircle
  10
 30.380247533647
  20
 170.98863947148
  30
0.0
  40
 1.0000000000000
 100
AcDbArc
  50
 90.000000000000
  51
 179.99999999989
   0
LINE
   5
4F9
 100
AcDbEntity
   8
0
 100
AcDbLine
   6
CONTINUOUS
  62
7
  10
 39.380247533647
  20
 178.78093428320
  30
0.0
  11
 37.380247533647
  21
 178.78093428320
  31
0.0
   0
LINE
   5
4FA
 100
AcDbEntity
   8
0
 100
AcDbLine
   6
CONTINUOUS
  62
7
  10
 34.380247533647
  20
 178.78093428320
  30
0.0
  11
 32.380247533647
  21
 178.78093428320
  31
0.0
   0
LINE
   5
4FB
 100
AcDbEntity
   8
0
 100
AcDbLine
   6
CONTINUOUS
  62
7
  10
 39.880247533647
  20
 179.28863947149
  30
0.0
  11
 28.380247533647
  21
 179.28863947149
  31
0.0
   0
LWPOLYLINE
   5
4FC
 100
AcDbEntity
   8
0
   6
DOT
  62
2
 100
AcDbPolyline
  90
3
  70
0
  10
 37.380247533647
  20
 179.28863947149
  10
 37.380247533647
  20
 179.78863947149
  10
 39.380247533647
  20
 179.28863947149
   0
LWPOLYLINE
   5
4FD
 100
AcDbEntity
   8
0
   6
DOT
  62
2
 100
AcDbPolyline
  90
3
  70
0
  10
 32.380247533647
  20
 179.28863947149
  10
 32.380247533647
  20
 179.78863947149
  10
 34.380247533647
  20
 179.28863947149
   0
LWPOLYLINE
   5
4FE
 100
AcDbEntity
   8
0
   6
DOT
  62
2
 100
AcDbPolyline
  90
3
  70
0
  10
 37.380247533647
  20
 179.28863947149
  10
 37.380247533647
  20
 179.78863947149
  10
 39.380247533647
  20
 179.28863947149
   0
LWPOLYLINE
   5
4FF
 100
AcDbEntity
   8
0
   6
DOT
  62
2
 100
AcDbPolyline
  90
3
  70
0
  10
 32.380247533647
  20
 179.28863947149
  10
 32.380247533647
  20
 179.78863947149
  10
 34.380247533647
  20
 179.28863947149
   0
LINE
   5
500
 100
AcDbEntity
   8
0
 100
AcDbLine
   6
DOT
  62
2
  10
 40.380247533647
  20
 174.98863947149
  30
0.0
  11
 40.380247533647
  21
 173.73863947149
  31
0.0
   0
ARC
   5
501
 100
AcDbEntity
   8
0
   6
CONTINUOUS
  62
7
 100
AcDbCircle
  10
 39.880247533645
  20
 178.78863947149
  30
0.0
  40
 0.50000000000000
 100
AcDbArc
  50
0.0
  51
 89.999999999809
   0
LINE
   5
502
 100
AcDbEntity
   8
0
 100
AcDbLine
   6
CONTINUOUS
  62
7
  10
 40.380247533647
  20
 174.98863947149
  30
0.0
  11
 40.380247533647
  21
 176.68863947149
  31
0.0
   0
POINT
   5
503
 100
AcDbEntity
   8
0
 100
AcDbPoint
  62
7
  10
 40.380247533647
  20
 179.28863947149
  30
0.0
   0
LINE
   5
504
 100
AcDbEntity
   8
0
 100
AcDbLine
   6
DOT
  62
2
  10
 52.155247533647
  20
 175.18863947149
  30
0.0
  11
 52.905247533647
  21
 175.18863947149
  31
0.0
   0
ARC
   5
505
 100
AcDbEntity
   8
0
   6
DOT
  62
2
 100
AcDbCircle
  10
 52.155247533648
  20
 174.21363947149
  30
0.0
  40
 0.97500000000000
 100
AcDbArc
  50
 90.000000000091
  51
 180.00000000000
   0
ARC
   5
506
 100
AcDbEntity
   8
0
   6
DOT
  62
2
 100
AcDbCircle
  10
 52.905247533647
  20
 174.21363947149
  30
0.0
  40
 0.97500000000000
 100
AcDbArc
  50
0.0
  51
 90.000000000001
   0
POINT
   5
507
 100
AcDbEntity
   8
0
 100
AcDbPoint
  62
2
  10
 51.180247533647
  20
 174.98863947149
  30
0.0
   0
ARC
   5
508
 100
AcDbEntity
   8
0
   6
DOT
  62
2
 100
AcDbCircle
  10
 54.380247533653
  20
 174.48863947149
  30
0.0
  40
 0.50000000000000
 100
AcDbArc
  50
0.0
  51
 90.000000000723
   0
POINT
   5
509
 100
AcDbEntity
   8
0
 100
AcDbPoint
  62
2
  10
 54.880247533647
  20
 174.98863947149
  30
0.0
   0
POINT
   5
50A
 100
AcDbEntity
   8
0
 100
AcDbPoint
  62
2
  10
 53.880247533647
  20
 174.98863947149
  30
0.0
   0
LINE
   5
50B
 100
AcDbEntity
   8
0
 100
AcDbLine
   6
DOT
  62
2
  10
 53.880247533647
  20
 171.98863947149
  30
0.0
  11
 30.380247533647
  21
 171.98863947149
  31
0.0
   0
ARC
   5
50C
 100
AcDbEntity
   8
0
   6
DOT
  62
2
 100
AcDbCircle
  10
 53.880247533647
  20
 172.98863947149
  30
0.0
  40
 1.0000000000000
 100
AcDbArc
  50
 270.00000000000
  51
0.0
   0
POINT
   5
50D
 100
AcDbEntity
   8
0
 100
AcDbPoint
  62
2
  10
 54.880247533647
  20
 171.98863947149
  30
0.0
   0
ARC
   5
50E
 100
AcDbEntity
   8
0
   6
DOT
  62
2
 100
AcDbCircle
  10
 49.680247533647
  20
 173.73863947148
  30
0.0
  40
 0.50000000000000
 100
AcDbArc
  50
 270.00000000000
  51
 0.72302913462774E-9
   0
ARC
   5
50F
 100
AcDbEntity
   8
0
   6
DOT
  62
2
 100
AcDbCircle
  10
 50.980247533659
  20
 174.78863947149
  30
0.0
  40
 0.20000000000000
 100
AcDbArc
  50
0.0
  51
 90.000000003438
   0
ARC
   5
510
 100
AcDbEntity
   8
0
   6
DOT
  62
2
 100
AcDbCircle
  10
 50.680247533648
  20
 174.48863947149
  30
0.0
  40
 0.50000000000000
 100
AcDbArc
  50
 90.000000000111
  51
 180.00000000000
   0
LINE
   5
511
 100
AcDbEntity
   8
0
 100
AcDbLine
   6
DOT
  62
2
  10
 50.680247533647
  20
 174.98863947149
  30
0.0
  11
 50.980247533647
  21
 174.98863947149
  31
0.0
   0
POINT
   5
512
 100
AcDbEntity
   8
0
 100
AcDbPoint
  62
2
  10
 53.880247533647
  20
 174.98863947149
  30
0.0
   0
ARC
   5
513
 100
AcDbEntity
   8
0
   6
DOT
  62
2
 100
AcDbCircle
  10
 54.080247533638
  20
 174.78863947149
  30
0.0
  40
 0.20000000000000
 100
AcDbArc
  50
 89.999999997663
  51
 179.99999999998
   0
LINE
   5
514
 100
AcDbEntity
   8
0
 100
AcDbLine
   6
DOT
  62
2
  10
 54.380247533647
  20
 174.98863947149
  30
0.0
  11
 54.080247533647
  21
 174.98863947149
  31
0.0
   0
LINE
   5
515
 100
AcDbEntity
   8
0
 100
AcDbLine
   6
DOT
  62
2
  10
 40.880247533647
  20
 173.23863947149
  30
0.0
  11
 49.680247533647
  21
 173.23863947149
  31
0.0
   0
LINE
   5
516
 100
AcDbEntity
   8
0
 100
AcDbLine
   6
CONTINUOUS
  62
7
  10
 50.380247533647
  20
 178.78093428320
  30
0.0
  11
 52.380247533647
  21
 178.78093428320
  31
0.0
   0
LINE
   5
517
 100
AcDbEntity
   8
0
 100
AcDbLine
   6
CONTINUOUS
  62
7
  10
 45.380247533647
  20
 178.78093428320
  30
0.0
  11
 47.380247533647
  21
 178.78093428320
  31
0.0
   0
LWPOLYLINE
   5
518
 100
AcDbEntity
   8
0
   6
DOT
  62
2
 100
AcDbPolyline
  90
3
  70
0
  10
 47.380247533647
  20
 179.28863947149
  10
 47.380247533647
  20
 179.78863947149
  10
 45.380247533647
  20
 179.28863947149
   0
LWPOLYLINE
   5
519
 100
AcDbEntity
   8
0
   6
DOT
  62
2
 100
AcDbPolyline
  90
3
  70
0
  10
 52.380247533647
  20
 179.28863947149
  10
 52.380247533647
  20
 179.78863947149
  10
 50.380247533647
  20
 179.28863947149
   0
ARC
   5
51A
 100
AcDbEntity
   8
0
   6
DOT
  62
2
 100
AcDbCircle
  10
 54.880247533647
  20
 174.68863947148
  30
0.0
  40
 0.50000000000000
 100
AcDbArc
  50
 0.22798215956730E-9
  51
 90.000000000000
   0
LWPOLYLINE
   5
51B
 100
AcDbEntity
   8
0
   6
DOT
  62
2
 100
AcDbPolyline
  90
3
  70
0
  10
 47.380247533647
  20
 179.28863947149
  10
 47.380247533647
  20
 179.78863947149
  10
 45.380247533647
  20
 179.28863947149
   0
LWPOLYLINE
   5
51C
 100
AcDbEntity
   8
0
   6
DOT
  62
2
 100
AcDbPolyline
  90
3
  70
0
  10
 52.380247533647
  20
 179.28863947149
  10
 52.380247533647
  20
 179.78863947149
  10
 50.380247533647
  20
 179.28863947149
   0
POINT
   5
51D
 100
AcDbEntity
   8
0
 100
AcDbPoint
  62
2
  10
 40.880247533647
  20
 175.18863947149
  30
0.0
   0
LINE
   5
51E
 100
AcDbEntity
   8
0
 100
AcDbLine
   6
DOT
  62
2
  10
 41.380247533647
  20
 175.18863947149
  30
0.0
  11
 54.880247533647
  21
 175.18863947149
  31
0.0
   0
ARC
   5
51F
 100
AcDbEntity
   8
0
   6
DOT
  62
2
 100
AcDbCircle
  10
 41.380247533647
  20
 175.68863947148
  30
0.0
  40
 0.50000000000000
 100
AcDbArc
  50
 179.99999999977
  51
 270.00000000000
   0
LINE
   5
520
 100
AcDbEntity
   8
0
 100
AcDbLine
   6
DOT
  62
2
  10
 41.380247533647
  20
 175.18863947149
  30
0.0
  11
 54.880247533647
  21
 175.18863947149
  31
0.0
   0
ARC
   5
521
 100
AcDbEntity
   8
0
   6
DOT
  62
2
 100
AcDbCircle
  10
 41.380247533647
  20
 175.68863947148
  30
0.0
  40
 0.50000000000000
 100
AcDbArc
  50
 179.99999999977
  51
 270.00000000000
   0
ARC
   5
522
 100
AcDbEntity
   8
0
   6
CONTINUOUS
  62
7
 100
AcDbCircle
  10
 44.880247533647
  20
 178.78863947149
  30
0.0
  40
 0.50000000000000
 100
AcDbArc
  50
 90.000000000000
  51
 180.00000000012
   0
LINE
   5
523
 100
AcDbEntity
   8
0
 100
AcDbLine
   6
CONTINUOUS
  62
7
  10
 44.880247533647
  20
 179.28863947149
  30
0.0
  11
 56.380247533647
  21
 179.28863947149
  31
0.0
   0
LINE
   5
524
 100
AcDbEntity
   8
0
 100
AcDbLine
   6
CONTINUOUS
  62
7
  10
 40.880247533647
  20
 176.18863947149
  30
0.0
  11
 44.380247533647
  21
 176.88863947149
  31
0.0
   0
ARC
   5
525
 100
AcDbEntity
   8
0
   6
CONTINUOUS
  62
7
 100
AcDbCircle
  10
 40.880247533647
  20
 173.73863947148
  30
0.0
  40
 0.50000000000000
 100
AcDbArc
  50
 179.99999999927
  51
 270.00000000000
   0
LINE
   5
526
 100
AcDbEntity
   8
0
 100
AcDbLine
   6
CONTINUOUS
  62
7
  10
 26.588828519247
  20
 180.51863947149
  30
0.0
  11
 26.588828519247
  21
 179.86863947149
  31
0.0
   0
LINE
   5
527
 100
AcDbEntity
   8
0
 100
AcDbLine
   6
CONTINUOUS
  62
7
  10
 26.588828519247
  20
 179.86863947149
  30
0.0
  11
 26.588828519247
  21
 179.21863947149
  31
0.0
   0
ARC
   5
528
 100
AcDbEntity
   8
0
   6
CONTINUOUS
  62
7
 100
AcDbCircle
  10
 27.880247533647
  20
 180.48863947149
  30
0.0
  40
 1.4000000000000
 100
AcDbArc
  50
 90.000000000025
  51
 150.80769329775
   0
ARC
   5
529
 100
AcDbEntity
   8
0
   6
DOT
  62
2
 100
AcDbCircle
  10
 27.880247533646
  20
 179.25147516634
  30
0.0
  40
 1.4000000000001
 100
AcDbArc
  50
 209.29075699252
  51
 269.50000000004
   0
LINE
   5
52A
 100
AcDbEntity
   8
0
 100
AcDbLine
   6
CONTINUOUS
  62
7
  10
 28.380247533647
  20
 181.88863947149
  30
0.0
  11
 27.880247533647
  21
 181.88863947149
  31
0.0
   0
LINE
   5
52B
 100
AcDbEntity
   8
0
 100
AcDbLine
   6
CONTINUOUS
  62
7
  10
 26.588828519247
  20
 179.21863947149
  30
0.0
  11
 26.588828519247
  21
 164.38863947149
  31
0.0
   0
ARC
   5
52C
 100
AcDbEntity
   8
0
   6
CONTINUOUS
  62
7
 100
AcDbCircle
  10
 26.745363684884
  20
 181.12270464937
  30
0.0
  40
 0.10000000000002
 100
AcDbArc
  50
 150.80769328506
  51
 179.99999998520
   0
ARC
   5
52D
 100
AcDbEntity
   8
0
   6
CONTINUOUS
  62
7
 100
AcDbCircle
  10
 26.688828519246
  20
 180.51863947143
  30
0.0
  40
 0.10000000000001
 100
AcDbArc
  50
 129.09385887033
  51
 179.99999996499
   0
LINE
   5
52E
 100
AcDbEntity
   8
0
 100
AcDbLine
   6
CONTINUOUS
  62
7
  10
 26.645363684897
  20
 180.61217134436
  30
0.0
  11
 26.625769256738
  21
 180.59625087148
  31
0.0
   0
LINE
   5
52F
 100
AcDbEntity
   8
0
 100
AcDbLine
   6
CONTINUOUS
  62
7
  10
 26.645363684896
  20
 181.12270464939
  30
0.0
  11
 26.645363684896
  21
 164.38863947149
  31
0.0
   0
LINE
   5
530
 100
AcDbEntity
   8
0
 100
AcDbLine
   6
DOT
  62
2
  10
 27.868030383947
  20
 177.85152847404
  30
0.0
  11
 28.380247533647
  21
 177.84705842268
  31
0.0
   0
ARC
   5
531
 100
AcDbEntity
   8
0
   6
CONTINUOUS
  62
7
 100
AcDbCircle
  10
 27.880247533645
  20
 148.28863947149
  30
0.0
  40
 1.4000000000000
 100
AcDbArc
  50
 209.19230670243
  51
 270.00000000006
   0
LINE
   5
532
 100
AcDbEntity
   8
0
 100
AcDbLine
   6
CONTINUOUS
  62
7
  10
 28.380247533647
  20
 146.88863947149
  30
0.0
  11
 27.880247533647
  21
 146.88863947149
  31
0.0
   0
LINE
   5
533
 100
AcDbEntity
   8
0
 100
AcDbLine
   6
CONTINUOUS
  62
7
  10
 26.588828519247
  20
 148.25863947149
  30
0.0
  11
 26.588828519247
  21
 148.90863947149
  31
0.0
   0
LINE
   5
534
 100
AcDbEntity
   8
0
 100
AcDbLine
   6
CONTINUOUS
  62
7
  10
 26.588828519247
  20
 148.90863947149
  30
0.0
  11
 26.588828519247
  21
 149.55863947149
  31
0.0
   0
LINE
   5
535
 100
AcDbEntity
   8
0
 100
AcDbLine
   6
CONTINUOUS
  62
7
  10
 26.588828519247
  20
 149.55863947149
  30
0.0
  11
 26.588828519247
  21
 164.38863947149
  31
0.0
   0
ARC
   5
536
 100
AcDbEntity
   8
0
   6
CONTINUOUS
  62
7
 100
AcDbCircle
  10
 26.745363684884
  20
 147.65457429359
  30
0.0
  40
 0.10000000000002
 100
AcDbArc
  50
 180.00000000703
  51
 209.19230670815
   0
ARC
   5
537
 100
AcDbEntity
   8
0
   6
CONTINUOUS
  62
7
 100
AcDbCircle
  10
 26.688828519246
  20
 148.25863947153
  30
0.0
  40
 0.10000000000001
 100
AcDbArc
  50
 180.00000002529
  51
 230.90614112354
   0
LINE
   5
538
 100
AcDbEntity
   8
0
 100
AcDbLine
   6
CONTINUOUS
  62
7
  10
 26.645363684897
  20
 148.16510759861
  30
0.0
  11
 26.625769256738
  21
 148.18102807149
  31
0.0
   0
LINE
   5
539
 100
AcDbEntity
   8
0
 100
AcDbLine
   6
CONTINUOUS
  62
7
  10
 26.645363684897
  20
 147.65457429359
  30
0.0
  11
 26.645363684896
  21
 164.38863947149
  31
0.0
   0
ARC
   5
53A
 100
AcDbEntity
   8
0
   6
DOT
  62
2
 100
AcDbCircle
  10
 27.880247533648
  20
 149.52580377664
  30
0.0
  40
 1.4000000000001
 100
AcDbArc
  50
 90.500000000043
  51
 150.70924300752
   0
LINE
   5
53B
 100
AcDbEntity
   8
0
 100
AcDbLine
   6
DOT
  62
2
  10
 27.868030383947
  20
 150.92575046894
  30
0.0
  11
 28.380247533647
  21
 150.93022052029
  31
0.0
   0
LINE
   5
53C
 100
AcDbEntity
   8
0
 100
AcDbLine
   6
CONTINUOUS
  62
7
  10
 58.171666548047
  20
 180.51863947149
  30
0.0
  11
 58.171666548047
  21
 179.86863947149
  31
0.0
   0
LINE
   5
53D
 100
AcDbEntity
   8
0
 100
AcDbLine
   6
CONTINUOUS
  62
7
  10
 58.171666548047
  20
 179.86863947149
  30
0.0
  11
 58.171666548047
  21
 179.21863947149
  31
0.0
   0
ARC
   5
53E
 100
AcDbEntity
   8
0
   6
CONTINUOUS
  62
7
 100
AcDbCircle
  10
 56.880247533648
  20
 180.48863947148
  30
0.0
  40
 1.4000000000000
 100
AcDbArc
  50
 29.192306702415
  51
 90.000000000053
   0
ARC
   5
53F
 100
AcDbEntity
   8
0
   6
DOT
  62
2
 100
AcDbCircle
  10
 56.880247533646
  20
 179.25147516634
  30
0.0
  40
 1.4000000000001
 100
AcDbArc
  50
 270.50000000003
  51
 330.70924300751
   0
LINE
   5
540
 100
AcDbEntity
   8
0
 100
AcDbLine
   6
CONTINUOUS
  62
7
  10
 56.380247533647
  20
 181.88863947149
  30
0.0
  11
 56.880247533647
  21
 181.88863947149
  31
0.0
   0
LINE
   5
541
 100
AcDbEntity
   8
0
 100
AcDbLine
   6
CONTINUOUS
  62
7
  10
 58.171666548047
  20
 179.21863947149
  30
0.0
  11
 58.171666548047
  21
 164.38863947149
  31
0.0
   0
ARC
   5
542
 100
AcDbEntity
   8
0
   6
CONTINUOUS
  62
7
 100
AcDbCircle
  10
 58.015131382410
  20
 181.12270464942
  30
0.0
  40
 0.10000000000002
 100
AcDbArc
  50
0.0
  51
 29.192306692352
   0
ARC
   5
543
 100
AcDbEntity
   8
0
   6
CONTINUOUS
  62
7
 100
AcDbCircle
  10
 58.071666548048
  20
 180.51863947148
  30
0.0
  40
 0.10000000000001
 100
AcDbArc
  50
 0.16284439969092E-8
  51
 50.906141108604
   0
LINE
   5
544
 100
AcDbEntity
   8
0
 100
AcDbLine
   6
CONTINUOUS
  62
7
  10
 58.115131382397
  20
 180.61217134436
  30
0.0
  11
 58.134725810555
  21
 180.59625087148
  31
0.0
   0
LINE
   5
545
 100
AcDbEntity
   8
0
 100
AcDbLine
   6
CONTINUOUS
  62
7
  10
 58.115131382397
  20
 181.12270464939
  30
0.0
  11
 58.115131382397
  21
 164.38863947149
  31
0.0
   0
LINE
   5
546
 100
AcDbEntity
   8
0
 100
AcDbLine
   6
DOT
  62
2
  10
 56.892464683347
  20
 177.85152847404
  30
0.0
  11
 56.380247533647
  21
 177.84705842268
  31
0.0
   0
ARC
   5
547
 100
AcDbEntity
   8
0
   6
CONTINUOUS
  62
7
 100
AcDbCircle
  10
 56.880247533645
  20
 148.28863947148
  30
0.0
  40
 1.4000000000000
 100
AcDbArc
  50
 270.00000000005
  51
 330.80769329781
   0
LINE
   5
548
 100
AcDbEntity
   8
0
 100
AcDbLine
   6
CONTINUOUS
  62
7
  10
 56.380247533647
  20
 146.88863947149
  30
0.0
  11
 56.880247533647
  21
 146.88863947149
  31
0.0
   0
LINE
   5
549
 100
AcDbEntity
   8
0
 100
AcDbLine
   6
CONTINUOUS
  62
7
  10
 58.171666548047
  20
 148.25863947149
  30
0.0
  11
 58.171666548047
  21
 148.90863947149
  31
0.0
   0
LINE
   5
54A
 100
AcDbEntity
   8
0
 100
AcDbLine
   6
CONTINUOUS
  62
7
  10
 58.171666548047
  20
 148.90863947149
  30
0.0
  11
 58.171666548047
  21
 149.55863947149
  31
0.0
   0
LINE
   5
54B
 100
AcDbEntity
   8
0
 100
AcDbLine
   6
CONTINUOUS
  62
7
  10
 58.171666548047
  20
 149.55863947149
  30
0.0
  11
 58.171666548047
  21
 164.38863947149
  31
0.0
   0
ARC
   5
54C
 100
AcDbEntity
   8
0
   6
CONTINUOUS
  62
7
 100
AcDbCircle
  10
 58.015131382410
  20
 147.65457429362
  30
0.0
  40
 0.10000000000002
 100
AcDbArc
  50
 330.80769327724
  51
0.0
   0
ARC
   5
54D
 100
AcDbEntity
   8
0
   6
CONTINUOUS
  62
7
 100
AcDbCircle
  10
 58.071666548047
  20
 148.25863947152
  30
0.0
  40
 0.10000000000001
 100
AcDbArc
  50
 309.09385888065
  51
0.0
   0
LINE
   5
54E
 100
AcDbEntity
   8
0
 100
AcDbLine
   6
CONTINUOUS
  62
7
  10
 58.115131382397
  20
 148.16510759861
  30
0.0
  11
 58.134725810555
  21
 148.18102807149
  31
0.0
   0
LINE
   5
54F
 100
AcDbEntity
   8
0
 100
AcDbLine
   6
CONTINUOUS
  62
7
  10
 58.115131382397
  20
 147.65457429359
  30
0.0
  11
 58.115131382397
  21
 164.38863947149
  31
0.0
   0
ARC
   5
550
 100
AcDbEntity
   8
0
   6
DOT
  62
2
 100
AcDbCircle
  10
 56.880247533644
  20
 149.52580377664
  30
0.0
  40
 1.4000000000001
 100
AcDbArc
  50
 29.290756992451
  51
 89.499999999898
   0
LINE
   5
551
 100
AcDbEntity
   8
0
 100
AcDbLine
   6
DOT
  62
2
  10
 56.892464683347
  20
 150.92575046894
  30
0.0
  11
 56.380247533647
  21
 150.93022052029
  31
0.0
   0
DIMENSION
   5
552
 100
AcDbEntity
   8
0
   6
CONTINUOUS
  62
6
 100
AcDbDimension
   2
*D15
  10
 56.380247533647
  20
 193.43072034296
  30
0.0
  11
 42.380247533647
  21
 193.43072034296
  31
0.0
  70
0
   3
GMM002
 100
AcDbAlignedDimension
  13
 28.380247533647
  23
 190.74046337867
  33
0.0
  14
 56.380247533647
  24
 190.74046337867
  34
0.0
 100
AcDbRotatedDimension
   0
LINE
   5
553
 100
AcDbEntity
   8
0
 100
AcDbLine
   6
CONTINUOUS
  62
7
  10
 44.380247533647
  20
 149.98863947149
  30
0.0
  11
 44.380247533647
  21
 164.38863947149
  31
0.0
   0
LINE
   5
554
 100
AcDbEntity
   8
0
 100
AcDbLine
   6
CONTINUOUS
  62
7
  10
 44.380247533647
  20
 178.78863947149
  30
0.0
  11
 44.380247533647
  21
 164.38863947149
  31
0.0
   0
TEXT
   5
555
 100
AcDbEntity
   8
0
  62
2
 100
AcDbText
  10
 23.786356513480
  20
 200.18789950517
  30
0.0
  40
 4.0000000000000
   1
ドア対応寸法：２８～３６ｍｍ
   7
STANDARD
 100
AcDbText
   0
LINE
   5
556
 100
AcDbEntity
   8
0
 100
AcDbLine
   6
DIVIDE
  62
3
  10
 64.380247533647
  20
 109.38863947149
  30
0.0
  11
 28.380247533647
  21
 109.38863947149
  31
0.0
   0
INSERT
   5
557
 100
AcDbEntity
   8
0
 100
AcDbBlockReference
   2
BLOCK005
  10
0.0
  20
0.0
  30
0.0
   0
INSERT
   5
558
 100
AcDbEntity
   8
0
 100
AcDbBlockReference
   2
BLOCK006
  10
0.0
  20
0.0
  30
0.0
   0
LINE
   5
559
 100
AcDbEntity
   8
0
 100
AcDbLine
   6
DASHDOT
  62
2
  10
 69.812860245002
  20
 94.388639471486
  30
0.0
  11
 21.634853755974
  21
 94.388639471486
  31
0.0
   0
LINE
   5
55A
 100
AcDbEntity
   8
0
 100
AcDbLine
   6
DIVIDE
  62
3
  10
 64.380247533647
  20
 79.388639471486
  30
0.0
  11
 64.380247533647
  21
 68.340374271964
  31
0.0
   0
LINE
   5
55B
 100
AcDbEntity
   8
0
 100
AcDbLine
   6
DIVIDE
  62
3
  10
 28.380247533647
  20
 79.388639471486
  30
0.0
  11
 28.380247533647
  21
 68.340374271964
  31
0.0
   0
LINE
   5
55C
 100
AcDbEntity
   8
0
 100
AcDbLine
   6
DIVIDE
  62
3
  10
 64.380247533647
  20
 79.388639471486
  30
0.0
  11
 28.380247533647
  21
 79.388639471486
  31
0.0
   0
LINE
   5
55D
 100
AcDbEntity
   8
0
 100
AcDbLine
   6
DIVIDE
  62
3
  10
 64.380247533647
  20
 120.74046337867
  30
0.0
  11
 64.380247533647
  21
 109.38863947149
  31
0.0
   0
LINE
   5
55E
 100
AcDbEntity
   8
0
 100
AcDbLine
   6
DIVIDE
  62
3
  10
 28.380247533647
  20
 120.74046337867
  30
0.0
  11
 28.380247533647
  21
 109.38863947149
  31
0.0
   0
LINE
   5
55F
 100
AcDbEntity
   8
0
 100
AcDbLine
   6
CONTINUOUS
  62
7
  10
 28.380247533647
  20
 76.888639471486
  30
0.0
  11
 28.380247533647
  21
 94.388639471486
  31
0.0
   0
LINE
   5
560
 100
AcDbEntity
   8
0
 100
AcDbLine
   6
CONTINUOUS
  62
7
  10
 28.380247533647
  20
 111.88863947149
  30
0.0
  11
 28.380247533647
  21
 94.388639471486
  31
0.0
   0
LINE
   5
561
 100
AcDbEntity
   8
0
 100
AcDbLine
   6
CONTINUOUS
  62
7
  10
 64.380247533647
  20
 111.88863947149
  30
0.0
  11
 64.380247533647
  21
 94.388639471486
  31
0.0
   0
LINE
   5
562
 100
AcDbEntity
   8
0
 100
AcDbLine
   6
CONTINUOUS
  62
7
  10
 64.380247533647
  20
 76.888639471486
  30
0.0
  11
 64.380247533647
  21
 94.388639471486
  31
0.0
   0
ARC
   5
563
 100
AcDbEntity
   8
0
   6
DOT
  62
2
 100
AcDbCircle
  10
 30.380247533647
  20
 87.788639471486
  30
0.0
  40
 1.0000000000000
 100
AcDbArc
  50
 180.00000000001
  51
 270.00000000000
   0
LINE
   5
564
 100
AcDbEntity
   8
0
 100
AcDbLine
   6
DOT
  62
2
  10
 29.380247533647
  20
 87.788639471486
  30
0.0
  11
 29.380247533647
  21
 94.388639471486
  31
0.0
   0
ARC
   5
565
 100
AcDbEntity
   8
0
   6
DOT
  62
2
 100
AcDbCircle
  10
 30.380247533647
  20
 100.98863947149
  30
0.0
  40
 1.0000000000000
 100
AcDbArc
  50
 90.000000000000
  51
 179.99999999999
   0
LINE
   5
566
 100
AcDbEntity
   8
0
 100
AcDbLine
   6
DOT
  62
2
  10
 29.380247533647
  20
 100.98863947149
  30
0.0
  11
 29.380247533647
  21
 94.388639471486
  31
0.0
   0
LINE
   5
567
 100
AcDbEntity
   8
0
 100
AcDbLine
   6
CONTINUOUS
  62
2
  10
 40.380247533647
  20
 93.388639471486
  30
0.0
  11
 40.380247533647
  21
 95.388639471486
  31
0.0
   0
LINE
   5
568
 100
AcDbEntity
   8
0
 100
AcDbLine
   6
CONTINUOUS
  62
7
  10
 39.380247533647
  20
 108.78093428320
  30
0.0
  11
 39.380247533647
  21
 98.245043243545
  31
0.0
   0
LINE
   5
569
 100
AcDbEntity
   8
0
 100
AcDbLine
   6
CONTINUOUS
  62
7
  10
 37.380247533647
  20
 98.245043243545
  30
0.0
  11
 37.380247533647
  21
 108.78093428320
  31
0.0
   0
LINE
   5
56A
 100
AcDbEntity
   8
0
 100
AcDbLine
   6
CONTINUOUS
  62
7
  10
 34.380247533647
  20
 108.78093428320
  30
0.0
  11
 34.380247533647
  21
 98.245043243545
  31
0.0
   0
LINE
   5
56B
 100
AcDbEntity
   8
0
 100
AcDbLine
   6
CONTINUOUS
  62
7
  10
 32.380247533647
  20
 98.245043243545
  30
0.0
  11
 32.380247533647
  21
 108.78093428320
  31
0.0
   0
LINE
   5
56C
 100
AcDbEntity
   8
0
 100
AcDbLine
   6
CONTINUOUS
  62
7
  10
 39.380247533647
  20
 108.78093428320
  30
0.0
  11
 37.380247533647
  21
 108.78093428320
  31
0.0
   0
LINE
   5
56D
 100
AcDbEntity
   8
0
 100
AcDbLine
   6
CONTINUOUS
  62
7
  10
 34.380247533647
  20
 108.78093428320
  30
0.0
  11
 32.380247533647
  21
 108.78093428320
  31
0.0
   0
LINE
   5
56E
 100
AcDbEntity
   8
0
 100
AcDbLine
   6
CONTINUOUS
  62
7
  10
 39.880247533647
  20
 109.28863947149
  30
0.0
  11
 28.380247533647
  21
 109.28863947149
  31
0.0
   0
LWPOLYLINE
   5
56F
 100
AcDbEntity
   8
0
   6
DOT
  62
2
 100
AcDbPolyline
  90
3
  70
0
  10
 37.380247533647
  20
 109.28863947149
  10
 37.380247533647
  20
 109.78863947149
  10
 39.380247533647
  20
 109.28863947149
   0
LWPOLYLINE
   5
570
 100
AcDbEntity
   8
0
   6
DOT
  62
2
 100
AcDbPolyline
  90
3
  70
0
  10
 32.380247533647
  20
 109.28863947149
  10
 32.380247533647
  20
 109.78863947149
  10
 34.380247533647
  20
 109.28863947149
   0
LWPOLYLINE
   5
571
 100
AcDbEntity
   8
0
   6
DOT
  62
2
 100
AcDbPolyline
  90
3
  70
0
  10
 37.380247533647
  20
 109.28863947149
  10
 37.380247533647
  20
 109.78863947149
  10
 39.380247533647
  20
 109.28863947149
   0
LWPOLYLINE
   5
572
 100
AcDbEntity
   8
0
   6
DOT
  62
2
 100
AcDbPolyline
  90
3
  70
0
  10
 32.380247533647
  20
 109.28863947149
  10
 32.380247533647
  20
 109.78863947149
  10
 34.380247533647
  20
 109.28863947149
   0
LINE
   5
573
 100
AcDbEntity
   8
0
 100
AcDbLine
   6
CONTINUOUS
  62
7
  10
 40.380247533647
  20
 94.388639471486
  30
0.0
  11
 40.380247533647
  21
 108.78863947149
  31
0.0
   0
LINE
   5
574
 100
AcDbEntity
   8
0
 100
AcDbLine
   6
DOT
  62
2
  10
 40.380247533647
  20
 104.98863947149
  30
0.0
  11
 40.380247533647
  21
 103.73863947149
  31
0.0
   0
ARC
   5
575
 100
AcDbEntity
   8
0
   6
CONTINUOUS
  62
7
 100
AcDbCircle
  10
 39.880247533649
  20
 108.78863947149
  30
0.0
  40
 0.50000000000000
 100
AcDbArc
  50
0.0
  51
 90.000000000226
   0
LINE
   5
576
 100
AcDbEntity
   8
0
 100
AcDbLine
   6
CONTINUOUS
  62
7
  10
 40.380247533647
  20
 104.98863947149
  30
0.0
  11
 40.380247533647
  21
 106.68863947149
  31
0.0
   0
LINE
   5
577
 100
AcDbEntity
   8
0
 100
AcDbLine
   6
CONTINUOUS
  62
7
  10
 37.380247533647
  20
 98.245043243525
  30
0.0
  11
 39.380247533647
  21
 98.245043243525
  31
0.0
   0
LINE
   5
578
 100
AcDbEntity
   8
0
 100
AcDbLine
   6
CONTINUOUS
  62
7
  10
 37.380247533647
  20
 99.867859311312
  30
0.0
  11
 39.380247533647
  21
 98.245043243525
  31
0.0
   0
LINE
   5
579
 100
AcDbEntity
   8
0
 100
AcDbLine
   6
CONTINUOUS
  62
7
  10
 32.380247533647
  20
 98.245043243525
  30
0.0
  11
 34.380247533647
  21
 98.245043243525
  31
0.0
   0
LINE
   5
57A
 100
AcDbEntity
   8
0
 100
AcDbLine
   6
CONTINUOUS
  62
7
  10
 32.380247533647
  20
 99.867859311312
  30
0.0
  11
 34.380247533647
  21
 98.245043243525
  31
0.0
   0
LINE
   5
57B
 100
AcDbEntity
   8
0
 100
AcDbLine
   6
CONTINUOUS
  62
7
  10
 40.380247533647
  20
 94.388639471486
  30
0.0
  11
 40.380247533647
  21
 79.988639471486
  31
0.0
   0
LINE
   5
57C
 100
AcDbEntity
   8
0
 100
AcDbLine
   6
CONTINUOUS
  62
7
  10
 32.380247533647
  20
 90.532235699447
  30
0.0
  11
 34.380247533647
  21
 90.532235699447
  31
0.0
   0
LINE
   5
57D
 100
AcDbEntity
   8
0
 100
AcDbLine
   6
CONTINUOUS
  62
7
  10
 32.380247533647
  20
 88.909419631660
  30
0.0
  11
 34.380247533647
  21
 90.532235699447
  31
0.0
   0
LINE
   5
57E
 100
AcDbEntity
   8
0
 100
AcDbLine
   6
CONTINUOUS
  62
7
  10
 37.380247533647
  20
 90.532235699447
  30
0.0
  11
 39.380247533647
  21
 90.532235699447
  31
0.0
   0
LINE
   5
57F
 100
AcDbEntity
   8
0
 100
AcDbLine
   6
CONTINUOUS
  62
7
  10
 37.380247533647
  20
 88.909419631660
  30
0.0
  11
 39.380247533647
  21
 90.532235699447
  31
0.0
   0
LINE
   5
580
 100
AcDbEntity
   8
0
 100
AcDbLine
   6
CONTINUOUS
  62
7
  10
 39.380247533647
  20
 79.996344659770
  30
0.0
  11
 39.380247533647
  21
 90.532235699428
  31
0.0
   0
LINE
   5
581
 100
AcDbEntity
   8
0
 100
AcDbLine
   6
CONTINUOUS
  62
7
  10
 37.380247533647
  20
 90.532235699428
  30
0.0
  11
 37.380247533647
  21
 79.996344659770
  31
0.0
   0
LINE
   5
582
 100
AcDbEntity
   8
0
 100
AcDbLine
   6
CONTINUOUS
  62
7
  10
 34.380247533647
  20
 79.996344659770
  30
0.0
  11
 34.380247533647
  21
 90.532235699428
  31
0.0
   0
LINE
   5
583
 100
AcDbEntity
   8
0
 100
AcDbLine
   6
CONTINUOUS
  62
7
  10
 32.380247533647
  20
 90.532235699428
  30
0.0
  11
 32.380247533647
  21
 79.996344659770
  31
0.0
   0
ARC
   5
584
 100
AcDbEntity
   8
0
   6
CONTINUOUS
  62
7
 100
AcDbCircle
  10
 39.880247533647
  20
 79.988639471486
  30
0.0
  40
 0.50000000000000
 100
AcDbArc
  50
 269.99999999995
  51
0.0
   0
LINE
   5
585
 100
AcDbEntity
   8
0
 100
AcDbLine
   6
CONTINUOUS
  62
7
  10
 39.380247533647
  20
 79.996344659770
  30
0.0
  11
 37.380247533647
  21
 79.996344659770
  31
0.0
   0
LINE
   5
586
 100
AcDbEntity
   8
0
 100
AcDbLine
   6
CONTINUOUS
  62
7
  10
 34.380247533647
  20
 79.996344659770
  30
0.0
  11
 32.380247533647
  21
 79.996344659770
  31
0.0
   0
LINE
   5
587
 100
AcDbEntity
   8
0
 100
AcDbLine
   6
CONTINUOUS
  62
7
  10
 39.880247533647
  20
 79.488639471486
  30
0.0
  11
 28.380247533647
  21
 79.488639471486
  31
0.0
   0
LWPOLYLINE
   5
588
 100
AcDbEntity
   8
0
   6
DOT
  62
2
 100
AcDbPolyline
  90
3
  70
0
  10
 37.380247533647
  20
 79.488639471486
  10
 37.380247533647
  20
 78.988639471486
  10
 39.380247533647
  20
 79.488639471486
   0
LWPOLYLINE
   5
589
 100
AcDbEntity
   8
0
   6
DOT
  62
2
 100
AcDbPolyline
  90
3
  70
0
  10
 32.380247533647
  20
 79.488639471486
  10
 32.380247533647
  20
 78.988639471486
  10
 34.380247533647
  20
 79.488639471486
   0
LWPOLYLINE
   5
58A
 100
AcDbEntity
   8
0
   6
DOT
  62
2
 100
AcDbPolyline
  90
3
  70
0
  10
 37.380247533647
  20
 79.488639471486
  10
 37.380247533647
  20
 78.988639471486
  10
 39.380247533647
  20
 79.488639471486
   0
LWPOLYLINE
   5
58B
 100
AcDbEntity
   8
0
   6
DOT
  62
2
 100
AcDbPolyline
  90
3
  70
0
  10
 32.380247533647
  20
 79.488639471486
  10
 32.380247533647
  20
 78.988639471486
  10
 34.380247533647
  20
 79.488639471486
   0
POINT
   5
58C
 100
AcDbEntity
   8
0
 100
AcDbPoint
  62
7
  10
 40.380247533647
  20
 109.28863947149
  30
0.0
   0
POINT
   5
58D
 100
AcDbEntity
   8
0
 100
AcDbPoint
  62
7
  10
 40.380247533647
  20
 79.488639471486
  30
0.0
   0
LINE
   5
58E
 100
AcDbEntity
   8
0
 100
AcDbLine
   6
DOT
  62
2
  10
 52.155247533647
  20
 105.18863947149
  30
0.0
  11
 52.905247533647
  21
 105.18863947149
  31
0.0
   0
ARC
   5
58F
 100
AcDbEntity
   8
0
   6
DOT
  62
2
 100
AcDbCircle
  10
 52.155247533646
  20
 104.21363947149
  30
0.0
  40
 0.97500000000000
 100
AcDbArc
  50
 89.999999999969
  51
 180.00000000000
   0
ARC
   5
590
 100
AcDbEntity
   8
0
   6
DOT
  62
2
 100
AcDbCircle
  10
 52.905247533647
  20
 104.21363947149
  30
0.0
  40
 0.97500000000000
 100
AcDbArc
  50
0.0
  51
 90.000000000001
   0
POINT
   5
591
 100
AcDbEntity
   8
0
 100
AcDbPoint
  62
2
  10
 51.180247533647
  20
 104.98863947149
  30
0.0
   0
ARC
   5
592
 100
AcDbEntity
   8
0
   6
DOT
  62
2
 100
AcDbCircle
  10
 54.380247533646
  20
 104.48863947149
  30
0.0
  40
 0.50000000000000
 100
AcDbArc
  50
0.0
  51
 89.999999999888
   0
POINT
   5
593
 100
AcDbEntity
   8
0
 100
AcDbPoint
  62
2
  10
 54.880247533647
  20
 104.98863947149
  30
0.0
   0
POINT
   5
594
 100
AcDbEntity
   8
0
 100
AcDbPoint
  62
2
  10
 53.880247533647
  20
 104.98863947149
  30
0.0
   0
LINE
   5
595
 100
AcDbEntity
   8
0
 100
AcDbLine
   6
DOT
  62
2
  10
 53.880247533647
  20
 101.98863947149
  30
0.0
  11
 30.380247533647
  21
 101.98863947149
  31
0.0
   0
ARC
   5
596
 100
AcDbEntity
   8
0
   6
DOT
  62
2
 100
AcDbCircle
  10
 53.880247533647
  20
 102.98863947149
  30
0.0
  40
 1.0000000000000
 100
AcDbArc
  50
 270.00000000000
  51
 0.65137759876373E-11
   0
POINT
   5
597
 100
AcDbEntity
   8
0
 100
AcDbPoint
  62
2
  10
 54.880247533647
  20
 101.98863947149
  30
0.0
   0
LINE
   5
598
 100
AcDbEntity
   8
0
 100
AcDbLine
   6
DOT
  62
2
  10
 54.880247533647
  20
 104.48863947149
  30
0.0
  11
 54.880247533647
  21
 94.388639471486
  31
0.0
   0
ARC
   5
599
 100
AcDbEntity
   8
0
   6
DOT
  62
2
 100
AcDbCircle
  10
 49.680247533647
  20
 103.73863947148
  30
0.0
  40
 0.50000000000000
 100
AcDbArc
  50
 270.00000000000
  51
 0.30614747141895E-9
   0
LINE
   5
59A
 100
AcDbEntity
   8
0
 100
AcDbLine
   6
DOT
  62
2
  10
 51.180247533647
  20
 104.78863947149
  30
0.0
  11
 51.180247533647
  21
 94.388639471486
  31
0.0
   0
ARC
   5
59B
 100
AcDbEntity
   8
0
   6
DOT
  62
2
 100
AcDbCircle
  10
 50.980247533652
  20
 104.78863947149
  30
0.0
  40
 0.20000000000000
 100
AcDbArc
  50
0.0
  51
 90.000000001474
   0
LINE
   5
59C
 100
AcDbEntity
   8
0
 100
AcDbLine
   6
DOT
  62
2
  10
 50.180247533647
  20
 104.48863947149
  30
0.0
  11
 50.180247533647
  21
 94.388639471486
  31
0.0
   0
ARC
   5
59D
 100
AcDbEntity
   8
0
   6
DOT
  62
2
 100
AcDbCircle
  10
 50.680247533648
  20
 104.48863947149
  30
0.0
  40
 0.50000000000000
 100
AcDbArc
  50
 90.000000000111
  51
 180.00000000000
   0
LINE
   5
59E
 100
AcDbEntity
   8
0
 100
AcDbLine
   6
DOT
  62
2
  10
 50.680247533647
  20
 104.98863947149
  30
0.0
  11
 50.980247533647
  21
 104.98863947149
  31
0.0
   0
POINT
   5
59F
 100
AcDbEntity
   8
0
 100
AcDbPoint
  62
2
  10
 53.880247533647
  20
 104.98863947149
  30
0.0
   0
ARC
   5
5A0
 100
AcDbEntity
   8
0
   6
DOT
  62
2
 100
AcDbCircle
  10
 54.080247533642
  20
 104.78863947149
  30
0.0
  40
 0.20000000000000
 100
AcDbArc
  50
 89.999999998642
  51
 179.99999999998
   0
LINE
   5
5A1
 100
AcDbEntity
   8
0
 100
AcDbLine
   6
DOT
  62
2
  10
 54.380247533647
  20
 104.98863947149
  30
0.0
  11
 54.080247533647
  21
 104.98863947149
  31
0.0
   0
LINE
   5
5A2
 100
AcDbEntity
   8
0
 100
AcDbLine
   6
DOT
  62
2
  10
 53.880247533647
  20
 94.388639471486
  30
0.0
  11
 53.880247533647
  21
 104.78863947149
  31
0.0
   0
ARC
   5
5A3
 100
AcDbEntity
   8
0
   6
DOT
  62
2
 100
AcDbCircle
  10
 52.155247533646
  20
 84.563639471486
  30
0.0
  40
 0.97500000000000
 100
AcDbArc
  50
 180.00000000000
  51
 270.00000000005
   0
ARC
   5
5A4
 100
AcDbEntity
   8
0
   6
DOT
  62
2
 100
AcDbCircle
  10
 52.905247533647
  20
 84.563639471486
  30
0.0
  40
 0.97500000000000
 100
AcDbArc
  50
 270.00000000000
  51
0.0
   0
LINE
   5
5A5
 100
AcDbEntity
   8
0
 100
AcDbLine
   6
DOT
  62
2
  10
 53.880247533647
  20
 86.788639471486
  30
0.0
  11
 30.380247533647
  21
 86.788639471486
  31
0.0
   0
ARC
   5
5A6
 100
AcDbEntity
   8
0
   6
DOT
  62
2
 100
AcDbCircle
  10
 53.880247533647
  20
 85.788639471485
  30
0.0
  40
 1.0000000000000
 100
AcDbArc
  50
 0.94449751820741E-10
  51
 90.000000000000
   0
POINT
   5
5A7
 100
AcDbEntity
   8
0
 100
AcDbPoint
  62
2
  10
 54.880247533647
  20
 86.788639471486
  30
0.0
   0
LINE
   5
5A8
 100
AcDbEntity
   8
0
 100
AcDbLine
   6
DOT
  62
2
  10
 54.880247533647
  20
 84.288639471486
  30
0.0
  11
 54.880247533647
  21
 94.388639471486
  31
0.0
   0
ARC
   5
5A9
 100
AcDbEntity
   8
0
   6
DOT
  62
2
 100
AcDbCircle
  10
 49.680247533647
  20
 85.038639471483
  30
0.0
  40
 0.50000000000000
 100
AcDbArc
  50
 0.31917502339423E-9
  51
 90.000000000000
   0
LINE
   5
5AA
 100
AcDbEntity
   8
0
 100
AcDbLine
   6
DOT
  62
2
  10
 51.180247533647
  20
 83.988639471486
  30
0.0
  11
 51.180247533647
  21
 94.388639471486
  31
0.0
   0
LINE
   5
5AB
 100
AcDbEntity
   8
0
 100
AcDbLine
   6
DOT
  62
2
  10
 50.180247533647
  20
 84.288639471486
  30
0.0
  11
 50.180247533647
  21
 94.388639471486
  31
0.0
   0
LINE
   5
5AC
 100
AcDbEntity
   8
0
 100
AcDbLine
   6
DOT
  62
2
  10
 53.880247533647
  20
 94.388639471486
  30
0.0
  11
 53.880247533647
  21
 83.988639471486
  31
0.0
   0
LINE
   5
5AD
 100
AcDbEntity
   8
0
 100
AcDbLine
   6
DOT
  62
2
  10
 52.155247533647
  20
 83.588639471486
  30
0.0
  11
 52.905247533647
  21
 83.588639471486
  31
0.0
   0
POINT
   5
5AE
 100
AcDbEntity
   8
0
 100
AcDbPoint
  62
2
  10
 51.180247533647
  20
 83.788639471486
  30
0.0
   0
ARC
   5
5AF
 100
AcDbEntity
   8
0
   6
DOT
  62
2
 100
AcDbCircle
  10
 50.980247533644
  20
 83.988639471486
  30
0.0
  40
 0.20000000000000
 100
AcDbArc
  50
 270.00000000086
  51
0.0
   0
ARC
   5
5B0
 100
AcDbEntity
   8
0
   6
DOT
  62
2
 100
AcDbCircle
  10
 50.680247533646
  20
 84.288639471486
  30
0.0
  40
 0.50000000000000
 100
AcDbArc
  50
 180.00000000000
  51
 270.00000000010
   0
POINT
   5
5B1
 100
AcDbEntity
   8
0
 100
AcDbPoint
  62
2
  10
 50.180247533647
  20
 83.788639471486
  30
0.0
   0
LINE
   5
5B2
 100
AcDbEntity
   8
0
 100
AcDbLine
   6
DOT
  62
2
  10
 50.680247533647
  20
 83.788639471486
  30
0.0
  11
 50.980247533647
  21
 83.788639471486
  31
0.0
   0
POINT
   5
5B3
 100
AcDbEntity
   8
0
 100
AcDbPoint
  62
2
  10
 53.880247533647
  20
 83.788639471486
  30
0.0
   0
ARC
   5
5B4
 100
AcDbEntity
   8
0
   6
DOT
  62
2
 100
AcDbCircle
  10
 54.080247533654
  20
 83.988639471486
  30
0.0
  40
 0.20000000000000
 100
AcDbArc
  50
 180.00000000000
  51
 269.99999999792
   0
LINE
   5
5B5
 100
AcDbEntity
   8
0
 100
AcDbLine
   6
DOT
  62
2
  10
 54.380247533647
  20
 83.788639471486
  30
0.0
  11
 54.080247533647
  21
 83.788639471486
  31
0.0
   0
ARC
   5
5B6
 100
AcDbEntity
   8
0
   6
DOT
  62
2
 100
AcDbCircle
  10
 54.380247533647
  20
 84.288639471484
  30
0.0
  40
 0.50000000000000
 100
AcDbArc
  50
 270.00000000000
  51
 0.31266124740659E-9
   0
LINE
   5
5B7
 100
AcDbEntity
   8
0
 100
AcDbLine
   6
CONTINUOUS
  62
7
  10
 58.380247533647
  20
 108.78093428320
  30
0.0
  11
 58.380247533647
  21
 98.245043243545
  31
0.0
   0
LINE
   5
5B8
 100
AcDbEntity
   8
0
 100
AcDbLine
   6
CONTINUOUS
  62
7
  10
 60.380247533647
  20
 98.245043243545
  30
0.0
  11
 60.380247533647
  21
 108.78093428320
  31
0.0
   0
LINE
   5
5B9
 100
AcDbEntity
   8
0
 100
AcDbLine
   6
CONTINUOUS
  62
7
  10
 58.380247533647
  20
 108.78093428320
  30
0.0
  11
 60.380247533647
  21
 108.78093428320
  31
0.0
   0
LINE
   5
5BA
 100
AcDbEntity
   8
0
 100
AcDbLine
   6
CONTINUOUS
  62
7
  10
 53.380247533647
  20
 108.78093428320
  30
0.0
  11
 53.380247533647
  21
 98.245043243545
  31
0.0
   0
LINE
   5
5BB
 100
AcDbEntity
   8
0
 100
AcDbLine
   6
CONTINUOUS
  62
7
  10
 53.380247533647
  20
 108.78093428320
  30
0.0
  11
 55.380247533647
  21
 108.78093428320
  31
0.0
   0
LINE
   5
5BC
 100
AcDbEntity
   8
0
 100
AcDbLine
   6
CONTINUOUS
  62
7
  10
 55.380247533647
  20
 99.867859311313
  30
0.0
  11
 53.380247533647
  21
 98.245043243525
  31
0.0
   0
LINE
   5
5BD
 100
AcDbEntity
   8
0
 100
AcDbLine
   6
CONTINUOUS
  62
7
  10
 55.380247533647
  20
 98.245043243545
  30
0.0
  11
 55.380247533647
  21
 108.78093428320
  31
0.0
   0
LINE
   5
5BE
 100
AcDbEntity
   8
0
 100
AcDbLine
   6
CONTINUOUS
  62
7
  10
 55.380247533647
  20
 98.245043243525
  30
0.0
  11
 53.380247533647
  21
 98.245043243525
  31
0.0
   0
LINE
   5
5BF
 100
AcDbEntity
   8
0
 100
AcDbLine
   6
CONTINUOUS
  62
7
  10
 60.380247533647
  20
 98.245043243525
  30
0.0
  11
 58.380247533647
  21
 98.245043243525
  31
0.0
   0
LINE
   5
5C0
 100
AcDbEntity
   8
0
 100
AcDbLine
   6
CONTINUOUS
  62
7
  10
 60.380247533647
  20
 99.867859311313
  30
0.0
  11
 58.380247533647
  21
 98.245043243525
  31
0.0
   0
LWPOLYLINE
   5
5C1
 100
AcDbEntity
   8
0
   6
DOT
  62
2
 100
AcDbPolyline
  90
3
  70
0
  10
 55.380247533647
  20
 109.28863947149
  10
 55.380247533647
  20
 109.78863947149
  10
 53.380247533647
  20
 109.28863947149
   0
LWPOLYLINE
   5
5C2
 100
AcDbEntity
   8
0
   6
DOT
  62
2
 100
AcDbPolyline
  90
3
  70
0
  10
 60.380247533647
  20
 109.28863947149
  10
 60.380247533647
  20
 109.78863947149
  10
 58.380247533647
  20
 109.28863947149
   0
LINE
   5
5C3
 100
AcDbEntity
   8
0
 100
AcDbLine
   6
DOT
  62
2
  10
 63.380247533647
  20
 104.68863947149
  30
0.0
  11
 63.380247533647
  21
 94.388639471486
  31
0.0
   0
ARC
   5
5C4
 100
AcDbEntity
   8
0
   6
DOT
  62
2
 100
AcDbCircle
  10
 62.880247533647
  20
 104.68863947149
  30
0.0
  40
 0.50000000000000
 100
AcDbArc
  50
0.0
  51
 90.000000000000
   0
LWPOLYLINE
   5
5C5
 100
AcDbEntity
   8
0
   6
DOT
  62
2
 100
AcDbPolyline
  90
3
  70
0
  10
 55.380247533647
  20
 109.28863947149
  10
 55.380247533647
  20
 109.78863947149
  10
 53.380247533647
  20
 109.28863947149
   0
LWPOLYLINE
   5
5C6
 100
AcDbEntity
   8
0
   6
DOT
  62
2
 100
AcDbPolyline
  90
3
  70
0
  10
 60.380247533647
  20
 109.28863947149
  10
 60.380247533647
  20
 109.78863947149
  10
 58.380247533647
  20
 109.28863947149
   0
POINT
   5
5C7
 100
AcDbEntity
   8
0
 100
AcDbPoint
  62
2
  10
 48.880247533647
  20
 105.18863947149
  30
0.0
   0
LINE
   5
5C8
 100
AcDbEntity
   8
0
 100
AcDbLine
   6
DOT
  62
2
  10
 49.380247533647
  20
 105.18863947149
  30
0.0
  11
 62.880247533647
  21
 105.18863947149
  31
0.0
   0
ARC
   5
5C9
 100
AcDbEntity
   8
0
   6
DOT
  62
2
 100
AcDbCircle
  10
 49.380247533647
  20
 105.68863947149
  30
0.0
  40
 0.50000000000000
 100
AcDbArc
  50
 180.00000000019
  51
 270.00000000000
   0
LINE
   5
5CA
 100
AcDbEntity
   8
0
 100
AcDbLine
   6
DOT
  62
2
  10
 49.380247533647
  20
 105.18863947149
  30
0.0
  11
 62.880247533647
  21
 105.18863947149
  31
0.0
   0
ARC
   5
5CB
 100
AcDbEntity
   8
0
   6
DOT
  62
2
 100
AcDbCircle
  10
 49.380247533647
  20
 105.68863947149
  30
0.0
  40
 0.50000000000000
 100
AcDbArc
  50
 180.00000000019
  51
 270.00000000000
   0
ARC
   5
5CC
 100
AcDbEntity
   8
0
   6
CONTINUOUS
  62
7
 100
AcDbCircle
  10
 52.880247533647
  20
 108.78863947148
  30
0.0
  40
 0.50000000000000
 100
AcDbArc
  50
 90.000000000000
  51
 179.99999999971
   0
LINE
   5
5CD
 100
AcDbEntity
   8
0
 100
AcDbLine
   6
CONTINUOUS
  62
7
  10
 52.880247533647
  20
 109.28863947149
  30
0.0
  11
 64.380247533647
  21
 109.28863947149
  31
0.0
   0
LINE
   5
5CE
 100
AcDbEntity
   8
0
 100
AcDbLine
   6
CONTINUOUS
  62
7
  10
 48.880247533647
  20
 94.388639471486
  30
0.0
  11
 48.880247533647
  21
 106.18863947149
  31
0.0
   0
LINE
   5
5CF
 100
AcDbEntity
   8
0
 100
AcDbLine
   6
CONTINUOUS
  62
7
  10
 48.880247533647
  20
 106.18863947149
  30
0.0
  11
 52.380247533647
  21
 106.88863947149
  31
0.0
   0
LINE
   5
5D0
 100
AcDbEntity
   8
0
 100
AcDbLine
   6
CONTINUOUS
  62
7
  10
 58.380247533647
  20
 79.996344659770
  30
0.0
  11
 58.380247533647
  21
 90.532235699428
  31
0.0
   0
LINE
   5
5D1
 100
AcDbEntity
   8
0
 100
AcDbLine
   6
CONTINUOUS
  62
7
  10
 60.380247533647
  20
 90.532235699428
  30
0.0
  11
 60.380247533647
  21
 79.996344659770
  31
0.0
   0
LINE
   5
5D2
 100
AcDbEntity
   8
0
 100
AcDbLine
   6
CONTINUOUS
  62
7
  10
 58.380247533647
  20
 79.996344659770
  30
0.0
  11
 60.380247533647
  21
 79.996344659770
  31
0.0
   0
LINE
   5
5D3
 100
AcDbEntity
   8
0
 100
AcDbLine
   6
CONTINUOUS
  62
7
  10
 53.380247533647
  20
 79.996344659770
  30
0.0
  11
 53.380247533647
  21
 90.532235699428
  31
0.0
   0
LINE
   5
5D4
 100
AcDbEntity
   8
0
 100
AcDbLine
   6
CONTINUOUS
  62
7
  10
 53.380247533647
  20
 79.996344659770
  30
0.0
  11
 55.380247533647
  21
 79.996344659770
  31
0.0
   0
LINE
   5
5D5
 100
AcDbEntity
   8
0
 100
AcDbLine
   6
CONTINUOUS
  62
7
  10
 55.380247533647
  20
 88.909419631660
  30
0.0
  11
 53.380247533647
  21
 90.532235699447
  31
0.0
   0
LINE
   5
5D6
 100
AcDbEntity
   8
0
 100
AcDbLine
   6
CONTINUOUS
  62
7
  10
 55.380247533647
  20
 90.532235699428
  30
0.0
  11
 55.380247533647
  21
 79.996344659770
  31
0.0
   0
LINE
   5
5D7
 100
AcDbEntity
   8
0
 100
AcDbLine
   6
CONTINUOUS
  62
7
  10
 55.380247533647
  20
 90.532235699447
  30
0.0
  11
 53.380247533647
  21
 90.532235699447
  31
0.0
   0
LINE
   5
5D8
 100
AcDbEntity
   8
0
 100
AcDbLine
   6
CONTINUOUS
  62
7
  10
 60.380247533647
  20
 90.532235699447
  30
0.0
  11
 58.380247533647
  21
 90.532235699447
  31
0.0
   0
LINE
   5
5D9
 100
AcDbEntity
   8
0
 100
AcDbLine
   6
CONTINUOUS
  62
7
  10
 60.380247533647
  20
 88.909419631660
  30
0.0
  11
 58.380247533647
  21
 90.532235699447
  31
0.0
   0
LWPOLYLINE
   5
5DA
 100
AcDbEntity
   8
0
   6
DOT
  62
2
 100
AcDbPolyline
  90
3
  70
0
  10
 55.380247533647
  20
 79.488639471486
  10
 55.380247533647
  20
 78.988639471486
  10
 53.380247533647
  20
 79.488639471486
   0
LWPOLYLINE
   5
5DB
 100
AcDbEntity
   8
0
   6
DOT
  62
2
 100
AcDbPolyline
  90
3
  70
0
  10
 60.380247533647
  20
 79.488639471486
  10
 60.380247533647
  20
 78.988639471486
  10
 58.380247533647
  20
 79.488639471486
   0
LWPOLYLINE
   5
5DC
 100
AcDbEntity
   8
0
   6
DOT
  62
2
 100
AcDbPolyline
  90
3
  70
0
  10
 55.380247533647
  20
 79.488639471486
  10
 55.380247533647
  20
 78.988639471486
  10
 53.380247533647
  20
 79.488639471486
   0
LWPOLYLINE
   5
5DD
 100
AcDbEntity
   8
0
   6
DOT
  62
2
 100
AcDbPolyline
  90
3
  70
0
  10
 60.380247533647
  20
 79.488639471486
  10
 60.380247533647
  20
 78.988639471486
  10
 58.380247533647
  20
 79.488639471486
   0
POINT
   5
5DE
 100
AcDbEntity
   8
0
 100
AcDbPoint
  62
2
  10
 48.880247533647
  20
 83.588639471486
  30
0.0
   0
ARC
   5
5DF
 100
AcDbEntity
   8
0
   6
DOT
  62
2
 100
AcDbCircle
  10
 49.380247533647
  20
 83.088639471486
  30
0.0
  40
 0.50000000000000
 100
AcDbArc
  50
 90.000000000000
  51
 180.00000000003
   0
LINE
   5
5E0
 100
AcDbEntity
   8
0
 100
AcDbLine
   6
DOT
  62
2
  10
 49.380247533647
  20
 83.588639471486
  30
0.0
  11
 62.880247533647
  21
 83.588639471486
  31
0.0
   0
ARC
   5
5E1
 100
AcDbEntity
   8
0
   6
DOT
  62
2
 100
AcDbCircle
  10
 49.380247533647
  20
 83.088639471486
  30
0.0
  40
 0.50000000000000
 100
AcDbArc
  50
 90.000000000000
  51
 180.00000000003
   0
ARC
   5
5E2
 100
AcDbEntity
   8
0
   6
CONTINUOUS
  62
7
 100
AcDbCircle
  10
 52.880247533647
  20
 79.988639471487
  30
0.0
  40
 0.50000000000000
 100
AcDbArc
  50
 180.00000000011
  51
 270.00000000000
   0
LINE
   5
5E3
 100
AcDbEntity
   8
0
 100
AcDbLine
   6
CONTINUOUS
  62
7
  10
 52.880247533647
  20
 79.488639471486
  30
0.0
  11
 64.380247533647
  21
 79.488639471486
  31
0.0
   0
LINE
   5
5E4
 100
AcDbEntity
   8
0
 100
AcDbLine
   6
CONTINUOUS
  62
7
  10
 48.880247533647
  20
 94.388639471486
  30
0.0
  11
 48.880247533647
  21
 82.588639471486
  31
0.0
   0
LINE
   5
5E5
 100
AcDbEntity
   8
0
 100
AcDbLine
   6
CONTINUOUS
  62
7
  10
 48.880247533647
  20
 82.588639471486
  30
0.0
  11
 52.380247533647
  21
 81.888639471486
  31
0.0
   0
LINE
   5
5E6
 100
AcDbEntity
   8
0
 100
AcDbLine
   6
DOT
  62
2
  10
 49.380247533647
  20
 83.588639471486
  30
0.0
  11
 62.880247533647
  21
 83.588639471486
  31
0.0
   0
ARC
   5
5E7
 100
AcDbEntity
   8
0
   6
DOT
  62
2
 100
AcDbCircle
  10
 62.880247533647
  20
 84.088639471483
  30
0.0
  40
 0.50000000000000
 100
AcDbArc
  50
 270.00000000000
  51
 0.38431278327060E-9
   0
LINE
   5
5E8
 100
AcDbEntity
   8
0
 100
AcDbLine
   6
DOT
  62
2
  10
 63.380247533647
  20
 84.088639471486
  30
0.0
  11
 63.380247533647
  21
 94.388639471486
  31
0.0
   0
LINE
   5
5E9
 100
AcDbEntity
   8
0
 100
AcDbLine
   6
DOT
  62
2
  10
 48.880247533647
  20
 103.23863947149
  30
0.0
  11
 49.680247533647
  21
 103.23863947149
  31
0.0
   0
ARC
   5
5EA
 100
AcDbEntity
   8
0
   6
CONTINUOUS
  62
7
 100
AcDbCircle
  10
 40.880247533647
  20
 103.73863947149
  30
0.0
  40
 0.50000000000000
 100
AcDbArc
  50
 180.00000000010
  51
 270.00000000000
   0
LINE
   5
5EB
 100
AcDbEntity
   8
0
 100
AcDbLine
   6
CONTINUOUS
  62
7
  10
 40.880247533647
  20
 103.23863947149
  30
0.0
  11
 48.880247533647
  21
 103.23863947149
  31
0.0
   0
LINE
   5
5EC
 100
AcDbEntity
   8
0
 100
AcDbLine
   6
DOT
  62
2
  10
 48.880247533647
  20
 85.538639471486
  30
0.0
  11
 49.680247533647
  21
 85.538639471486
  31
0.0
   0
ARC
   5
5ED
 100
AcDbEntity
   8
0
   6
CONTINUOUS
  62
7
 100
AcDbCircle
  10
 40.880247533647
  20
 85.038639471484
  30
0.0
  40
 0.50000000000000
 100
AcDbArc
  50
 90.000000000000
  51
 179.99999999969
   0
LINE
   5
5EE
 100
AcDbEntity
   8
0
 100
AcDbLine
   6
CONTINUOUS
  62
7
  10
 40.880247533647
  20
 85.538639471486
  30
0.0
  11
 48.880247533647
  21
 85.538639471486
  31
0.0
   0
ARC
   5
5EF
 100
AcDbEntity
   8
0
   6
DOT
  62
2
 100
AcDbCircle
  10
 86.880247533647
  20
 94.388639471486
  30
0.0
  40
 60.000000000000
 100
AcDbArc
  50
 167.09510849631
  51
 180.00000000000
   0
ARC
   5
5F0
 100
AcDbEntity
   8
0
   6
DOT
  62
2
 100
AcDbCircle
  10
 86.880247533647
  20
 94.388639471486
  30
0.0
  40
 60.000000000000
 100
AcDbArc
  50
 180.00000000000
  51
 192.90489150369
   0
ARC
   5
5F1
 100
AcDbEntity
   8
0
   6
DOT
  62
2
 100
AcDbCircle
  10
 5.8802475336466
  20
 94.388639471486
  30
0.0
  40
 60.000000000000
 100
AcDbArc
  50
0.0
  51
 12.904891503687
   0
ARC
   5
5F2
 100
AcDbEntity
   8
0
   6
DOT
  62
2
 100
AcDbCircle
  10
 5.8802475336466
  20
 94.388639471486
  30
0.0
  40
 60.000000000000
 100
AcDbArc
  50
 347.09510849631
  51
 0.54281466563644E-13
   0
LINE
   5
5F3
 100
AcDbEntity
   8
0
 100
AcDbLine
   6
HIDDEN
  62
7
  10
 33.880247533647
  20
 94.408794044012
  30
0.0
  11
 33.880247533647
  21
 94.368484898961
  31
0.0
   0
LINE
   5
5F4
 100
AcDbEntity
   8
0
 100
AcDbLine
   6
HIDDEN
  62
7
  10
 58.880247533647
  20
 94.408794044012
  30
0.0
  11
 58.880247533647
  21
 94.368484898961
  31
0.0
   0
LINE
   5
5F5
 100
AcDbEntity
   8
0
 100
AcDbLine
   6
CONTINUOUS
  62
7
  10
 66.171666548047
  20
 110.51863947149
  30
0.0
  11
 66.171666548047
  21
 109.86863947149
  31
0.0
   0
LINE
   5
5F6
 100
AcDbEntity
   8
0
 100
AcDbLine
   6
CONTINUOUS
  62
7
  10
 66.171666548047
  20
 109.86863947149
  30
0.0
  11
 66.171666548047
  21
 109.21863947149
  31
0.0
   0
ARC
   5
5F7
 100
AcDbEntity
   8
0
   6
CONTINUOUS
  62
7
 100
AcDbCircle
  10
 64.880247533647
  20
 110.48863947149
  30
0.0
  40
 1.4000000000000
 100
AcDbArc
  50
 29.192306702342
  51
 90.000000000018
   0
ARC
   5
5F8
 100
AcDbEntity
   8
0
   6
DOT
  62
2
 100
AcDbCircle
  10
 64.880247533648
  20
 109.25147516634
  30
0.0
  40
 1.4000000000001
 100
AcDbArc
  50
 270.49999999996
  51
 330.70924300748
   0
LINE
   5
5F9
 100
AcDbEntity
   8
0
 100
AcDbLine
   6
CONTINUOUS
  62
7
  10
 64.380247533647
  20
 111.88863947149
  30
0.0
  11
 64.880247533647
  21
 111.88863947149
  31
0.0
   0
LINE
   5
5FA
 100
AcDbEntity
   8
0
 100
AcDbLine
   6
CONTINUOUS
  62
7
  10
 66.171666548047
  20
 109.21863947149
  30
0.0
  11
 66.171666548047
  21
 94.388639471486
  31
0.0
   0
ARC
   5
5FB
 100
AcDbEntity
   8
0
   6
CONTINUOUS
  62
7
 100
AcDbCircle
  10
 66.015131382410
  20
 111.12270464935
  30
0.0
  40
 0.10000000000002
 100
AcDbArc
  50
 0.26315654990049E-7
  51
 29.192306724978
   0
ARC
   5
5FC
 100
AcDbEntity
   8
0
   6
CONTINUOUS
  62
7
 100
AcDbCircle
  10
 66.071666548047
  20
 110.51863947144
  30
0.0
  40
 0.10000000000001
 100
AcDbArc
  50
 0.25143175312278E-7
  51
 50.906141123433
   0
LINE
   5
5FD
 100
AcDbEntity
   8
0
 100
AcDbLine
   6
CONTINUOUS
  62
7
  10
 66.115131382397
  20
 110.61217134436
  30
0.0
  11
 66.134725810555
  21
 110.59625087148
  31
0.0
   0
LINE
   5
5FE
 100
AcDbEntity
   8
0
 100
AcDbLine
   6
CONTINUOUS
  62
7
  10
 66.115131382397
  20
 111.12270464939
  30
0.0
  11
 66.115131382397
  21
 94.388639471486
  31
0.0
   0
LINE
   5
5FF
 100
AcDbEntity
   8
0
 100
AcDbLine
   6
DOT
  62
2
  10
 64.892464683347
  20
 107.85152847404
  30
0.0
  11
 64.380247533647
  21
 107.84705842268
  31
0.0
   0
ARC
   5
600
 100
AcDbEntity
   8
0
   6
CONTINUOUS
  62
7
 100
AcDbCircle
  10
 64.880247533646
  20
 78.288639471486
  30
0.0
  40
 1.4000000000000
 100
AcDbArc
  50
 270.00000000001
  51
 330.80769329771
   0
LINE
   5
601
 100
AcDbEntity
   8
0
 100
AcDbLine
   6
CONTINUOUS
  62
7
  10
 64.380247533646
  20
 76.888639471486
  30
0.0
  11
 64.880247533646
  21
 76.888639471486
  31
0.0
   0
LINE
   5
602
 100
AcDbEntity
   8
0
 100
AcDbLine
   6
CONTINUOUS
  62
7
  10
 66.171666548046
  20
 78.258639471486
  30
0.0
  11
 66.171666548046
  21
 78.908639471486
  31
0.0
   0
LINE
   5
603
 100
AcDbEntity
   8
0
 100
AcDbLine
   6
CONTINUOUS
  62
7
  10
 66.171666548046
  20
 78.908639471486
  30
0.0
  11
 66.171666548046
  21
 79.558639471486
  31
0.0
   0
LINE
   5
604
 100
AcDbEntity
   8
0
 100
AcDbLine
   6
CONTINUOUS
  62
7
  10
 66.171666548046
  20
 79.558639471486
  30
0.0
  11
 66.171666548047
  21
 94.388639471486
  31
0.0
   0
ARC
   5
605
 100
AcDbEntity
   8
0
   6
CONTINUOUS
  62
7
 100
AcDbCircle
  10
 66.015131382409
  20
 77.654574293608
  30
0.0
  40
 0.10000000000002
 100
AcDbArc
  50
 330.80769328182
  51
0.0
   0
ARC
   5
606
 100
AcDbEntity
   8
0
   6
CONTINUOUS
  62
7
 100
AcDbCircle
  10
 66.071666548047
  20
 78.258639471501
  30
0.0
  40
 0.10000000000001
 100
AcDbArc
  50
 309.09385888696
  51
0.0
   0
LINE
   5
607
 100
AcDbEntity
   8
0
 100
AcDbLine
   6
CONTINUOUS
  62
7
  10
 66.115131382396
  20
 78.165107598611
  30
0.0
  11
 66.134725810555
  21
 78.181028071493
  31
0.0
   0
LINE
   5
608
 100
AcDbEntity
   8
0
 100
AcDbLine
   6
CONTINUOUS
  62
7
  10
 66.115131382396
  20
 77.654574293586
  30
0.0
  11
 66.115131382397
  21
 94.388639471486
  31
0.0
   0
ARC
   5
609
 100
AcDbEntity
   8
0
   6
DOT
  62
2
 100
AcDbCircle
  10
 64.880247533647
  20
 79.525803776636
  30
0.0
  40
 1.4000000000001
 100
AcDbArc
  50
 29.290756992517
  51
 89.500000000028
   0
LINE
   5
60A
 100
AcDbEntity
   8
0
 100
AcDbLine
   6
DOT
  62
2
  10
 64.892464683346
  20
 80.925750468936
  30
0.0
  11
 64.380247533647
  21
 80.930220520293
  31
0.0
   0
LINE
   5
60B
 100
AcDbEntity
   8
0
 100
AcDbLine
   6
CONTINUOUS
  62
7
  10
 26.588828519247
  20
 110.51863947149
  30
0.0
  11
 26.588828519247
  21
 109.86863947149
  31
0.0
   0
LINE
   5
60C
 100
AcDbEntity
   8
0
 100
AcDbLine
   6
CONTINUOUS
  62
7
  10
 26.588828519247
  20
 109.86863947149
  30
0.0
  11
 26.588828519247
  21
 109.21863947149
  31
0.0
   0
ARC
   5
60D
 100
AcDbEntity
   8
0
   6
CONTINUOUS
  62
7
 100
AcDbCircle
  10
 27.880247533647
  20
 110.48863947149
  30
0.0
  40
 1.4000000000000
 100
AcDbArc
  50
 90.000000000005
  51
 150.80769329770
   0
ARC
   5
60E
 100
AcDbEntity
   8
0
   6
DOT
  62
2
 100
AcDbCircle
  10
 27.880247533646
  20
 109.25147516634
  30
0.0
  40
 1.4000000000001
 100
AcDbArc
  50
 209.29075699250
  51
 269.50000000000
   0
LINE
   5
60F
 100
AcDbEntity
   8
0
 100
AcDbLine
   6
CONTINUOUS
  62
7
  10
 28.380247533647
  20
 111.88863947149
  30
0.0
  11
 27.880247533647
  21
 111.88863947149
  31
0.0
   0
LINE
   5
610
 100
AcDbEntity
   8
0
 100
AcDbLine
   6
CONTINUOUS
  62
7
  10
 26.588828519247
  20
 109.21863947149
  30
0.0
  11
 26.588828519247
  21
 94.388639471486
  31
0.0
   0
ARC
   5
611
 100
AcDbEntity
   8
0
   6
CONTINUOUS
  62
7
 100
AcDbCircle
  10
 26.745363684884
  20
 111.12270464941
  30
0.0
  40
 0.10000000000002
 100
AcDbArc
  50
 150.80769330372
  51
 180.00000000656
   0
ARC
   5
612
 100
AcDbEntity
   8
0
   6
CONTINUOUS
  62
7
 100
AcDbCircle
  10
 26.688828519246
  20
 110.51863947146
  30
0.0
  40
 0.10000000000001
 100
AcDbArc
  50
 129.09385888092
  51
 179.99999998178
   0
LINE
   5
613
 100
AcDbEntity
   8
0
 100
AcDbLine
   6
CONTINUOUS
  62
7
  10
 26.645363684897
  20
 110.61217134436
  30
0.0
  11
 26.625769256738
  21
 110.59625087148
  31
0.0
   0
LINE
   5
614
 100
AcDbEntity
   8
0
 100
AcDbLine
   6
CONTINUOUS
  62
7
  10
 26.645363684896
  20
 111.12270464939
  30
0.0
  11
 26.645363684896
  21
 94.388639471486
  31
0.0
   0
LINE
   5
615
 100
AcDbEntity
   8
0
 100
AcDbLine
   6
DOT
  62
2
  10
 27.868030383947
  20
 107.85152847404
  30
0.0
  11
 28.380247533647
  21
 107.84705842268
  31
0.0
   0
ARC
   5
616
 100
AcDbEntity
   8
0
   6
CONTINUOUS
  62
7
 100
AcDbCircle
  10
 27.880247533647
  20
 78.288639471485
  30
0.0
  40
 1.4000000000000
 100
AcDbArc
  50
 209.19230670227
  51
 269.99999999998
   0
LINE
   5
617
 100
AcDbEntity
   8
0
 100
AcDbLine
   6
CONTINUOUS
  62
7
  10
 28.380247533647
  20
 76.888639471486
  30
0.0
  11
 27.880247533647
  21
 76.888639471486
  31
0.0
   0
LINE
   5
618
 100
AcDbEntity
   8
0
 100
AcDbLine
   6
CONTINUOUS
  62
7
  10
 26.588828519247
  20
 78.258639471486
  30
0.0
  11
 26.588828519247
  21
 78.908639471486
  31
0.0
   0
LINE
   5
619
 100
AcDbEntity
   8
0
 100
AcDbLine
   6
CONTINUOUS
  62
7
  10
 26.588828519247
  20
 78.908639471486
  30
0.0
  11
 26.588828519247
  21
 79.558639471486
  31
0.0
   0
LINE
   5
61A
 100
AcDbEntity
   8
0
 100
AcDbLine
   6
CONTINUOUS
  62
7
  10
 26.588828519247
  20
 79.558639471486
  30
0.0
  11
 26.588828519247
  21
 94.388639471486
  31
0.0
   0
ARC
   5
61B
 100
AcDbEntity
   8
0
   6
CONTINUOUS
  62
7
 100
AcDbCircle
  10
 26.745363684884
  20
 77.654574293588
  30
0.0
  40
 0.10000000000002
 100
AcDbArc
  50
 180.00000000702
  51
 209.19230670814
   0
ARC
   5
61C
 100
AcDbEntity
   8
0
   6
CONTINUOUS
  62
7
 100
AcDbCircle
  10
 26.688828519246
  20
 78.258639471489
  30
0.0
  40
 0.10000000000001
 100
AcDbArc
  50
 180.00000000179
  51
 230.90614110872
   0
LINE
   5
61D
 100
AcDbEntity
   8
0
 100
AcDbLine
   6
CONTINUOUS
  62
7
  10
 26.645363684897
  20
 78.165107598611
  30
0.0
  11
 26.625769256738
  21
 78.181028071493
  31
0.0
   0
LINE
   5
61E
 100
AcDbEntity
   8
0
 100
AcDbLine
   6
CONTINUOUS
  62
7
  10
 26.645363684897
  20
 77.654574293586
  30
0.0
  11
 26.645363684896
  21
 94.388639471486
  31
0.0
   0
ARC
   5
61F
 100
AcDbEntity
   8
0
   6
DOT
  62
2
 100
AcDbCircle
  10
 27.880247533647
  20
 79.525803776636
  30
0.0
  40
 1.4000000000001
 100
AcDbArc
  50
 90.500000000012
  51
 150.70924300750
   0
LINE
   5
620
 100
AcDbEntity
   8
0
 100
AcDbLine
   6
DOT
  62
2
  10
 27.868030383947
  20
 80.925750468936
  30
0.0
  11
 28.380247533647
  21
 80.930220520293
  31
0.0
   0
DIMENSION
   5
621
 100
AcDbEntity
   8
0
   6
CONTINUOUS
  62
6
 100
AcDbDimension
   2
*D16
  10
 64.380247533647
  20
 125.48377385392
  30
0.0
  11
 46.380247533647
  21
 125.48377385392
  31
0.0
  70
0
   3
GMM002
 100
AcDbAlignedDimension
  13
 28.380247533647
  23
 120.74046337867
  33
0.0
  14
 64.380247533647
  24
 120.74046337867
  34
0.0
 100
AcDbRotatedDimension
   0
LINE
   5
622
 100
AcDbEntity
   8
0
 100
AcDbLine
   6
CONTINUOUS
  62
7
  10
 52.380247533647
  20
 108.78863947149
  30
0.0
  11
 52.380247533647
  21
 94.388639471486
  31
0.0
   0
LINE
   5
623
 100
AcDbEntity
   8
0
 100
AcDbLine
   6
CONTINUOUS
  62
7
  10
 52.380247533647
  20
 79.988639471486
  30
0.0
  11
 52.380247533647
  21
 94.388639471486
  31
0.0
   0
LWPOLYLINE
   5
624
 100
AcDbEntity
   8
0
   6
DIVIDE
  62
2
 100
AcDbPolyline
  90
4
  70
1
  10
 17.996928249707
  20
 209.38863947149
  10
 17.996928249707
  20
 59.388639471486
  10
 139.30660543018
  20
 59.388639471486
  10
 139.30660543018
  20
 209.38863947149
   0
TEXT
   5
625
 100
AcDbEntity
   8
0
  62
6
 100
AcDbText
  10
 231.11710809391
  20
 13.623482664101
  30
0.0
  40
 4.0000000000000
   1
 田口
   7
STANDARD
 100
AcDbText
   0
TEXT
   5
626
 100
AcDbEntity
   8
0
  62
6
 100
AcDbText
  10
 248.50597589093
  20
 13.623482664101
  30
0.0
  40
 4.0000000000000
   1
 小見
   7
STANDARD
 100
AcDbText
   0
TEXT
   5
627
 100
AcDbEntity
   8
0
  62
6
 100
AcDbText
  10
 265.84066013491
  20
 13.623482664101
  30
0.0
  40
 4.0000000000000
   1
 工藤
   7
STANDARD
 100
AcDbText
   0
TEXT
   5
628
 100
AcDbEntity
   8
0
  62
6
 100
AcDbText
  10
 229.88223017113
  20
 10.623482664101
  30
0.0
  40
 3.0000000000000
   1
2023.10.25
  41
 0.50000000000000
   7
STANDARD
 100
AcDbText
   0
TEXT
   5
629
 100
AcDbEntity
   8
0
  62
6
 100
AcDbText
  10
 247.21556350446
  20
 10.623482664101
  30
0.0
  40
 3.0000000000000
   1
2023.10.25
  41
 0.50000000000000
   7
STANDARD
 100
AcDbText
   0
TEXT
   5
62A
 100
AcDbEntity
   8
0
  62
6
 100
AcDbText
  10
 264.54889683780
  20
 10.623482664101
  30
0.0
  40
 3.0000000000000
   1
2023.10.25
  41
 0.50000000000000
   7
STANDARD
 100
AcDbText
   0
LINE
   5
62B
 100
AcDbEntity
   8
0
 100
AcDbLine
   6
DOT
  62
2
  10
 310.44582279502
  20
 175.18863947149
  30
0.0
  11
 323.94582279502
  21
 175.18863947149
  31
0.0
   0
LINE
   5
62C
 100
AcDbEntity
   8
0
 100
AcDbLine
   6
DOT
  62
2
  10
 310.44582279502
  20
 175.18863947149
  30
0.0
  11
 323.94582279502
  21
 175.18863947149
  31
0.0
   0
ARC
   5
62D
 100
AcDbEntity
   8
0
   6
DOT
  62
2
 100
AcDbCircle
  10
 310.44582279502
  20
 175.68863947150
  30
0.0
  40
 0.50000000000000
 100
AcDbArc
  50
 180.00000000112
  51
 270.00000000000
   0
ARC
   5
62E
 100
AcDbEntity
   8
0
   6
DOT
  62
2
 100
AcDbCircle
  10
 310.44582279502
  20
 175.68863947150
  30
0.0
  40
 0.50000000000000
 100
AcDbArc
  50
 180.00000000112
  51
 270.00000000000
   0
POINT
   5
62F
 100
AcDbEntity
   8
0
 100
AcDbPoint
  62
2
  10
 309.94582279502
  20
 175.18863947149
  30
0.0
   0
LINE
   5
630
 100
AcDbEntity
   8
0
 100
AcDbLine
   6
DOT
  62
2
  10
 324.44582279502
  20
 174.68863947149
  30
0.0
  11
 324.44582279502
  21
 164.38863947149
  31
0.0
   0
ARC
   5
631
 100
AcDbEntity
   8
0
   6
DOT
  62
2
 100
AcDbCircle
  10
 323.94582279502
  20
 174.68863947148
  30
0.0
  40
 0.50000000000000
 100
AcDbArc
  50
 0.56018473493681E-9
  51
 90.000000000000
   0
LINE
   5
632
 100
AcDbEntity
   8
0
 100
AcDbLine
   6
DOT
  62
2
  10
 324.44582279502
  20
 154.08863947149
  30
0.0
  11
 324.44582279502
  21
 164.38863947149
  31
0.0
   0
LINE
   5
633
 100
AcDbEntity
   8
0
 100
AcDbLine
   6
DASHDOT
  62
2
  10
 309.94582279502
  20
 144.91932518088
  30
0.0
  11
 309.94582279502
  21
 166.22877236361
  31
0.0
   0
LINE
   5
634
 100
AcDbEntity
   8
0
 100
AcDbLine
   6
HIDDEN
  62
7
  10
 309.96597736754
  20
 154.38863947149
  30
0.0
  11
 309.92566822249
  21
 154.38863947149
  31
0.0
   0
LINE
   5
635
 100
AcDbEntity
   8
0
 100
AcDbLine
   6
DOT
  62
2
  10
 310.44582279502
  20
 153.58863947149
  30
0.0
  11
 323.94582279502
  21
 153.58863947149
  31
0.0
   0
LINE
   5
636
 100
AcDbEntity
   8
0
 100
AcDbLine
   6
DOT
  62
2
  10
 310.44582279502
  20
 153.58863947149
  30
0.0
  11
 323.94582279502
  21
 153.58863947149
  31
0.0
   0
ARC
   5
637
 100
AcDbEntity
   8
0
   6
DOT
  62
2
 100
AcDbCircle
  10
 310.44582279502
  20
 153.08863947148
  30
0.0
  40
 0.50000000000000
 100
AcDbArc
  50
 90.000000000000
  51
 179.99999999880
   0
ARC
   5
638
 100
AcDbEntity
   8
0
   6
DOT
  62
2
 100
AcDbCircle
  10
 310.44582279502
  20
 153.08863947148
  30
0.0
  40
 0.50000000000000
 100
AcDbArc
  50
 90.000000000000
  51
 179.99999999880
   0
POINT
   5
639
 100
AcDbEntity
   8
0
 100
AcDbPoint
  62
2
  10
 309.94582279502
  20
 153.58863947149
  30
0.0
   0
ARC
   5
63A
 100
AcDbEntity
   8
0
   6
DOT
  62
2
 100
AcDbCircle
  10
 323.94582279502
  20
 154.08863947150
  30
0.0
  40
 0.50000000000000
 100
AcDbArc
  50
 270.00000000000
  51
0.0
   0
DIMENSION
   5
63B
 100
AcDbEntity
   8
0
   6
CONTINUOUS
  62
6
 100
AcDbDimension
   2
*D17
  10
 327.23724180942
  20
 197.47591983088
  30
0.0
  11
 334.68567846417
  21
 197.47591983088
  31
0.0
  70
128
   1
\A1;1.8
   3
GMM004
 100
AcDbAlignedDimension
  13
 325.44582279502
  23
 181.88863947149
  33
0.0
  14
 327.23724180942
  24
 180.51863947149
  34
0.0
 100
AcDbRotatedDimension
   0
LEADER
   5
63C
 100
AcDbEntity
   8
0
   6
CONTINUOUS
  62
6
 100
AcDbLeader
   3
GMM006
  73
0
  74
1
  75
0
  40
 4.0000000000000
  41
 15.000000000000
  76
2
  10
 188.77251184834
  20
 161.28672985782
  30
0.0
  10
 178.76375521365
  20
 132.48789348269
  30
0.0
  77
6
 340
63D
 213
0.0
 223
-1.7142857142858
 233
0.0
   0
MTEXT
   5
63D
 102
{ACAD_REACTORS
 330
63C
 102
}
 100
AcDbEntity
   8
0
  62
6
 100
AcDbMText
  10
 163.76375521365
  20
 139.53551253031
  30
0.0
  40
 4.0000000000000
  41
0.0
  71
4
  72
1
   1
\A1;窓部\P表面にシボ
   7
GMM001
   0
LEADER
   5
63E
 100
AcDbEntity
   8
0
   6
CONTINUOUS
  62
6
 100
AcDbLeader
   3
GMM006
  73
0
  74
1
  75
0
  40
 4.0000000000000
  41
 15.000000000000
  76
2
  10
 370.09004739336
  20
 161.23459715640
  30
0.0
  10
 357.07669510373
  20
 136.26146799560
  30
0.0
  77
6
 340
63F
 213
0.0
 223
-1.7142857142858
 233
0.0
   0
MTEXT
   5
63F
 102
{ACAD_REACTORS
 330
63E
 102
}
 100
AcDbEntity
   8
0
  62
6
 100
AcDbMText
  10
 342.07669510373
  20
 143.30908704322
  30
0.0
  40
 4.0000000000000
  41
0.0
  71
4
  72
1
   1
\A1;窓部\P表面にシボ
   7
GMM001
   0
ENDSEC
  0
SECTION
  2
OBJECTS
  0
DICTIONARY
  5
C
100
AcDbDictionary
  3
ACAD_GROUP
350
D
  3
ACAD_MLINESTYLE
350
1B
  0
DICTIONARY
  5
D
102
{ACAD_REACTORS
330
C
102
}
100
AcDbDictionary
  0
DICTIONARY
  5
1B
102
{ACAD_REACTORS
330
C
102
}
100
AcDbDictionary
  3
STANDARD
350
1C
  0
MLINESTYLE
  5
1C
102
{ACAD_REACTORS
330
1B
102
}
100
AcDbMlineStyle
  2
STANDARD
 70
     0
  3

 62
   256
 51
90.0
 52
90.0
 71
     2
 49
0.5
 62
   256
  6
BYLAYER
 49
-0.5
 62
   256
  6
BYLAYER
  0
ENDSEC
   0
EOF
